Westworld (2016) Season 1-3 (1080p Mixed x265 HEVC 10bit AAC 5.1 Vyndros)

Summary: Westworld is a dark odyssey about the dawn of artificial consciousness and the evolution of sin. Set at the intersection of the near future and the reimagined past, it explores a world in which every human appetite, no matter how noble or depraved, can be indulged.

Season 1

Westworld (2016) Season 1 S01 (1080p BluRay x265 HEVC 10bit AAC 5.1 Vyndros)

Files

  • Westworld.S01E01.The.Original.1080p.10bit.BluRay.AAC5.1.HEVC-Vyndros.mkv (1.6 GB)
  • Westworld.S01E02.Chestnut.1080p.10bit.BluRay.AAC5.1.HEVC-Vyndros.mkv (1.6 GB)
  • Westworld.S01E03.The.Stray.1080p.10bit.BluRay.AAC5.1.HEVC-Vyndros.mkv (1.5 GB)
  • Westworld.S01E04.Dissonance.Theory.1080p.10bit.BluRay.AAC5.1.HEVC-Vyndros.mkv (1.6 GB)
  • Westworld.S01E05.Contrapasso.1080p.10bit.BluRay.AAC5.1.HEVC-Vyndros.mkv (1.6 GB)
  • Westworld.S01E06.The.Adversary.1080p.10bit.BluRay.AAC5.1.HEVC-Vyndros.mkv (1.5 GB)
  • Westworld.S01E07.Trompe.L’Oeil.1080p.10bit.BluRay.AAC5.1.HEVC-Vyndros.mkv (1.2 GB)
  • Westworld.S01E08.Trace.Decay.1080p.10bit.BluRay.AAC5.1.HEVC-Vyndros.mkv (1.5 GB)
  • Westworld.S01E09.The.Well-Tempered.Clavier.1080p.10bit.BluRay.AAC5.1.HEVC-Vyndros.mkv (1.2 GB)
  • Westworld.S01E10.The.Bicameral.Mind.1080p.10bit.BluRay.AAC5.1.HEVC-Vyndros.mkv (2.2 GB)

Mediainfo

General
Format : Matroska
Format version : Version 4 / Version 2
File size : 1.49 GiB
Duration : 58 min 28 s
Overall bit rate : 3 652 kb/s
Encoded date : UTC 2020-03-04 23:49:49
Writing application : mkvmerge v20.0.0 ('I Am The Sun') 64-bit
Writing library : libebml v1.3.5 + libmatroska v1.4.8
Writing frontend : StaxRip v1.7.0.6

Video
ID : 1
Format : HEVC
Format/Info : High Efficiency Video Coding
Format profile : Main [email protected]@Main
Codec ID : V_MPEGH/ISO/HEVC
Duration : 58 min 28 s
Bit rate : 3 178 kb/s
Width : 1 920 pixels
Height : 1 080 pixels
Display aspect ratio : 16:9
Frame rate mode : Constant
Frame rate : 23.976 (24000/1001) FPS
Color space : YUV
Chroma subsampling : 4:2:0
Bit depth : 10 bits
Bits/(Pixel*Frame) : 0.064
Stream size : 1.30 GiB (87%)
Writing library : x265 3.3+1-g554c887ac:[Windows][MSVC 1924][64 bit] 10bit
Encoding settings : cpuid=1111039 / frame-threads=2 / numa-pools=4 / wpp / no-pmode / no-pme / no-psnr / ssim / log-level=2 / input-csp=1 / input-res=1920x1080 / interlace=0 / total-frames=84110 / level-idc=0 / high-tier=1 / uhd-bd=0 / ref=3 / no-allow-non-conformance / no-repeat-headers / annexb / no-aud / no-hrd / info / hash=0 / no-temporal-layers / open-gop / min-keyint=23 / keyint=250 / gop-lookahead=0 / bframes=8 / b-adapt=2 / b-pyramid / bframe-bias=0 / rc-lookahead=80 / lookahead-slices=6 / scenecut=40 / hist-scenecut=0 / radl=0 / no-splice / no-intra-refresh / ctu=64 / min-cu-size=8 / no-rect / no-amp / max-tu-size=32 / tu-inter-depth=1 / tu-intra-depth=1 / limit-tu=0 / rdoq-level=0 / dynamic-rd=0.00 / no-ssim-rd / signhide / no-tskip / nr-intra=0 / nr-inter=0 / no-constrained-intra / no-strong-intra-smoothing / max-merge=3 / limit-refs=1 / no-limit-modes / me=3 / subme=5 / merange=57 / temporal-mvp / no-frame-dup / no-hme / weightp / no-weightb / no-analyze-src-pics / deblock=0:0 / sao / no-sao-non-deblock / rd=3 / selective-sao=4 / early-skip / no-rskip / no-fast-intra / no-tskip-fast / no-cu-lossless / b-intra / no-splitrd-skip / rdpenalty=0 / psy-rd=2.00 / psy-rdoq=0.00 / no-rd-refine / no-lossless / cbqpoffs=0 / crqpoffs=0 / rc=crf / crf=20.0 / qcomp=0.60 / qpstep=4 / stats-write=0 / stats-read=0 / ipratio=1.40 / pbratio=1.30 / aq-mode=3 / aq-strength=1.00 / cutree / zone-count=0 / no-strict-cbr / qg-size=32 / no-rc-grain / qpmax=69 / qpmin=0 / no-const-vbv / sar=0 / overscan=0 / videoformat=5 / range=0 / colorprim=2 / transfer=2 / colormatrix=2 / chromaloc=0 / display-window=0 / cll=0,0 / min-luma=0 / max-luma=1023 / log2-max-poc-lsb=8 / vui-timing-info / vui-hrd-info / slices=1 / no-opt-qp-pps / no-opt-ref-list-length-pps / no-multi-pass-opt-rps / scenecut-bias=0.05 / hist-threshold=0.01 / no-opt-cu-delta-qp / no-aq-motion / no-hdr10 / no-hdr10-opt / no-dhdr10-opt / no-idr-recovery-sei / analysis-reuse-level=0 / analysis-save-reuse-level=0 / analysis-load-reuse-level=0 / scale-factor=0 / refine-intra=0 / refine-inter=0 / refine-mv=1 / refine-ctu-distortion=0 / no-limit-sao / ctu-info=0 / no-lowpass-dct / refine-analysis-type=0 / copy-pic=1 / max-ausize-factor=1.0 / no-dynamic-refine / no-single-sei / no-hevc-aq / no-svt / no-field / qp-adaptation-range=1.00 / no-scenecut-aware-qpconformance-window-offsets / right=0 / bottom=0
Default : Yes
Forced : No

Audio
ID : 2
Format : AAC
Format/Info : Advanced Audio Codec
Format profile : LC
Codec ID : A_AAC
Duration : 58 min 28 s
Bit rate : 461 kb/s
Channel(s) : 6 channels
Channel positions : Front: L C R, Side: L R, LFE
Sampling rate : 48.0 kHz
Frame rate : 46.875 FPS (1024 spf)
Compression mode : Lossy
Delay relative to video : 20 ms
Stream size : 193 MiB (13%)
Language : English
Default : Yes
Forced : No

Subtitle
ID : 3
Format : PGS
Muxing mode : zlib
Codec ID : S_HDMV/PGS
Codec ID/Info : Picture based subtitle format used on BDs/HD-DVDs
Duration : 58 min 23 s
Bit rate : 33.9 kb/s
Count of elements : 1466
Stream size : 14.1 MiB (1%)
Language : English
Default : No
Forced : No

Screens

Download

Download: Google Drive

Season 2

Westworld (2016) Season 2 S02 (1080p BluRay x265 HEVC 10bit AAC 7.1 Vyndros)

Files

  • Westworld.S02E01.Journey.Into.Night.1080p.10bit.BluRay.AAC7.1.HEVC-Vyndros.mkv (1.7 GB)
  • Westworld.S02E02.Reunion.1080p.10bit.BluRay.AAC7.1.HEVC-Vyndros.mkv (1.1 GB)
  • Westworld.S02E03.Virtù.e.Fortuna.1080p.10bit.BluRay.AAC7.1.HEVC-Vyndros.mkv (1.6 GB)
  • Westworld.S02E04.The.Riddle.of.the.Sphinx.1080p.10bit.BluRay.AAC7.1.HEVC-Vyndros.mkv (1.7 GB)
  • Westworld.S02E05.Akane.No.Mai.1080p.10bit.BluRay.AAC7.1.HEVC-Vyndros.mkv (1.2 GB)
  • Westworld.S02E06.Phase.Space.1080p.10bit.BluRay.AAC7.1.HEVC-Vyndros.mkv (1.5 GB)
  • Westworld.S02E07.Les.Écorchés.1080p.10bit.BluRay.AAC7.1.HEVC-Vyndros.mkv (1.3 GB)
  • Westworld.S02E08.Kiksuya.1080p.10bit.BluRay.AAC7.1.HEVC-Vyndros.mkv (1.9 GB)
  • Westworld.S02E09.Vanishing.Point.1080p.10bit.BluRay.AAC7.1.HEVC-Vyndros.mkv (1.5 GB)
  • Westworld.S02E10.The.Passenger.1080p.10bit.BluRay.AAC7.1.HEVC-Vyndros.mkv (2.0 GB)

Mediainfo

General
Format : Matroska
Format version : Version 4 / Version 2
File size : 1.31 GiB
Duration : 58 min 29 s
Overall bit rate : 3 202 kb/s
Movie name : Westworld - S02E07 - Les Écorchés
Encoded date : UTC 2020-03-15 01:04:39
Writing application : mkvmerge v20.0.0 ('I Am The Sun') 64-bit
Writing library : libebml v1.3.5 + libmatroska v1.4.8
Writing frontend : StaxRip v1.7.0.6

Video
ID : 1
Format : HEVC
Format/Info : High Efficiency Video Coding
Format profile : Main [email protected]@Main
Codec ID : V_MPEGH/ISO/HEVC
Duration : 58 min 29 s
Bit rate : 2 579 kb/s
Width : 1 920 pixels
Height : 1 080 pixels
Display aspect ratio : 16:9
Frame rate mode : Constant
Frame rate : 23.976 (24000/1001) FPS
Color space : YUV
Chroma subsampling : 4:2:0
Bit depth : 10 bits
Bits/(Pixel*Frame) : 0.052
Stream size : 1.05 GiB (81%)
Writing library : x265 3.3+1-g554c887ac:[Windows][MSVC 1924][64 bit] 10bit
Encoding settings : cpuid=1111039 / frame-threads=2 / numa-pools=4 / wpp / no-pmode / no-pme / no-psnr / ssim / log-level=2 / input-csp=1 / input-res=1920x1080 / interlace=0 / total-frames=84140 / level-idc=0 / high-tier=1 / uhd-bd=0 / ref=3 / no-allow-non-conformance / no-repeat-headers / annexb / no-aud / no-hrd / info / hash=0 / no-temporal-layers / open-gop / min-keyint=23 / keyint=250 / gop-lookahead=0 / bframes=8 / b-adapt=2 / b-pyramid / bframe-bias=0 / rc-lookahead=80 / lookahead-slices=6 / scenecut=40 / hist-scenecut=0 / radl=0 / no-splice / no-intra-refresh / ctu=64 / min-cu-size=8 / no-rect / no-amp / max-tu-size=32 / tu-inter-depth=1 / tu-intra-depth=1 / limit-tu=0 / rdoq-level=0 / dynamic-rd=0.00 / no-ssim-rd / signhide / no-tskip / nr-intra=0 / nr-inter=0 / no-constrained-intra / no-strong-intra-smoothing / max-merge=3 / limit-refs=1 / no-limit-modes / me=3 / subme=5 / merange=57 / temporal-mvp / no-frame-dup / no-hme / weightp / no-weightb / no-analyze-src-pics / deblock=0:0 / sao / no-sao-non-deblock / rd=3 / selective-sao=4 / early-skip / no-rskip / no-fast-intra / no-tskip-fast / no-cu-lossless / b-intra / no-splitrd-skip / rdpenalty=0 / psy-rd=2.00 / psy-rdoq=0.00 / no-rd-refine / no-lossless / cbqpoffs=0 / crqpoffs=0 / rc=crf / crf=20.0 / qcomp=0.60 / qpstep=4 / stats-write=0 / stats-read=0 / ipratio=1.40 / pbratio=1.30 / aq-mode=3 / aq-strength=1.00 / cutree / zone-count=0 / no-strict-cbr / qg-size=32 / no-rc-grain / qpmax=69 / qpmin=0 / no-const-vbv / sar=0 / overscan=0 / videoformat=5 / range=0 / colorprim=2 / transfer=2 / colormatrix=2 / chromaloc=0 / display-window=0 / cll=0,0 / min-luma=0 / max-luma=1023 / log2-max-poc-lsb=8 / vui-timing-info / vui-hrd-info / slices=1 / no-opt-qp-pps / no-opt-ref-list-length-pps / no-multi-pass-opt-rps / scenecut-bias=0.05 / hist-threshold=0.01 / no-opt-cu-delta-qp / no-aq-motion / no-hdr10 / no-hdr10-opt / no-dhdr10-opt / no-idr-recovery-sei / analysis-reuse-level=0 / analysis-save-reuse-level=0 / analysis-load-reuse-level=0 / scale-factor=0 / refine-intra=0 / refine-inter=0 / refine-mv=1 / refine-ctu-distortion=0 / no-limit-sao / ctu-info=0 / no-lowpass-dct / refine-analysis-type=0 / copy-pic=1 / max-ausize-factor=1.0 / no-dynamic-refine / no-single-sei / no-hevc-aq / no-svt / no-field / qp-adaptation-range=1.00 / no-scenecut-aware-qpconformance-window-offsets / right=0 / bottom=0
Default : Yes
Forced : No

Audio
ID : 2
Format : AAC
Format/Info : Advanced Audio Codec
Format profile : LC
Codec ID : A_AAC
Duration : 58 min 29 s
Bit rate : 608 kb/s
Channel(s) : 8 channels
Channel positions : Front: L C R, Side: 4, LFE
Sampling rate : 48.0 kHz
Frame rate : 46.875 FPS (1024 spf)
Compression mode : Lossy
Delay relative to video : 20 ms
Stream size : 254 MiB (19%)
Language : English
Default : Yes
Forced : No

Subtitle
ID : 3
Format : PGS
Muxing mode : zlib
Codec ID : S_HDMV/PGS
Codec ID/Info : Picture based subtitle format used on BDs/HD-DVDs
Duration : 58 min 3 s
Bit rate : 30.7 kb/s
Count of elements : 1362
Stream size : 12.7 MiB (1%)
Language : English
Default : No
Forced : No

Screens

Download

Download: Google Drive

Season 3

Westworld (2016) Season 3 S03 (1080p AMZN WEB-DL x265 HEVC 10bit DDP 5.1 Vyndros)

Files

  • Westworld.S03E01.Parce.Domine.1080p.10bit.AMZN.WEB-DL.DDP5.1.HEVC-Vyndros.mkv (1.4 GB)
  • Westworld.S03E02.The.Winter.Line.1080p.10bit.AMZN.WEB-DL.DDP5.1.HEVC-Vyndros.mkv (1.4 GB)
  • Westworld.S03E03.The.Absence.of.Field.1080p.10bit.AMZN.WEB-DL.DDP5.1.HEVC-Vyndros.mkv (1.0 GB)
  • Westworld.S03E04.The.Mother.of.Exiles.1080p.10bit.AMZN.WEB-DL.DDP5.1.HEVC-Vyndros.mkv (1.1 GB)
  • Westworld.S03E05.Genre.1080p.10bit.AMZN.WEB-DL.DDP5.1.HEVC-Vyndros.mkv (1.4 GB)
  • Westworld.S03E06.Decoherence.1080p.10bit.AMZN.WEB-DL.DDP5.1.HEVC-Vyndros.mkv (1.2 GB)
  • Westworld.S03E07.Passed.Pawn.1080p.10bit.AMZN.WEB-DL.DDP5.1.HEVC-Vyndros.mkv (1.4 GB)
  • Westworld.S03E08.Crisis.Theory.1080p.10bit.AMZN.WEB-DL.DDP5.1.HEVC-Vyndros.mkv (1.5 GB)

Mediainfo

General
Format : Matroska
Format version : Version 4 / Version 2
File size : 1.48 GiB
Duration : 1 h 17 min
Overall bit rate : 2 752 kb/s
Encoded date : UTC 2020-05-04 07:59:02
Writing application : mkvmerge v20.0.0 ('I Am The Sun') 64-bit
Writing library : libebml v1.3.5 + libmatroska v1.4.8
Writing frontend : StaxRip v1.7.0.6

Video
ID : 1
Format : HEVC
Format/Info : High Efficiency Video Coding
Format profile : Main [email protected]@Main
Codec ID : V_MPEGH/ISO/HEVC
Duration : 1 h 17 min
Bit rate : 2 110 kb/s
Width : 1 920 pixels
Height : 1 080 pixels
Display aspect ratio : 16:9
Frame rate mode : Constant
Frame rate : 23.976 (24000/1001) FPS
Color space : YUV
Chroma subsampling : 4:2:0
Bit depth : 10 bits
Bits/(Pixel*Frame) : 0.042
Stream size : 1.14 GiB (77%)
Writing library : x265 3.3+1-g554c887ac:[Windows][MSVC 1924][64 bit] 10bit
Encoding settings : cpuid=1111039 / frame-threads=3 / numa-pools=12 / wpp / no-pmode / no-pme / no-psnr / ssim / log-level=2 / input-csp=1 / input-res=1920x1080 / interlace=0 / total-frames=111120 / level-idc=0 / high-tier=1 / uhd-bd=0 / ref=3 / no-allow-non-conformance / no-repeat-headers / annexb / no-aud / no-hrd / info / hash=0 / no-temporal-layers / open-gop / min-keyint=23 / keyint=250 / gop-lookahead=0 / bframes=8 / b-adapt=2 / b-pyramid / bframe-bias=0 / rc-lookahead=80 / lookahead-slices=6 / scenecut=40 / hist-scenecut=0 / radl=0 / no-splice / no-intra-refresh / ctu=64 / min-cu-size=8 / no-rect / no-amp / max-tu-size=32 / tu-inter-depth=1 / tu-intra-depth=1 / limit-tu=0 / rdoq-level=0 / dynamic-rd=0.00 / no-ssim-rd / signhide / no-tskip / nr-intra=0 / nr-inter=0 / no-constrained-intra / no-strong-intra-smoothing / max-merge=3 / limit-refs=1 / no-limit-modes / me=3 / subme=5 / merange=57 / temporal-mvp / no-frame-dup / no-hme / weightp / no-weightb / no-analyze-src-pics / deblock=0:0 / sao / no-sao-non-deblock / rd=3 / selective-sao=4 / early-skip / no-rskip / no-fast-intra / no-tskip-fast / no-cu-lossless / b-intra / no-splitrd-skip / rdpenalty=0 / psy-rd=2.00 / psy-rdoq=0.00 / no-rd-refine / no-lossless / cbqpoffs=0 / crqpoffs=0 / rc=crf / crf=20.0 / qcomp=0.60 / qpstep=4 / stats-write=0 / stats-read=0 / ipratio=1.40 / pbratio=1.30 / aq-mode=3 / aq-strength=1.00 / cutree / zone-count=0 / no-strict-cbr / qg-size=32 / no-rc-grain / qpmax=69 / qpmin=0 / no-const-vbv / sar=0 / overscan=0 / videoformat=5 / range=0 / colorprim=2 / transfer=2 / colormatrix=2 / chromaloc=0 / display-window=0 / cll=0,0 / min-luma=0 / max-luma=1023 / log2-max-poc-lsb=8 / vui-timing-info / vui-hrd-info / slices=1 / no-opt-qp-pps / no-opt-ref-list-length-pps / no-multi-pass-opt-rps / scenecut-bias=0.05 / hist-threshold=0.01 / no-opt-cu-delta-qp / no-aq-motion / no-hdr10 / no-hdr10-opt / no-dhdr10-opt / no-idr-recovery-sei / analysis-reuse-level=0 / analysis-save-reuse-level=0 / analysis-load-reuse-level=0 / scale-factor=0 / refine-intra=0 / refine-inter=0 / refine-mv=1 / refine-ctu-distortion=0 / no-limit-sao / ctu-info=0 / no-lowpass-dct / refine-analysis-type=0 / copy-pic=1 / max-ausize-factor=1.0 / no-dynamic-refine / no-single-sei / no-hevc-aq / no-svt / no-field / qp-adaptation-range=1.00 / no-scenecut-aware-qpconformance-window-offsets / right=0 / bottom=0
Default : Yes
Forced : No

Audio
ID : 2
Format : E-AC-3
Format/Info : Enhanced Audio Coding 3
Format settings, Endianness : Big
Codec ID : A_EAC3
Duration : 1 h 17 min
Bit rate mode : Constant
Bit rate : 640 kb/s
Channel(s) : 6 channels
Channel positions : Front: L C R, Side: L R, LFE
Sampling rate : 48.0 kHz
Frame rate : 187.500 FPS (256 spf)
Compression mode : Lossy
Delay relative to video : 18 ms
Stream size : 354 MiB (23%)
Language : English
Default : No
Forced : No

Subtitle
ID : 3
Format : UTF-8
Codec ID : S_TEXT/UTF8
Codec ID/Info : UTF-8 Plain Text
Duration : 1 h 17 min
Bit rate : 48 b/s
Count of elements : 953
Stream size : 27.2 KiB (0%)
Language : English
Default : No
Forced : No

Screens

Download

Download: Google Drive

7 thoughts on “Westworld (2016) Season 1-3 (1080p Mixed x265 HEVC 10bit AAC 5.1 Vyndros)

Leave a Reply