Vikings (2013) Season 1-6 (1080p Mixed x265 HEVC 10bit AAC 5.1 Vyndros)

Summary: The adventures of Ragnar Lothbrok: the greatest hero of his age. The series tells the saga of Ragnar’s band of Viking brothers and his family as he rises to become King of the Viking tribes. As well as being a fearless warrior, Ragnar embodies the Norse traditions of devotion to the gods: legend has it that he was a direct descendant of Odin, the god of war and warriors.

Season 1

Vikings (2013) Season 1 S01 Extended Uncut (1080p BluRay x265 HEVC 10bit AAC 5.1 Vyndros)

Files

Vikings.S01E01.Rites.of.Passage.1080p.10bit.BluRay.AAC5.1.HEVC-Vyndros.mkv (991.7 MB)
Vikings.S01E02.Wrath.of.the.Northmen.1080p.10bit.BluRay.AAC5.1.HEVC-Vyndros.mkv (1.2 GB)
Vikings.S01E03.Dispossessed.1080p.10bit.BluRay.AAC5.1.HEVC-Vyndros.mkv (1.4 GB)
Vikings.S01E04.Trial.1080p.10bit.BluRay.AAC5.1.HEVC-Vyndros.mkv (1.2 GB)
Vikings.S01E05.Raid.1080p.10bit.BluRay.AAC5.1.HEVC-Vyndros.mkv (1.5 GB)
Vikings.S01E06.Burial.of.the.Dead.1080p.10bit.BluRay.AAC5.1.HEVC-Vyndros.mkv (1.4 GB)
Vikings.S01E07.A.King's.Ransom.1080p.10bit.BluRay.AAC5.1.HEVC-Vyndros.mkv (1.4 GB)
Vikings.S01E08.Sacrifice.1080p.10bit.BluRay.AAC5.1.HEVC-Vyndros.mkv (1.2 GB)
Vikings.S01E09.All.Change.1080p.10bit.BluRay.AAC5.1.HEVC-Vyndros.mkv (1.2 GB)

Mediainfo

General 
Format : Matroska 
Format version : Version 4 / Version 2 
File size : 1.36 GiB 
Duration : 43 min 50 s 
Overall bit rate : 4 432 kb/s 
Encoded date : UTC 2019-03-23 13:15:14 
Writing application : mkvmerge v20.0.0 ('I Am The Sun') 64-bit 
Writing library : libebml v1.3.5 + libmatroska v1.4.8 
Writing frontend : StaxRip v1.7.0.6 

Video 
ID : 1 
Format : HEVC 
Format/Info : High Efficiency Video Coding 
Format profile : Main [email protected]@Main 
Codec ID : V_MPEGH/ISO/HEVC 
Duration : 43 min 50 s 
Bit rate : 3 975 kb/s 
Width : 1 920 pixels 
Height : 1 080 pixels 
Display aspect ratio : 16:9 
Frame rate mode : Constant 
Frame rate : 23.976 (24000/1001) FPS 
Color space : YUV 
Chroma subsampling : 4:2:0 
Bit depth : 10 bits 
Bits/(Pixel*Frame) : 0.080 
Stream size : 1.22 GiB (90%) 
Writing library : x265 3.0_Au+14-c7e5878bdd31:[Windows][GCC 8.3.0][64 bit] 10bit 
Encoding settings : cpuid=1111039 / frame-threads=2 / numa-pools=4 / wpp / no-pmode / no-pme / no-psnr / ssim / log-level=2 / input-csp=1 / input-res=1920x1080 / interlace=0 / total-frames=63063 / level-idc=0 / high-tier=1 / uhd-bd=0 / ref=3 / no-allow-non-conformance / no-repeat-headers / annexb / no-aud / no-hrd / info / hash=0 / no-temporal-layers / open-gop / min-keyint=23 / keyint=250 / gop-lookahead=0 / bframes=8 / b-adapt=2 / b-pyramid / bframe-bias=0 / rc-lookahead=50 / lookahead-slices=6 / scenecut=40 / radl=0 / no-splice / no-intra-refresh / ctu=64 / min-cu-size=8 / no-rect / no-amp / max-tu-size=32 / tu-inter-depth=1 / tu-intra-depth=1 / limit-tu=0 / rdoq-level=0 / dynamic-rd=0.00 / no-ssim-rd / signhide / no-tskip / nr-intra=0 / nr-inter=0 / no-constrained-intra / no-strong-intra-smoothing / max-merge=3 / limit-refs=3 / no-limit-modes / me=3 / subme=5 / merange=57 / temporal-mvp / weightp / no-weightb / no-analyze-src-pics / deblock=0:0 / sao / no-sao-non-deblock / rd=3 / no-early-skip / no-rskip / no-fast-intra / no-tskip-fast / no-cu-lossless / no-b-intra / no-splitrd-skip / rdpenalty=0 / psy-rd=2.00 / psy-rdoq=0.00 / no-rd-refine / no-lossless / cbqpoffs=0 / crqpoffs=0 / rc=crf / crf=20.0 / qcomp=0.60 / qpstep=4 / stats-write=0 / stats-read=0 / ipratio=1.40 / pbratio=1.30 / aq-mode=3 / aq-strength=1.00 / cutree / zone-count=0 / no-strict-cbr / qg-size=32 / no-rc-grain / qpmax=69 / qpmin=0 / no-const-vbv / sar=0 / overscan=0 / videoformat=5 / range=0 / colorprim=2 / transfer=2 / colormatrix=2 / chromaloc=0 / display-window=0 / max-cll=0,0 / min-luma=0 / max-luma=1023 / log2-max-poc-lsb=8 / vui-timing-info / vui-hrd-info / slices=1 / no-opt-qp-pps / no-opt-ref-list-length-pps / no-multi-pass-opt-rps / scenecut-bias=0.05 / no-opt-cu-delta-qp / no-aq-motion / no-hdr / no-hdr-opt / no-dhdr10-opt / no-idr-recovery-sei / analysis-reuse-level=5 / scale-factor=0 / refine-intra=0 / refine-inter=0 / refine-mv=0 / refine-ctu-distortion=0 / no-limit-sao / ctu-info=0 / no-lowpass-dct / refine-analysis-type=0 / copy-pic=1 / max-ausize-factor=1.0 / no-dynamic-refine / no-single-sei / no-hevc-aq / no-svt / qp-adaptation-range=1.00 
Default : Yes 
Forced : No 

Audio 
ID : 2 
Format : AAC 
Format/Info : Advanced Audio Codec 
Format profile : LC 
Codec ID : A_AAC 
Duration : 43 min 50 s 
Bit rate : 448 kb/s 
Channel(s) : 6 channels 
Channel positions : Front: L C R, Side: L R, LFE 
Sampling rate : 48.0 kHz 
Frame rate : 46.875 FPS (1024 spf) 
Compression mode : Lossy 
Stream size : 140 MiB (10%) 
Language : English 
Default : Yes 
Forced : No 

Subtitle #1 
ID : 3 
Format : UTF-8 
Codec ID : S_TEXT/UTF8 
Codec ID/Info : UTF-8 Plain Text 
Duration : 41 min 46 s 
Bit rate : 31 b/s 
Count of elements : 318 
Stream size : 9.60 KiB (0%) 
Language : English 
Default : No 
Forced : No 

Subtitle #2 
ID : 4 
Format : PGS 
Muxing mode : zlib 
Codec ID : S_HDMV/PGS 
Codec ID/Info : Picture based subtitle format used on BDs/HD-DVDs 
Duration : 42 min 40 s 
Bit rate : 21.9 kb/s 
Count of elements : 712 
Stream size : 6.70 MiB (0%) 
Language : English 
Default : No 
Forced : No

Download

Download: Google Drive

Season 2

Vikings (2013) Season 2 S02 Extended Uncut (1080p BluRay x265 HEVC 10bit AAC 5.1 Vyndros)

Files

Vikings.S02E01.Brother's.War.1080p.10bit.BluRay.AAC5.1.HEVC-Vyndros.mkv (1.6 GB)
Vikings.S02E02.Invasion.1080p.10bit.BluRay.AAC5.1.HEVC-Vyndros.mkv (1.2 GB)
Vikings.S02E03.Treachery.1080p.10bit.BluRay.AAC5.1.HEVC-Vyndros.mkv (1.5 GB)
Vikings.S02E04.Eye.for.an.Eye.1080p.10bit.BluRay.AAC5.1.HEVC-Vyndros.mkv (1.5 GB)
Vikings.S02E05.Answers.in.Blood.1080p.10bit.BluRay.AAC5.1.HEVC-Vyndros.mkv (1.4 GB)
Vikings.S02E06.Unforgiven.1080p.10bit.BluRay.AAC5.1.HEVC-Vyndros.mkv (1.1 GB)
Vikings.S02E07.Blood.Eagle.1080p.10bit.BluRay.AAC5.1.HEVC-Vyndros.mkv (1.3 GB)
Vikings.S02E08.Boneless.1080p.10bit.BluRay.AAC5.1.HEVC-Vyndros.mkv (1.3 GB)
Vikings.S02E09.The.Choice.1080p.10bit.BluRay.AAC5.1.HEVC-Vyndros.mkv (1.4 GB)
Vikings.S02E10.The.Lord's.Prayer.1080p.10bit.BluRay.AAC5.1.HEVC-Vyndros.mkv (1.2 GB)

Mediainfo

General 
Format : Matroska 
Format version : Version 4 / Version 2 
File size : 1.45 GiB 
Duration : 46 min 13 s 
Overall bit rate : 4 492 kb/s 
Encoded date : UTC 2019-03-28 17:55:14 
Writing application : mkvmerge v20.0.0 ('I Am The Sun') 64-bit 
Writing library : libebml v1.3.5 + libmatroska v1.4.8 
Writing frontend : StaxRip v1.7.0.6 

Video 
ID : 1 
Format : HEVC 
Format/Info : High Efficiency Video Coding 
Format profile : Main [email protected]@Main 
Codec ID : V_MPEGH/ISO/HEVC 
Duration : 46 min 13 s 
Bit rate : 4 033 kb/s 
Width : 1 920 pixels 
Height : 1 080 pixels 
Display aspect ratio : 16:9 
Frame rate mode : Constant 
Frame rate : 23.976 (24000/1001) FPS 
Color space : YUV 
Chroma subsampling : 4:2:0 
Bit depth : 10 bits 
Bits/(Pixel*Frame) : 0.081 
Stream size : 1.30 GiB (90%) 
Writing library : x265 3.0_Au+14-c7e5878bdd31:[Windows][GCC 8.3.0][64 bit] 10bit 
Encoding settings : cpuid=1111039 / frame-threads=2 / numa-pools=4 / wpp / no-pmode / no-pme / no-psnr / ssim / log-level=2 / input-csp=1 / input-res=1920x1080 / interlace=0 / total-frames=66494 / level-idc=0 / high-tier=1 / uhd-bd=0 / ref=3 / no-allow-non-conformance / no-repeat-headers / annexb / no-aud / no-hrd / info / hash=0 / no-temporal-layers / open-gop / min-keyint=23 / keyint=250 / gop-lookahead=0 / bframes=8 / b-adapt=2 / b-pyramid / bframe-bias=0 / rc-lookahead=50 / lookahead-slices=6 / scenecut=40 / radl=0 / no-splice / no-intra-refresh / ctu=64 / min-cu-size=8 / no-rect / no-amp / max-tu-size=32 / tu-inter-depth=1 / tu-intra-depth=1 / limit-tu=0 / rdoq-level=0 / dynamic-rd=0.00 / no-ssim-rd / signhide / no-tskip / nr-intra=0 / nr-inter=0 / no-constrained-intra / no-strong-intra-smoothing / max-merge=3 / limit-refs=3 / no-limit-modes / me=3 / subme=5 / merange=57 / temporal-mvp / weightp / no-weightb / no-analyze-src-pics / deblock=0:0 / sao / no-sao-non-deblock / rd=3 / no-early-skip / no-rskip / no-fast-intra / no-tskip-fast / no-cu-lossless / no-b-intra / no-splitrd-skip / rdpenalty=0 / psy-rd=2.00 / psy-rdoq=0.00 / no-rd-refine / no-lossless / cbqpoffs=0 / crqpoffs=0 / rc=crf / crf=20.0 / qcomp=0.60 / qpstep=4 / stats-write=0 / stats-read=0 / ipratio=1.40 / pbratio=1.30 / aq-mode=3 / aq-strength=1.00 / cutree / zone-count=0 / no-strict-cbr / qg-size=32 / no-rc-grain / qpmax=69 / qpmin=0 / no-const-vbv / sar=0 / overscan=0 / videoformat=5 / range=0 / colorprim=2 / transfer=2 / colormatrix=2 / chromaloc=0 / display-window=0 / max-cll=0,0 / min-luma=0 / max-luma=1023 / log2-max-poc-lsb=8 / vui-timing-info / vui-hrd-info / slices=1 / no-opt-qp-pps / no-opt-ref-list-length-pps / no-multi-pass-opt-rps / scenecut-bias=0.05 / no-opt-cu-delta-qp / no-aq-motion / no-hdr / no-hdr-opt / no-dhdr10-opt / no-idr-recovery-sei / analysis-reuse-level=5 / scale-factor=0 / refine-intra=0 / refine-inter=0 / refine-mv=0 / refine-ctu-distortion=0 / no-limit-sao / ctu-info=0 / no-lowpass-dct / refine-analysis-type=0 / copy-pic=1 / max-ausize-factor=1.0 / no-dynamic-refine / no-single-sei / no-hevc-aq / no-svt / qp-adaptation-range=1.00 
Default : Yes 
Forced : No 

Audio 
ID : 2 
Format : AAC 
Format/Info : Advanced Audio Codec 
Format profile : LC 
Codec ID : A_AAC 
Duration : 46 min 13 s 
Bit rate : 448 kb/s 
Channel(s) : 6 channels 
Channel positions : Front: L C R, Side: L R, LFE 
Sampling rate : 48.0 kHz 
Frame rate : 46.875 FPS (1024 spf) 
Compression mode : Lossy 
Stream size : 148 MiB (10%) 
Language : English 
Default : Yes 
Forced : No 

Subtitle #1 
ID : 3 
Format : UTF-8 
Codec ID : S_TEXT/UTF8 
Codec ID/Info : UTF-8 Plain Text 
Duration : 42 min 30 s 
Bit rate : 35 b/s 
Count of elements : 359 
Stream size : 11.0 KiB (0%) 
Language : English 
Default : No 
Forced : No 

Subtitle #2 
ID : 4 
Format : PGS 
Muxing mode : zlib 
Codec ID : S_HDMV/PGS 
Codec ID/Info : Picture based subtitle format used on BDs/HD-DVDs 
Duration : 45 min 12 s 
Bit rate : 27.2 kb/s 
Count of elements : 966 
Stream size : 8.80 MiB (1%) 
Language : English 
Default : No 
Forced : No

Download

Download: Google Drive

Season 3

Vikings (2013) Season 3 S03 (1080p BluRay x265 HEVC 10bit AAC 5.1 Vyndros)

Files

Vikings.S03E01.Mercenary.1080p.10bit.BluRay.AAC5.1.HEVC-Vyndros.mkv (1.7 GB)
Vikings.S03E02.The.Wanderer.1080p.10bit.BluRay.AAC5.1.HEVC-Vyndros.mkv (1.4 GB)
Vikings.S03E03.Warrior's.Fate.1080p.10bit.BluRay.AAC5.1.HEVC-Vyndros.mkv (1.4 GB)
Vikings.S03E04.Scarred.1080p.10bit.BluRay.AAC5.1.HEVC-Vyndros.mkv (1.4 GB)
Vikings.S03E05.The.Usurper.1080p.10bit.BluRay.AAC5.1.HEVC-Vyndros.mkv (1.4 GB)
Vikings.S03E06.Born.Again.1080p.10bit.BluRay.AAC5.1.HEVC-Vyndros.mkv (1.5 GB)
Vikings.S03E07.Paris.1080p.10bit.BluRay.AAC5.1.HEVC-Vyndros.mkv (1.2 GB)
Vikings.S03E08.To.the.Gates!.1080p.10bit.BluRay.AAC5.1.HEVC-Vyndros.mkv (1.7 GB)
Vikings.S03E09.Breaking.Point.1080p.10bit.BluRay.AAC5.1.HEVC-Vyndros.mkv (1.7 GB)
Vikings.S03E10.The.Dead.1080p.10bit.BluRay.AAC5.1.HEVC-Vyndros.mkv (1.3 GB)

Mediainfo

General 
Format : Matroska 
Format version : Version 4 / Version 2 
File size : 1.68 GiB 
Duration : 44 min 49 s 
Overall bit rate : 5 353 kb/s 
Encoded date : UTC 2019-04-06 04:41:50 
Writing application : mkvmerge v20.0.0 ('I Am The Sun') 64-bit 
Writing library : libebml v1.3.5 + libmatroska v1.4.8 
Writing frontend : StaxRip v1.7.0.6 

Video 
ID : 1 
Format : HEVC 
Format/Info : High Efficiency Video Coding 
Format profile : Main [email protected]@Main 
Codec ID : V_MPEGH/ISO/HEVC 
Duration : 44 min 49 s 
Bit rate : 4 650 kb/s 
Width : 1 920 pixels 
Height : 1 080 pixels 
Display aspect ratio : 16:9 
Frame rate mode : Constant 
Frame rate : 23.976 (24000/1001) FPS 
Color space : YUV 
Chroma subsampling : 4:2:0 
Bit depth : 10 bits 
Bits/(Pixel*Frame) : 0.094 
Stream size : 1.46 GiB (87%) 
Writing library : x265 3.0_Au+14-c7e5878bdd31:[Windows][GCC 8.3.0][64 bit] 10bit 
Encoding settings : cpuid=1111039 / frame-threads=2 / numa-pools=4 / wpp / no-pmode / no-pme / no-psnr / ssim / log-level=2 / input-csp=1 / input-res=1920x1080 / interlace=0 / total-frames=64475 / level-idc=0 / high-tier=1 / uhd-bd=0 / ref=3 / no-allow-non-conformance / no-repeat-headers / annexb / no-aud / no-hrd / info / hash=0 / no-temporal-layers / open-gop / min-keyint=23 / keyint=250 / gop-lookahead=0 / bframes=8 / b-adapt=2 / b-pyramid / bframe-bias=0 / rc-lookahead=50 / lookahead-slices=6 / scenecut=40 / radl=0 / no-splice / no-intra-refresh / ctu=64 / min-cu-size=8 / no-rect / no-amp / max-tu-size=32 / tu-inter-depth=1 / tu-intra-depth=1 / limit-tu=0 / rdoq-level=0 / dynamic-rd=0.00 / no-ssim-rd / signhide / no-tskip / nr-intra=0 / nr-inter=0 / no-constrained-intra / no-strong-intra-smoothing / max-merge=3 / limit-refs=3 / no-limit-modes / me=3 / subme=5 / merange=57 / temporal-mvp / weightp / no-weightb / no-analyze-src-pics / deblock=0:0 / sao / no-sao-non-deblock / rd=3 / no-early-skip / no-rskip / no-fast-intra / no-tskip-fast / no-cu-lossless / no-b-intra / no-splitrd-skip / rdpenalty=0 / psy-rd=2.00 / psy-rdoq=0.00 / no-rd-refine / no-lossless / cbqpoffs=0 / crqpoffs=0 / rc=crf / crf=20.0 / qcomp=0.60 / qpstep=4 / stats-write=0 / stats-read=0 / ipratio=1.40 / pbratio=1.30 / aq-mode=3 / aq-strength=1.00 / cutree / zone-count=0 / no-strict-cbr / qg-size=32 / no-rc-grain / qpmax=69 / qpmin=0 / no-const-vbv / sar=0 / overscan=0 / videoformat=5 / range=0 / colorprim=2 / transfer=2 / colormatrix=2 / chromaloc=0 / display-window=0 / max-cll=0,0 / min-luma=0 / max-luma=1023 / log2-max-poc-lsb=8 / vui-timing-info / vui-hrd-info / slices=1 / no-opt-qp-pps / no-opt-ref-list-length-pps / no-multi-pass-opt-rps / scenecut-bias=0.05 / no-opt-cu-delta-qp / no-aq-motion / no-hdr / no-hdr-opt / no-dhdr10-opt / no-idr-recovery-sei / analysis-reuse-level=5 / scale-factor=0 / refine-intra=0 / refine-inter=0 / refine-mv=0 / refine-ctu-distortion=0 / no-limit-sao / ctu-info=0 / no-lowpass-dct / refine-analysis-type=0 / copy-pic=1 / max-ausize-factor=1.0 / no-dynamic-refine / no-single-sei / no-hevc-aq / no-svt / qp-adaptation-range=1.00 
Default : Yes 
Forced : No 

Audio #1 
ID : 2 
Format : AAC 
Format/Info : Advanced Audio Codec 
Format profile : LC 
Codec ID : A_AAC 
Duration : 44 min 49 s 
Bit rate : 448 kb/s 
Channel(s) : 6 channels 
Channel positions : Front: L C R, Side: L R, LFE 
Sampling rate : 48.0 kHz 
Frame rate : 46.875 FPS (1024 spf) 
Compression mode : Lossy 
Stream size : 144 MiB (8%) 
Language : English 
Default : Yes 
Forced : No 

Audio #2 
ID : 3 
Format : AC-3 
Format/Info : Audio Coding 3 
Mode extension : CM (complete main) 
Format settings, Endianness : Big 
Codec ID : A_AC3 
Duration : 44 min 49 s 
Bit rate mode : Constant 
Bit rate : 224 kb/s 
Channel(s) : 2 channels 
Channel positions : Front: L R 
Sampling rate : 48.0 kHz 
Frame rate : 31.250 FPS (1536 spf) 
Bit depth : 16 bits 
Compression mode : Lossy 
Stream size : 71.8 MiB (4%) 
Language : English 
Default : No 
Forced : No 

Subtitle #1 
ID : 4 
Format : UTF-8 
Codec ID : S_TEXT/UTF8 
Codec ID/Info : UTF-8 Plain Text 
Duration : 40 min 18 s 
Bit rate : 31 b/s 
Count of elements : 311 
Stream size : 9.44 KiB (0%) 
Language : English 
Default : No 
Forced : No 

Subtitle #2 
ID : 5 
Format : PGS 
Muxing mode : zlib 
Codec ID : S_HDMV/PGS 
Codec ID/Info : Picture based subtitle format used on BDs/HD-DVDs 
Duration : 43 min 46 s 
Bit rate : 26.0 kb/s 
Count of elements : 898 
Stream size : 8.16 MiB (0%) 
Language : English 
Default : No 
Forced : No 

Subtitle #3 
ID : 6 
Format : PGS 
Muxing mode : zlib 
Codec ID : S_HDMV/PGS 
Codec ID/Info : Picture based subtitle format used on BDs/HD-DVDs 
Duration : 44 min 41 s 
Bit rate : 64.4 kb/s 
Count of elements : 1488 
Stream size : 20.6 MiB (1%) 
Language : English 
Default : No 
Forced : No

Download

Download: Google Drive

Season 4

Vikings (2013) Season 4 S04 (1080p BluRay x265 HEVC 10bit AAC 5.1 Vyndros)

Files

Vikings.S04E01.A.Good.Treason.1080p.10bit.BluRay.AAC5.1.HEVC-Vyndros.mkv (1.4 GB)
Vikings.S04E02.Kill.the.Queen.1080p.10bit.BluRay.AAC5.1.HEVC-Vyndros.mkv (1.3 GB)
Vikings.S04E03.Mercy.1080p.10bit.BluRay.AAC5.1.HEVC-Vyndros.mkv (1.1 GB)
Vikings.S04E04.Yol.1080p.10bit.BluRay.AAC5.1.HEVC-Vyndros.mkv (897.7 MB)
Vikings.S04E05.Promised.1080p.10bit.BluRay.AAC5.1.HEVC-Vyndros.mkv (963.3 MB)
Vikings.S04E06.What.Might.Have.Been.1080p.10bit.BluRay.AAC5.1.HEVC-Vyndros.mkv (1.3 GB)
Vikings.S04E07.The.Profit.and.the.Loss.1080p.10bit.BluRay.AAC5.1.HEVC-Vyndros.mkv (1.6 GB)
Vikings.S04E08.Portage.1080p.10bit.BluRay.AAC5.1.HEVC-Vyndros.mkv (1.1 GB)
Vikings.S04E09.Death.All.'Round.1080p.10bit.BluRay.AAC5.1.HEVC-Vyndros.mkv (1.2 GB)
Vikings.S04E10.The.Last.Ship.1080p.10bit.BluRay.AAC5.1.HEVC-Vyndros.mkv (1.5 GB)
Vikings.S04E11.The.Outsider.1080p.10bit.BluRay.AAC5.1.HEVC-Vyndros.mkv (1.2 GB)
Vikings.S04E12.The.Vision.1080p.10bit.BluRay.AAC5.1.HEVC-Vyndros.mkv (1.1 GB)
Vikings.S04E13.Two.Journeys.1080p.10bit.BluRay.AAC5.1.HEVC-Vyndros.mkv (1.4 GB)
Vikings.S04E14.In.the.Uncertain.Hour.Before.the.Morning.1080p.10bit.BluRay.AAC5.1.HEVC-Vyndros.mkv (1.1 GB)
Vikings.S04E15.All.His.Angels.1080p.10bit.BluRay.AAC5.1.HEVC-Vyndros.mkv (1.2 GB)
Vikings.S04E16.Crossings.1080p.10bit.BluRay.AAC5.1.HEVC-Vyndros.mkv (1.1 GB)
Vikings.S04E17.The.Great.Army.1080p.10bit.BluRay.AAC5.1.HEVC-Vyndros.mkv (1,003.2 MB)
Vikings.S04E18.Revenge.1080p.10bit.BluRay.AAC5.1.HEVC-Vyndros.mkv (1.2 GB)
Vikings.S04E19.On.the.Eve.1080p.10bit.BluRay.AAC5.1.HEVC-Vyndros.mkv (1.3 GB)
Vikings.S04E20.The.Reckoning.1080p.10bit.BluRay.AAC5.1.HEVC-Vyndros.mkv (1.0 GB)

Mediainfo

General 
Format : Matroska 
Format version : Version 4 / Version 2 
File size : 1.24 GiB 
Duration : 52 min 8 s 
Overall bit rate : 3 393 kb/s 
Encoded date : UTC 2019-04-04 05:59:53 
Writing application : mkvmerge v20.0.0 ('I Am The Sun') 64-bit 
Writing library : libebml v1.3.5 + libmatroska v1.4.8 
Writing frontend : StaxRip v1.7.0.6 

Video 
ID : 1 
Format : HEVC 
Format/Info : High Efficiency Video Coding 
Format profile : Main [email protected]@Main 
Codec ID : V_MPEGH/ISO/HEVC 
Duration : 52 min 8 s 
Bit rate : 2 935 kb/s 
Width : 1 920 pixels 
Height : 1 080 pixels 
Display aspect ratio : 16:9 
Frame rate mode : Constant 
Frame rate : 23.976 (24000/1001) FPS 
Color space : YUV 
Chroma subsampling : 4:2:0 
Bit depth : 10 bits 
Bits/(Pixel*Frame) : 0.059 
Stream size : 1.07 GiB (86%) 
Writing library : x265 3.0_Au+14-c7e5878bdd31:[Windows][GCC 8.3.0][64 bit] 10bit 
Encoding settings : cpuid=1111039 / frame-threads=2 / numa-pools=4 / wpp / no-pmode / no-pme / no-psnr / ssim / log-level=2 / input-csp=1 / input-res=1920x1080 / interlace=0 / total-frames=75011 / level-idc=0 / high-tier=1 / uhd-bd=0 / ref=3 / no-allow-non-conformance / no-repeat-headers / annexb / no-aud / no-hrd / info / hash=0 / no-temporal-layers / open-gop / min-keyint=23 / keyint=250 / gop-lookahead=0 / bframes=8 / b-adapt=2 / b-pyramid / bframe-bias=0 / rc-lookahead=50 / lookahead-slices=6 / scenecut=40 / radl=0 / no-splice / no-intra-refresh / ctu=64 / min-cu-size=8 / no-rect / no-amp / max-tu-size=32 / tu-inter-depth=1 / tu-intra-depth=1 / limit-tu=0 / rdoq-level=0 / dynamic-rd=0.00 / no-ssim-rd / signhide / no-tskip / nr-intra=0 / nr-inter=0 / no-constrained-intra / no-strong-intra-smoothing / max-merge=3 / limit-refs=3 / no-limit-modes / me=3 / subme=5 / merange=57 / temporal-mvp / weightp / no-weightb / no-analyze-src-pics / deblock=0:0 / sao / no-sao-non-deblock / rd=3 / no-early-skip / no-rskip / no-fast-intra / no-tskip-fast / no-cu-lossless / no-b-intra / no-splitrd-skip / rdpenalty=0 / psy-rd=2.00 / psy-rdoq=0.00 / no-rd-refine / no-lossless / cbqpoffs=0 / crqpoffs=0 / rc=crf / crf=20.0 / qcomp=0.60 / qpstep=4 / stats-write=0 / stats-read=0 / ipratio=1.40 / pbratio=1.30 / aq-mode=3 / aq-strength=1.00 / cutree / zone-count=0 / no-strict-cbr / qg-size=32 / no-rc-grain / qpmax=69 / qpmin=0 / no-const-vbv / sar=0 / overscan=0 / videoformat=5 / range=0 / colorprim=2 / transfer=2 / colormatrix=2 / chromaloc=0 / display-window=0 / max-cll=0,0 / min-luma=0 / max-luma=1023 / log2-max-poc-lsb=8 / vui-timing-info / vui-hrd-info / slices=1 / no-opt-qp-pps / no-opt-ref-list-length-pps / no-multi-pass-opt-rps / scenecut-bias=0.05 / no-opt-cu-delta-qp / no-aq-motion / no-hdr / no-hdr-opt / no-dhdr10-opt / no-idr-recovery-sei / analysis-reuse-level=5 / scale-factor=0 / refine-intra=0 / refine-inter=0 / refine-mv=0 / refine-ctu-distortion=0 / no-limit-sao / ctu-info=0 / no-lowpass-dct / refine-analysis-type=0 / copy-pic=1 / max-ausize-factor=1.0 / no-dynamic-refine / no-single-sei / no-hevc-aq / no-svt / qp-adaptation-range=1.00 
Default : Yes 
Forced : No 

Audio 
ID : 2 
Format : AAC 
Format/Info : Advanced Audio Codec 
Format profile : LC 
Codec ID : A_AAC 
Duration : 52 min 8 s 
Bit rate : 448 kb/s 
Channel(s) : 6 channels 
Channel positions : Front: L C R, Side: L R, LFE 
Sampling rate : 48.0 kHz 
Frame rate : 46.875 FPS (1024 spf) 
Compression mode : Lossy 
Stream size : 167 MiB (13%) 
Language : English 
Default : Yes 
Forced : No 

Subtitle 
ID : 3 
Format : PGS 
Muxing mode : zlib 
Codec ID : S_HDMV/PGS 
Codec ID/Info : Picture based subtitle format used on BDs/HD-DVDs 
Duration : 51 min 6 s 
Bit rate : 25.9 kb/s 
Count of elements : 960 
Stream size : 9.48 MiB (1%) 
Language : English 
Default : No 
Forced : No

Download

Download: Google Drive

Season 5

Vikings (2013) Season 5 S05 (1080p BluRay x265 HEVC 10bit AAC 5.1 Vyndros)

Files

Vikings.S05E01.The.Departed.(Part.1).1080p.10bit.BluRay.AAC5.1.HEVC-Vyndros.mkv (1.0 GB)
Vikings.S05E02.The.Departed.(Part.2).1080p.10bit.BluRay.AAC5.1.HEVC-Vyndros.mkv (1.1 GB)
Vikings.S05E03.Homeland.1080p.10bit.BluRay.AAC5.1.HEVC-Vyndros.mkv (1.1 GB)
Vikings.S05E04.The.Plan.1080p.10bit.BluRay.AAC5.1.HEVC-Vyndros.mkv (1.3 GB)
Vikings.S05E05.The.Prisoner.1080p.10bit.BluRay.AAC5.1.HEVC-Vyndros.mkv (1.2 GB)
Vikings.S05E06.The.Message.1080p.10bit.BluRay.AAC5.1.HEVC-Vyndros.mkv (1.1 GB)
Vikings.S05E07.Full.Moon.1080p.10bit.BluRay.AAC5.1.HEVC-Vyndros.mkv (774.3 MB)
Vikings.S05E08.The.Joke.1080p.10bit.BluRay.AAC5.1.HEVC-Vyndros.mkv (1.2 GB)
Vikings.S05E09.A.Simple.Story.1080p.10bit.BluRay.AAC5.1.HEVC-Vyndros.mkv (880.5 MB)
Vikings.S05E10.Moments.of.Vision.1080p.10bit.BluRay.AAC5.1.HEVC-Vyndros.mkv (1.1 GB)
Vikings.S05E11.The.Revelation.1080p.10bit.BluRay.AAC5.1.HEVC-Vyndros.mkv (1.1 GB)
Vikings.S05E12.Murder.Most.Foul.1080p.10bit.BluRay.AAC5.1.HEVC-Vyndros.mkv (936.1 MB)
Vikings.S05E13.A.New.God.1080p.10bit.BluRay.AAC5.1.HEVC-Vyndros.mkv (827.9 MB)
Vikings.S05E14.The.Lost.Moment.1080p.10bit.BluRay.AAC5.1.HEVC-Vyndros.mkv (832.7 MB)
Vikings.S05E15.Hell.1080p.10bit.BluRay.AAC5.1.HEVC-Vyndros.mkv (1.1 GB)
Vikings.S05E16.The.Buddha.1080p.10bit.BluRay.AAC5.1.HEVC-Vyndros.mkv (848.2 MB)
Vikings.S05E17.The.Most.Terrible.Thing.1080p.10bit.BluRay.AAC5.1.HEVC-Vyndros.mkv (822.1 MB)
Vikings.S05E18.Baldur.1080p.10bit.BluRay.AAC5.1.HEVC-Vyndros.mkv (979.3 MB)
Vikings.S05E19.What.Happens.in.the.Cave.1080p.10bit.BluRay.AAC5.1.HEVC-Vyndros.mkv (1.0 GB)
Vikings.S05E20.Ragnarok.1080p.10bit.BluRay.AAC5.1.HEVC-Vyndros.mkv (1.1 GB)

Mediainfo

General 
Format : Matroska 
Format version : Version 4 / Version 2 
File size : 1.11 GiB 
Duration : 44 min 44 s 
Overall bit rate : 3 562 kb/s 
Encoded date : UTC 2019-05-30 13:30:53 
Writing application : mkvmerge v34.0.0 ('Sight and Seen') 64-bit 
Writing library : libebml v1.3.7 + libmatroska v1.5.0 
Writing frontend : StaxRip v2.0.2.0 

Video 
ID : 1 
Format : HEVC 
Format/Info : High Efficiency Video Coding 
Format profile : Main [email protected]@Main 
Codec ID : V_MPEGH/ISO/HEVC 
Duration : 44 min 44 s 
Bit rate : 3 105 kb/s 
Width : 1 920 pixels 
Height : 1 080 pixels 
Display aspect ratio : 16:9 
Frame rate mode : Constant 
Frame rate : 23.976 (24000/1001) FPS 
Color space : YUV 
Chroma subsampling : 4:2:0 
Bit depth : 10 bits 
Bits/(Pixel*Frame) : 0.062 
Stream size : 993 MiB (87%) 
Writing library : x265 3.0_Au+24-4217e691387c:[Windows][GCC 9.1.1][64 bit] 10bit 
Encoding settings : rc=crf / crf=20.0000 / qcomp=0.60 / qpstep=4 / stats-write=0 / stats-read=0 / qpmax=69 / qpmin=0 / no-lossless / no-cu-lossless / no-hevc-aq / no-aq-motion / aq-mode=3 / aq-strength=1.00 / cbqpoffs=0 / crqpoffs=0 / ipratio=1.40 / pbratio=1.30 / psy-rd=2.00 / psy-rdoq=0.00 / deblock=0:0 / ref=3 / limit-refs=3 / no-limit-modes / bframes=8 / b-adapt=2 / bframe-bias=0 / b-pyramid / no-b-intra / weightp / no-weightb / keyint=250 / min-keyint=23 / rc-lookahead=80 / gop-lookahead=0 / scenecut=40 / scenecut-bias=0.05 / ctu=64 / min-cu-size=8 / me=3 / subme=5 / merange=57 / rd=3 / no-rd-refine / no-ssim-rd / dynamic-rd=0.00 / rdoq-level=0 / rdpenalty=0 / cutree / sao / no-limit-sao / no-sao-non-deblock / no-rect / no-amp / open-gop / max-tu-size=32 / tu-inter-depth=1 / tu-intra-depth=1 / limit-tu=0 / qg-size=32 / wpp / no-pmode / no-pme / no-psnr / ssim / no-tskip / no-constrained-intra / no-strong-intra-smoothing / max-merge=3 / nr-intra=0 / nr-inter=0 / input-csp=1 / input-res=1920x1080 / interlace=0 / total-frames=64353 / level-idc=0 / high-tier=1cpuid=1111039 / frame-threads=3 / numa-pools=12 / log-level=2 / uhd-bd=0 / lookahead-slices=6 / radl=0 / no-splice / no-intra-refresh / signhide / temporal-mvp / no-analyze-src-pics / no-early-skip / no-rskip / no-fast-intra / no-tskip-fast / no-splitrd-skip / zone-count=0 / no-strict-cbr / no-rc-grain / no-const-vbv / no-allow-non-conformance / no-repeat-headers / annexb / no-aud / no-hrd / info / hash=0 / no-temporal-layers / sar=0 / overscan=0 / videoformat=5 / range=0 / colorprim=2 / transfer=2 / colormatrix=2 / chromaloc=0 / display-window=0 / max-cll=0,0 / min-luma=0 / max-luma=1023 / log2-max-poc-lsb=8 / vui-timing-info / vui-hrd-info / slices=1 / no-opt-qp-pps / no-opt-ref-list-length-pps / no-multi-pass-opt-rps / no-opt-cu-delta-qp / no-hdr / no-hdr-opt / no-dhdr10-opt / no-idr-recovery-sei / analysis-reuse-level=5 / scale-factor=0 / refine-intra=0 / refine-inter=0 / refine-mv=0 / refine-ctu-distortion=0 / ctu-info=0 / no-lowpass-dct / refine-analysis-type=0 / copy-pic=1 / max-ausize-factor=1.0 / no-dynamic-refine / no-single-sei / no-svt / qp-adaptation-range=1.00 
Default : Yes 
Forced : No 

Audio 
ID : 2 
Format : AAC 
Format/Info : Advanced Audio Codec 
Format profile : LC 
Codec ID : A_AAC 
Duration : 44 min 44 s 
Bit rate : 448 kb/s 
Channel(s) : 6 channels 
Channel positions : Front: L C R, Side: L R, LFE 
Sampling rate : 48.0 kHz 
Frame rate : 46.875 FPS (1024 spf) 
Compression mode : Lossy 
Stream size : 143 MiB (13%) 
Language : English 
Default : Yes 
Forced : Yes 

Subtitle 
ID : 3 
Format : PGS 
Muxing mode : zlib 
Codec ID : S_HDMV/PGS 
Codec ID/Info : Picture based subtitle format used on BDs/HD-DVDs 
Duration : 43 min 41 s 
Bit rate : 21.7 kb/s 
Count of elements : 854 
Stream size : 6.79 MiB (1%) 
Language : English 
Default : No 
Forced : No

Download

Download: Google Drive

Season 6

Vikings (2013) Season 6 S06 (1080p AMZN WEB-DL x265 HEVC 10bit AAC 5.1 Vyndros)

Files

  • Vikings.S06E01.New.Beginnings.1080p.10bit.AMZN.WEB-DL.AAC5.1.HEVC-Vyndros.mkv (1,017.9 MB)
  • Vikings.S06E02.The.Prophet.1080p.10bit.AMZN.WEB-DL.AAC5.1.HEVC-Vyndros.mkv (752.8 MB)
  • Vikings.S06E03.Ghosts,.Gods.and.Running.Dogs.1080p.10bit.AMZN.WEB-DL.AAC5.1.HEVC-Vyndros.mkv (911.6 MB)
  • Vikings.S06E04.All.the.Prisoners.1080p.10bit.AMZN.WEB-DL.AAC5.1.HEVC-Vyndros.mkv (800.2 MB)
  • Vikings.S06E05.The.Key.1080p.10bit.AMZN.WEB-DL.AAC5.1.HEVC-Vyndros.mkv (901.0 MB)
  • Vikings.S06E06.Death.and.the.Serpent.1080p.10bit.AMZN.WEB-DL.AAC5.1.HEVC-Vyndros.mkv (1,021.9 MB)
  • Vikings.S06E07.The.Ice.Maiden.1080p.10bit.AMZN.WEB-DL.AAC5.1.HEVC-Vyndros.mkv (1.1 GB)
  • Vikings.S06E08.Valhalla.Can.Wait.1080p.10bit.AMZN.WEB-DL.AAC5.1.HEVC-Vyndros.mkv (809.2 MB)
  • Vikings.S06E09.Resurrection.1080p.10bit.AMZN.WEB-DL.AAC5.1.HEVC-Vyndros.mkv (778.6 MB)
  • Vikings.S06E10.The.Best.Laid.Plans.1080p.10bit.AMZN.WEB-DL.AAC5.1.HEVC-Vyndros.mkv (1.3 GB)

Mediainfo

General
Format : Matroska
Format version : Version 4 / Version 2
File size : 1 018 MiB
Duration : 45 min 22 s
Overall bit rate : 3 137 kb/s
Encoded date : UTC 2019-12-05 22:57:23
Writing application : mkvmerge v20.0.0 ('I Am The Sun') 64-bit
Writing library : libebml v1.3.5 + libmatroska v1.4.8
Writing frontend : StaxRip v1.7.0.6

Video
ID : 1
Format : HEVC
Format/Info : High Efficiency Video Coding
Format profile : Main [email protected]@Main
Codec ID : V_MPEGH/ISO/HEVC
Duration : 45 min 21 s
Bit rate : 2 686 kb/s
Width : 1 920 pixels
Height : 1 080 pixels
Display aspect ratio : 16:9
Frame rate mode : Constant
Frame rate : 23.976 (24000/1001) FPS
Color space : YUV
Chroma subsampling : 4:2:0
Bit depth : 10 bits
Bits/(Pixel*Frame) : 0.054
Stream size : 872 MiB (86%)
Writing library : x265 3.2+5-354901970679:[Windows][GCC 9.2.0][64 bit] 10bit
Encoding settings : cpuid=1111039 / frame-threads=3 / numa-pools=12 / wpp / no-pmode / no-pme / no-psnr / ssim / log-level=2 / input-csp=1 / input-res=1920x1080 / interlace=0 / total-frames=65262 / level-idc=0 / high-tier=1 / uhd-bd=0 / ref=3 / no-allow-non-conformance / no-repeat-headers / annexb / no-aud / no-hrd / info / hash=0 / no-temporal-layers / open-gop / min-keyint=23 / keyint=250 / gop-lookahead=0 / bframes=8 / b-adapt=2 / b-pyramid / bframe-bias=0 / rc-lookahead=80 / lookahead-slices=6 / scenecut=40 / radl=0 / no-splice / no-intra-refresh / ctu=64 / min-cu-size=8 / no-rect / no-amp / max-tu-size=32 / tu-inter-depth=1 / tu-intra-depth=1 / limit-tu=0 / rdoq-level=0 / dynamic-rd=0.00 / no-ssim-rd / signhide / no-tskip / nr-intra=0 / nr-inter=0 / no-constrained-intra / no-strong-intra-smoothing / max-merge=3 / limit-refs=1 / no-limit-modes / me=3 / subme=5 / merange=57 / temporal-mvp / no-frame-dup / no-hme / weightp / no-weightb / no-analyze-src-pics / deblock=0:0 / sao / no-sao-non-deblock / rd=3 / selective-sao=4 / early-skip / no-rskip / no-fast-intra / no-tskip-fast / no-cu-lossless / b-intra / no-splitrd-skip / rdpenalty=0 / psy-rd=2.00 / psy-rdoq=0.00 / no-rd-refine / no-lossless / cbqpoffs=0 / crqpoffs=0 / rc=crf / crf=20.0 / qcomp=0.60 / qpstep=4 / stats-write=0 / stats-read=0 / ipratio=1.40 / pbratio=1.30 / aq-mode=3 / aq-strength=0.80 / cutree / zone-count=0 / no-strict-cbr / qg-size=32 / no-rc-grain / qpmax=69 / qpmin=0 / no-const-vbv / sar=0 / overscan=0 / videoformat=5 / range=0 / colorprim=2 / transfer=2 / colormatrix=2 / chromaloc=0 / display-window=0 / cll=0,0 / min-luma=0 / max-luma=1023 / log2-max-poc-lsb=8 / vui-timing-info / vui-hrd-info / slices=1 / no-opt-qp-pps / no-opt-ref-list-length-pps / no-multi-pass-opt-rps / scenecut-bias=0.05 / no-opt-cu-delta-qp / no-aq-motion / no-hdr / no-hdr-opt / no-dhdr10-opt / no-idr-recovery-sei / analysis-reuse-level=5 / scale-factor=0 / refine-intra=0 / refine-inter=0 / refine-mv=1 / refine-ctu-distortion=0 / no-limit-sao / ctu-info=0 / no-lowpass-dct / refine-analysis-type=0 / copy-pic=1 / max-ausize-factor=1.0 / no-dynamic-refine / no-single-sei / no-hevc-aq / no-svt / no-field / qp-adaptation-range=1.00
Default : Yes
Forced : No

Audio
ID : 2
Format : AAC
Format/Info : Advanced Audio Codec
Format profile : LC
Codec ID : A_AAC
Duration : 45 min 22 s
Bit rate : 448 kb/s
Channel(s) : 6 channels
Channel positions : Front: L C R, Side: L R, LFE
Sampling rate : 48.0 kHz
Frame rate : 46.875 FPS (1024 spf)
Compression mode : Lossy
Stream size : 145 MiB (14%)
Language : English
Default : Yes
Forced : Yes

Subtitle
ID : 3
Format : UTF-8
Codec ID : S_TEXT/UTF8
Codec ID/Info : UTF-8 Plain Text
Duration : 44 min 21 s
Bit rate : 47 b/s
Count of elements : 582
Stream size : 15.4 KiB (0%)
Language : English
Default : No
Forced : No

Screens

Download

Download: Google Drive

17 thoughts on “Vikings (2013) Season 1-6 (1080p Mixed x265 HEVC 10bit AAC 5.1 Vyndros)

Leave a Reply