Two and a Half Men (2003) Season 1-12 (1080p AMZN WEB-DL x265 HEVC 10bit EAC3 2.0 RCVR)

Summary:A hedonistic jingle writer’s free-wheeling life comes to an abrupt halt when his brother and 10-year-old nephew move into his beach-front house.

Season 1

Two and a Half Men (2003) Season 1 S01 (1080p AMZN WEB-DL x265 HEVC 10bit EAC3 2.0 RCVR)

Files

Two and a Half Men - S01E01 - Pilot (1080p AMZN WEB-DL x265 HEVC 10bit EAC3 2.0 RCVR) [UTR].mkv (552.1 MB)
Two and a Half Men - S01E02 - Big Flappy Bastards (1080p AMZN WEB-DL x265 HEVC 10bit EAC3 2.0 RCVR) [UTR].mkv (471.7 MB)
Two and a Half Men - S01E03 - Go East on Sunset Until You Reach the Gates of Hell (1080p AMZN WEB-DL x265 HEVC 10bit EAC3 2.0 RCVR) [UTR].mkv (364.7 MB)
Two and a Half Men - S01E04 - If I Can't Write My Chocolate Song I'm Going to Take a Nap (1080p AMZN WEB-DL x265 HEVC 10bit EAC3 2.0 RCVR) [UTR].mkv (463.1 MB)
Two and a Half Men - S01E05 - The Last Thing You Want Is to Wind Up with a Hump (1080p AMZN WEB-DL x265 HEVC 10bit EAC3 2.0 RCVR) [UTR].mkv (476.1 MB)
Two and a Half Men - S01E06 - Did You Check with the Captain of the Flying Monkeys (1080p AMZN WEB-DL x265 HEVC 10bit EAC3 2.0 RCVR) [UTR].mkv (463.6 MB)
Two and a Half Men - S01E07 - If They Do Go Either Way, They're Usually Fake (1080p AMZN WEB-DL x265 HEVC 10bit EAC3 2.0 RCVR) [UTR].mkv (670.9 MB)
Two and a Half Men - S01E08 - Twenty-Five Little Pre-pubers Without a Snoot-ful (1080p AMZN WEB-DL x265 HEVC 10bit EAC3 2.0 RCVR) [UTR].mkv (440.7 MB)
Two and a Half Men - S01E09 - Phase One, Complete (1080p AMZN WEB-DL x265 HEVC 10bit EAC3 2.0 RCVR) [UTR].mkv (447.3 MB)
Two and a Half Men - S01E10 - Merry Thanksgiving (1080p AMZN WEB-DL x265 HEVC 10bit EAC3 2.0 RCVR) [UTR].mkv (447.8 MB)
Two and a Half Men - S01E11 - Alan Harper, Frontier Chiropractor (1080p AMZN WEB-DL x265 HEVC 10bit EAC3 2.0 RCVR) [UTR].mkv (401.3 MB)
Two and a Half Men - S01E12 - Camel Filters + Pheromones (1080p AMZN WEB-DL x265 HEVC 10bit EAC3 2.0 RCVR) [UTR].mkv (652.0 MB)
Two and a Half Men - S01E13 - Sarah Like Puny Alan (1080p AMZN WEB-DL x265 HEVC 10bit EAC3 2.0 RCVR) [UTR].mkv (554.5 MB)
Two and a Half Men - S01E14 - I Can't Afford Hyenas (1080p AMZN WEB-DL x265 HEVC 10bit EAC3 2.0 RCVR) [UTR].mkv (505.9 MB)
Two and a Half Men - S01E15 - Round One to the Hot Crazy Chick (1) (1080p AMZN WEB-DL x265 HEVC 10bit EAC3 2.0 RCVR) [UTR].mkv (510.4 MB)
Two and a Half Men - S01E16 - That Was Saliva, Alan (2) (1080p AMZN WEB-DL x265 HEVC 10bit EAC3 2.0 RCVR) [UTR].mkv (624.6 MB)
Two and a Half Men - S01E17 - Ate the Hamburgers, Wearing the Hats (1080p AMZN WEB-DL x265 HEVC 10bit EAC3 2.0 RCVR) [UTR].mkv (453.3 MB)
Two and a Half Men - S01E18 - An Old Flame with a New Wick (1080p AMZN WEB-DL x265 HEVC 10bit EAC3 2.0 RCVR) [UTR].mkv (436.1 MB)
Two and a Half Men - S01E19 - I Remember the Coatroom, I Just Don't Remember You (1080p AMZN WEB-DL x265 HEVC 10bit EAC3 2.0 RCVR) [UTR].mkv (473.3 MB)
Two and a Half Men - S01E20 - Hey, I Can Pee Outside in the Dark (1080p AMZN WEB-DL x265 HEVC 10bit EAC3 2.0 RCVR) [UTR].mkv (545.3 MB)
Two and a Half Men - S01E21 - No Sniffing, No Wowing (1080p AMZN WEB-DL x265 HEVC 10bit EAC3 2.0 RCVR) [UTR].mkv (391.2 MB)
Two and a Half Men - S01E22 - My Doctor Has a Cow Puppet (1080p AMZN WEB-DL x265 HEVC 10bit EAC3 2.0 RCVR) [UTR].mkv (500.6 MB)
Two and a Half Men - S01E23 - Just Like Buffalo (1080p AMZN WEB-DL x265 HEVC 10bit EAC3 2.0 RCVR) [UTR].mkv (688.6 MB)
Two and a Half Men - S01E24 - Can You Feel My Finger (1080p AMZN WEB-DL x265 HEVC 10bit EAC3 2.0 RCVR) [UTR].mkv (611.1 MB

Mediainfo

General 
Format                                   : Matroska 
Format version                           : Version 4 / Version 2 
File size                                : 552 MiB 
Duration                                 : 22 min 57 s 
Overall bit rate                         : 3 363 kb/s 
Encoded date                             : UTC 2017-09-22 05:51:46 
Writing application                      : mkvmerge v12.0.0 ('Trust / Lust') 64bit 
Writing library                          : libebml v1.3.4 + libmatroska v1.4.5 
Cover                                    : Yes 
Attachments                              : cover.jpg 


Video 
ID                                       : 1 
Format                                   : HEVC 
Format/Info                              : High Efficiency Video Coding 
Format profile                           : Main [email protected]@Main 
Codec ID                                 : V_MPEGH/ISO/HEVC 
Duration                                 : 22 min 57 s 
Bit rate                                 : 3 136 kb/s 
Width                                    : 1 920 pixels 
Height                                   : 1 080 pixels 
Display aspect ratio                     : 16:9 
Frame rate mode                          : Constant 
Frame rate                               : 23.976 (24000/1001) FPS 
Color space                              : YUV 
Chroma subsampling                       : 4:2:0 
Bit depth                                : 10 bits 
Bits/(Pixel*Frame)                       : 0.063 
Stream size                              : 515 MiB (93%) 
Writing library                          : x265 2.5+17-f8ae7afc1f61:[Windows][MSVC 1911][64 bit] 10bit 
Encoding settings                        : cpuid=1173503 / frame-threads=3 / numa-pools=8 / wpp / no-pmode / no-pme / no-psnr / no-ssim / log-level=2 / input-csp=1 / input-res=1920x1080 / interlace=0 / total-frames=33015 / level-idc=0 / high-tier=1 / uhd-bd=0 / ref=4 / no-allow-non-conformance / no-repeat-headers / annexb / no-aud / no-hrd / info / hash=0 / no-temporal-layers / open-gop / min-keyint=23 / keyint=250 / bframes=8 / b-adapt=2 / b-pyramid / bframe-bias=0 / rc-lookahead=80 / lookahead-slices=4 / scenecut=40 / no-intra-refresh / ctu=64 / min-cu-size=8 / rect / no-amp / max-tu-size=32 / tu-inter-depth=1 / tu-intra-depth=1 / limit-tu=0 / rdoq-level=2 / dynamic-rd=0.00 / no-ssim-rd / signhide / no-tskip / nr-intra=0 / nr-inter=0 / no-constrained-intra / no-strong-intra-smoothing / max-merge=3 / limit-refs=3 / limit-modes / me=3 / subme=5 / merange=57 / temporal-mvp / weightp / weightb / no-analyze-src-pics / deblock=-1:-1 / sao / no-sao-non-deblock / rd=4 / no-early-skip / no-rskip / no-fast-intra / no-tskip-fast / no-cu-lossless / no-b-intra / no-splitrd-skip / rdpenalty=0 / psy-rd=0.60 / psy-rdoq=1.00 / no-rd-refine / analysis-reuse-mode=0 / no-lossless / cbqpoffs=0 / crqpoffs=0 / rc=crf / crf=22.5 / qcomp=0.60 / qpstep=4 / stats-write=0 / stats-read=0 / ipratio=1.40 / pbratio=1.30 / aq-mode=2 / aq-strength=1.00 / cutree / zone-count=0 / no-strict-cbr / qg-size=32 / no-rc-grain / qpmax=69 / qpmin=0 / no-const-vbv / sar=0 / overscan=0 / videoformat=5 / range=0 / colorprim=2 / transfer=2 / colormatrix=2 / chromaloc=0 / display-window=0 / max-cll=0,0 / min-luma=0 / max-luma=1023 / log2-max-poc-lsb=8 / vui-timing-info / vui-hrd-info / slices=1 / opt-qp-pps / opt-ref-list-length-pps / no-multi-pass-opt-rps / scenecut-bias=0.05 / no-opt-cu-delta-qp / no-aq-motion / no-hdr / no-hdr-opt / no-dhdr10-opt / analysis-reuse-level=5 / scale-factor=0 / refine-intra=0 / refine-inter=0 / refine-mv=0 / no-limit-sao / ctu-info=0 
Default                                  : Yes 
Forced                                   : No 


Audio 
ID                                       : 2 
Format                                   : E-AC-3 
Format/Info                              : Enhanced Audio Coding 3 
Format settings, Endianness              : Big 
Codec ID                                 : A_EAC3 
Duration                                 : 22 min 56 s 
Bit rate mode                            : Constant 
Bit rate                                 : 224 kb/s 
Channel(s)                               : 2 channels 
Channel positions                        : Front: L R 
Sampling rate                            : 48.0 kHz 
Frame rate                               : 187.500 FPS (256 spf) 
Compression mode                         : Lossy 
Stream size                              : 36.8 MiB (7%) 
Language                                 : English 
Default                                  : No 
Forced                                   : No 


Subtitle 
ID                                       : 3 
Format                                   : UTF-8 
Codec ID                                 : S_TEXT/UTF8 
Codec ID/Info                            : UTF-8 Plain Text 
Duration                                 : 22 min 26 s 
Bit rate                                 : 88 b/s 
Count of elements                        : 556 
Stream size                              : 14.6 KiB (0%) 
Language                                 : English 
Default                                  : No 
Forced                                   : No 


Menu 
00:00:00.000                             : en:Charlie gets a phone call 
00:01:54.000                             : en:Opening Theme 
00:02:00.000                             : en:Alan explains to Charlie his situation 
00:04:44.000                             : en:Charlie meets Jake 
00:08:17.000                             : en:Charlie and Jake go shopping 
00:09:36.000                             : en:Alan lets Rose in the house 
00:13:59.000                             : en:Alan and Judith have dinner while Charlie and Jake play poker 
00:17:15.000                             : en:Jake talks to Charlie 
00:18:47.000                             : en:Charlie asks Laura a question 
00:20:02.000                             : en:Charlie asks Alan to come home 
00:21:51.000                             : en:Alan goes shopping with Charlie and Jake 
00:22:30.000                             : en:End Credits

Screens

Download

Download: Google Drive (11.86 GB)

Season 2

Two and a Half Men (2003) Season 2 S02 (1080p AMZN WEB-DL x265 HEVC 10bit EAC3 2.0 RCVR)

Files

Two and a Half Men (2003) - S02E01 - Back Off, Mary Poppins (1080p AMZN WEB-DL x265 RCVR).mkv (543.9 MB)
Two and a Half Men (2003) - S02E02 - Enjoy Those Garlic Balls (1080p AMZN WEB-DL x265 RCVR).mkv (550.9 MB)
Two and a Half Men (2003) - S02E03 - A Bag Full of Jawea (1080p AMZN WEB-DL x265 RCVR).mkv (516.8 MB)
Two and a Half Men (2003) - S02E04 - Go Get Mommy's Bra (1080p AMZN WEB-DL x265 RCVR).mkv (550.0 MB)
Two and a Half Men (2003) - S02E05 - Bad News from the Clinic (1080p AMZN WEB-DL x265 RCVR).mkv (549.4 MB)
Two and a Half Men (2003) - S02E06 - The Price of Healthy Gums Is Eternal Vigilance (1080p AMZN WEB-DL x265 RCVR).mkv (551.3 MB)
Two and a Half Men (2003) - S02E07 - A Kosher Slaughterhouse Out in Fontana (1080p AMZN WEB-DL x265 RCVR).mkv (548.9 MB)
Two and a Half Men (2003) - S02E08 - Frankenstein and the Horny Villagers (1080p AMZN WEB-DL x265 RCVR).mkv (550.6 MB)
Two and a Half Men (2003) - S02E09 - Yes, Monsignor (1080p AMZN WEB-DL x265 RCVR).mkv (564.4 MB)
Two and a Half Men (2003) - S02E10 - The Salmon Under My Sweater (1080p AMZN WEB-DL x265 RCVR).mkv (545.4 MB)
Two and a Half Men (2003) - S02E11 - Last Chance to See Those Tattoos (1080p AMZN WEB-DL x265 RCVR).mkv (550.9 MB)
Two and a Half Men (2003) - S02E12 - A Lung Full of Alan (1080p AMZN WEB-DL x265 RCVR).mkv (551.3 MB)
Two and a Half Men (2003) - S02E13 - Zejdz Zmoich Wlosow (1080p AMZN WEB-DL x265 RCVR).mkv (534.6 MB)
Two and a Half Men (2003) - S02E14 - Those Big Pink Things with Coconuts (1080p AMZN WEB-DL x265 RCVR).mkv (551.6 MB)
Two and a Half Men (2003) - S02E15 - Smell the Umbrella Stand (1080p AMZN WEB-DL x265 RCVR).mkv (547.5 MB)
Two and a Half Men (2003) - S02E16 - Can You Eat Human Flesh with Wooden Teeth (1080p AMZN WEB-DL x265 RCVR).mkv (547.5 MB)
Two and a Half Men (2003) - S02E17 - Woo-Hoo, a Hernia Exam! (1080p AMZN WEB-DL x265 RCVR).mkv (546.7 MB)
Two and a Half Men (2003) - S02E18 - It was 'Mame,' Mom (1080p AMZN WEB-DL x265 RCVR).mkv (550.7 MB)
Two and a Half Men (2003) - S02E19 - A Low, Guttural Tongue-Flapping Noise (1080p AMZN WEB-DL x265 RCVR).mkv (549.9 MB)
Two and a Half Men (2003) - S02E20 - I Always Wanted a Shaved Monkey (1080p AMZN WEB-DL x265 RCVR).mkv (551.6 MB)
Two and a Half Men (2003) - S02E21 - A Sympathetic Crotch to Cry On (1080p AMZN WEB-DL x265 RCVR).mkv (535.1 MB)
Two and a Half Men (2003) - S02E22 - That Old Hose Bag Is My Mother (1080p AMZN WEB-DL x265 RCVR).mkv (548.4 MB)
Two and a Half Men (2003) - S02E23 - Squab, Squab, Squab, Squab, Squab (1080p AMZN WEB-DL x265 RCVR).mkv (533.2 MB)
Two and a Half Men (2003) - S02E24 - Does This Smell Funny to You (1080p AMZN WEB-DL x265 RCVR).mkv (527.4 MB)

Mediainfo

General 
Format : Matroska 
Format version : Version 4 / Version 2 
File size : 544 MiB 
Duration : 21 min 15 s 
Overall bit rate : 3 577 kb/s 
Encoded date : UTC 2017-11-04 02:13:42 
Writing application : mkvmerge v12.0.0 ('Trust / Lust') 64bit 
Writing library : libebml v1.3.4 + libmatroska v1.4.5 
Cover : Yes 
Attachments : cover.jpg 

Video 
ID : 1 
Format : HEVC 
Format/Info : High Efficiency Video Coding 
Format profile : Main [email protected]@Main 
Codec ID : V_MPEGH/ISO/HEVC 
Duration : 21 min 15 s 
Bit rate : 3 350 kb/s 
Width : 1 920 pixels 
Height : 1 080 pixels 
Display aspect ratio : 16:9 
Frame rate mode : Constant 
Frame rate : 23.976 (24000/1001) FPS 
Color space : YUV 
Chroma subsampling : 4:2:0 
Bit depth : 10 bits 
Bits/(Pixel*Frame) : 0.067 
Stream size : 509 MiB (94%) 
Writing library : x265 2.5+32-0bc372b7ca78:[Windows][MSVC 1911][64 bit] 10bit 
Encoding settings : cpuid=1173503 / frame-threads=3 / numa-pools=8 / wpp / no-pmode / no-pme / no-psnr / no-ssim / log-level=2 / input-csp=1 / input-res=1920x1080 / interlace=0 / total-frames=30584 / level-idc=0 / high-tier=1 / uhd-bd=0 / ref=4 / no-allow-non-conformance / no-repeat-headers / annexb / no-aud / no-hrd / info / hash=0 / no-temporal-layers / open-gop / min-keyint=23 / keyint=250 / bframes=4 / b-adapt=2 / b-pyramid / bframe-bias=0 / rc-lookahead=120 / lookahead-slices=4 / scenecut=40 / no-intra-refresh / ctu=64 / min-cu-size=8 / rect / no-amp / max-tu-size=32 / tu-inter-depth=1 / tu-intra-depth=1 / limit-tu=0 / rdoq-level=2 / dynamic-rd=0.00 / no-ssim-rd / signhide / no-tskip / nr-intra=0 / nr-inter=0 / no-constrained-intra / no-strong-intra-smoothing / max-merge=3 / limit-refs=3 / limit-modes / me=3 / subme=5 / merange=57 / temporal-mvp / weightp / no-weightb / no-analyze-src-pics / deblock=-1:-1 / no-sao / no-sao-non-deblock / rd=4 / no-early-skip / rskip / no-fast-intra / no-tskip-fast / no-cu-lossless / no-b-intra / no-splitrd-skip / rdpenalty=0 / psy-rd=1.00 / psy-rdoq=1.00 / no-rd-refine / analysis-reuse-mode=0 / no-lossless / cbqpoffs=0 / crqpoffs=0 / rc=abr / bitrate=3350 / qcomp=0.60 / qpstep=4 / stats-write=0 / stats-read=2 / cplxblur=20.0 / qblur=0.5 / ipratio=1.40 / pbratio=1.30 / aq-mode=2 / aq-strength=0.75 / cutree / zone-count=0 / no-strict-cbr / qg-size=32 / no-rc-grain / qpmax=69 / qpmin=0 / no-const-vbv / sar=0 / overscan=0 / videoformat=5 / range=0 / colorprim=2 / transfer=2 / colormatrix=2 / chromaloc=0 / display-window=0 / max-cll=0,0 / min-luma=0 / max-luma=1023 / log2-max-poc-lsb=8 / vui-timing-info / vui-hrd-info / slices=1 / opt-qp-pps / opt-ref-list-length-pps / no-multi-pass-opt-rps / scenecut-bias=0.05 / no-opt-cu-delta-qp / no-aq-motion / no-hdr / no-hdr-opt / no-dhdr10-opt / analysis-reuse-level=5 / scale-factor=0 / refine-intra=0 / refine-inter=0 / refine-mv=0 / no-limit-sao / ctu-info=0 
Default : Yes 
Forced : No 

Audio 
ID : 2 
Format : E-AC-3 
Format/Info : Enhanced Audio Coding 3 
Format settings, Endianness : Big 
Codec ID : A_EAC3 
Duration : 21 min 15 s 
Bit rate mode : Constant 
Bit rate : 224 kb/s 
Channel(s) : 2 channels 
Channel positions : Front: L R 
Sampling rate : 48.0 kHz 
Frame rate : 187.500 FPS (256 spf) 
Compression mode : Lossy 
Stream size : 34.1 MiB (6%) 
Language : English 
Default : No 
Forced : No

Screens

Download

Download: Google Drive (12.79 GB)

Season 3

Two and a Half Men (2003) Season 3 S03 (1080p AMZN WEB-DL x265 HEVC 10bit EAC3 2.0 RCVR)

Files

Two and a Half Men (2003) - S03E01 - Weekend in Bangkok with Two Olympic Gymnasts (1080p AMZN WEB-DL x265 RCVR).mkv (496.5 MB)
Two and a Half Men (2003) - S03E02 - Principal Gallagher's Lesbian Lover (1080p AMZN WEB-DL x265 RCVR).mkv (496.3 MB)
Two and a Half Men (2003) - S03E03 - Carpet Burns and a Bite Mark (1080p AMZN WEB-DL x265 RCVR).mkv (497.7 MB)
Two and a Half Men (2003) - S03E04 - Your Dismissive Attidude Towards Boobs (1080p AMZN WEB-DL x265 RCVR).mkv (497.8 MB)
Two and a Half Men (2003) - S03E05 - We Called It Mr. Pinky (1080p AMZN WEB-DL x265 RCVR).mkv (494.7 MB)
Two and a Half Men (2003) - S03E06 - Hi, Mr. Horned One (1080p AMZN WEB-DL x265 RCVR).mkv (494.7 MB)
Two and a Half Men (2003) - S03E07 - Sleep Tight, Puddin' Pop (1080p AMZN WEB-DL x265 RCVR).mkv (496.6 MB)
Two and a Half Men (2003) - S03E08 - That Voodoo That I Do Do (1080p AMZN WEB-DL x265 RCVR).mkv (494.5 MB)
Two and a Half Men (2003) - S03E09 - Madame and Her Special friend (1080p AMZN WEB-DL x265 RCVR).mkv (495.5 MB)
Two and a Half Men (2003) - S03E10 - Something Salted and Twisted (1080p AMZN WEB-DL x265 RCVR).mkv (497.2 MB)
Two and a Half Men (2003) - S03E11 - Santa's Village of the Damned (1080p AMZN WEB-DL x265 RCVR).mkv (497.5 MB)
Two and a Half Men (2003) - S03E12 - That Special Tug (1080p AMZN WEB-DL x265 RCVR).mkv (497.6 MB)
Two and a Half Men (2003) - S03E13 - Humiliation is a Visual Medium (1080p AMZN WEB-DL x265 RCVR).mkv (497.9 MB)
Two and a Half Men (2003) - S03E14 - Love Isn't Blind, It's Retarded (1080p AMZN WEB-DL x265 RCVR).mkv (497.9 MB)
Two and a Half Men (2003) - S03E15 - My Tongue is Meat (1080p AMZN WEB-DL x265 RCVR).mkv (498.8 MB)
Two and a Half Men (2003) - S03E16 - Ergo, The Booty Call (1080p AMZN WEB-DL x265 RCVR).mkv (498.3 MB)
Two and a Half Men (2003) - S03E17 - The Unfortunate Little Schnauser (1080p AMZN WEB-DL x265 RCVR).mkv (491.1 MB)
Two and a Half Men (2003) - S03E18 - The Spit-Covered Cobbler (1080p AMZN WEB-DL x265 RCVR).mkv (496.1 MB)
Two and a Half Men (2003) - S03E19 - Golly Moses, She's A Muffin (1080p AMZN WEB-DL x265 RCVR).mkv (498.3 MB)
Two and a Half Men (2003) - S03E20 - Always a Bridesmaid, Never a Burro (1080p AMZN WEB-DL x265 RCVR).mkv (492.0 MB)
Two and a Half Men (2003) - S03E21 - And the Plot Moistens (1080p AMZN WEB-DL x265 RCVR).mkv (493.8 MB)
Two and a Half Men (2003) - S03E22 - Just Once With Aunt Sophie (1080p AMZN WEB-DL x265 RCVR).mkv (497.5 MB)
Two and a Half Men (2003) - S03E23 - Arguments for the Quickie (1080p AMZN WEB-DL x265 RCVR).mkv (498.3 MB)
Two and a Half Men (2003) - S03E24 - That Pistol-Packin' Hermaphrodite (1080p AMZN WEB-DL x265 RCVR).mkv (495.4 MB)

Mediainfo

General 
Format : Matroska 
Format version : Version 4 / Version 2 
File size : 497 MiB 
Duration : 22 min 2 s 
Overall bit rate : 3 150 kb/s 
Encoded date : UTC 2017-11-08 16:30:07 
Writing application : mkvmerge v12.0.0 ('Trust / Lust') 64bit 
Writing library : libebml v1.3.4 + libmatroska v1.4.5 
Cover : Yes 
Attachments : cover.jpg 

Video 
ID : 1 
Format : HEVC 
Format/Info : High Efficiency Video Coding 
Format profile : Main [email protected]@Main 
Codec ID : V_MPEGH/ISO/HEVC 
Duration : 22 min 2 s 
Bit rate : 2 923 kb/s 
Width : 1 920 pixels 
Height : 1 080 pixels 
Display aspect ratio : 16:9 
Frame rate mode : Constant 
Frame rate : 23.976 (24000/1001) FPS 
Color space : YUV 
Chroma subsampling : 4:2:0 
Bit depth : 10 bits 
Bits/(Pixel*Frame) : 0.059 
Stream size : 461 MiB (93%) 
Writing library : x265 2.5+32-0bc372b7ca78:[Windows][MSVC 1911][64 bit] 10bit 
Encoding settings : cpuid=1173503 / frame-threads=3 / numa-pools=8 / wpp / no-pmode / no-pme / no-psnr / no-ssim / log-level=2 / input-csp=1 / input-res=1920x1080 / interlace=0 / total-frames=31704 / level-idc=0 / high-tier=1 / uhd-bd=0 / ref=4 / no-allow-non-conformance / no-repeat-headers / annexb / no-aud / no-hrd / info / hash=0 / no-temporal-layers / open-gop / min-keyint=23 / keyint=250 / bframes=4 / b-adapt=2 / b-pyramid / bframe-bias=0 / rc-lookahead=120 / lookahead-slices=4 / scenecut=40 / no-intra-refresh / ctu=64 / min-cu-size=8 / rect / no-amp / max-tu-size=32 / tu-inter-depth=1 / tu-intra-depth=1 / limit-tu=0 / rdoq-level=2 / dynamic-rd=0.00 / no-ssim-rd / signhide / no-tskip / nr-intra=0 / nr-inter=0 / no-constrained-intra / no-strong-intra-smoothing / max-merge=3 / limit-refs=3 / limit-modes / me=3 / subme=5 / merange=57 / temporal-mvp / weightp / no-weightb / no-analyze-src-pics / deblock=-1:-1 / no-sao / no-sao-non-deblock / rd=4 / no-early-skip / rskip / no-fast-intra / no-tskip-fast / no-cu-lossless / no-b-intra / no-splitrd-skip / rdpenalty=0 / psy-rd=1.00 / psy-rdoq=1.00 / no-rd-refine / analysis-reuse-mode=0 / no-lossless / cbqpoffs=0 / crqpoffs=0 / rc=abr / bitrate=2925 / qcomp=0.60 / qpstep=4 / stats-write=0 / stats-read=2 / cplxblur=20.0 / qblur=0.5 / ipratio=1.40 / pbratio=1.30 / aq-mode=2 / aq-strength=0.75 / cutree / zone-count=0 / no-strict-cbr / qg-size=32 / no-rc-grain / qpmax=69 / qpmin=0 / no-const-vbv / sar=0 / overscan=0 / videoformat=5 / range=0 / colorprim=2 / transfer=2 / colormatrix=2 / chromaloc=0 / display-window=0 / max-cll=0,0 / min-luma=0 / max-luma=1023 / log2-max-poc-lsb=8 / vui-timing-info / vui-hrd-info / slices=1 / opt-qp-pps / opt-ref-list-length-pps / no-multi-pass-opt-rps / scenecut-bias=0.05 / no-opt-cu-delta-qp / no-aq-motion / no-hdr / no-hdr-opt / no-dhdr10-opt / analysis-reuse-level=5 / scale-factor=0 / refine-intra=0 / refine-inter=0 / refine-mv=0 / no-limit-sao / ctu-info=0 
Default : Yes 
Forced : No 

Audio 
ID : 2 
Format : E-AC-3 
Format/Info : Enhanced Audio Coding 3 
Format settings, Endianness : Big 
Codec ID : A_EAC3 
Duration : 22 min 2 s 
Bit rate mode : Constant 
Bit rate : 224 kb/s 
Channel(s) : 2 channels 
Channel positions : Front: L R 
Sampling rate : 48.0 kHz 
Frame rate : 187.500 FPS (256 spf) 
Compression mode : Lossy 
Stream size : 35.3 MiB (7%) 
Language : English 
Default : No 
Forced : No 

Subtitle 
ID : 3 
Format : UTF-8 
Codec ID : S_TEXT/UTF8 
Codec ID/Info : UTF-8 Plain Text 
Duration : 21 min 29 s 
Bit rate : 81 b/s 
Count of elements : 490 
Stream size : 12.8 KiB (0%) 
Language : English 
Default : No 
Forced : No

Screens

Download

Download: Google Drive (11.63 GB)

Season 4

Two and a Half Men (2003) Season 4 S04 (1080p AMZN WEB-DL x265 HEVC 10bit EAC3 2.0 RCVR)

Files

Two and a Half Men (2003) - S04E01 - Working for Caligula (1080p AMZN WEB-DL x265 RCVR).mkv (497.5 MB)
Two and a Half Men (2003) - S04E02 - Who's Vod Kanockers (1080p AMZN WEB-DL x265 RCVR).mkv (497.4 MB)
Two and a Half Men (2003) - S04E03 - The Sea is a Harsh Mistress (1080p AMZN WEB-DL x265 RCVR).mkv (492.6 MB)
Two and a Half Men (2003) - S04E04 - A Pot Smoking Monkey (1080p AMZN WEB-DL x265 RCVR).mkv (476.2 MB)
Two and a Half Men (2003) - S04E05 - A Live Woman of Proven Fertility (1080p AMZN WEB-DL x265 RCVR).mkv (481.5 MB)
Two and a Half Men (2003) - S04E06 - Apologies for the Frivolity (1080p AMZN WEB-DL x265 RCVR).mkv (469.5 MB)
Two and a Half Men (2003) - S04E07 - Repeated Blows to His Unformed Head (1080p AMZN AMZN WEB-DL x265 RCVR).mkv (485.6 MB)
Two and a Half Men (2003) - S04E08 - Release the Dogs (1080p AMZN WEB-DL x265 RCVR).mkv (496.8 MB)
Two and a Half Men (2003) - S04E09 - Corey's Been Dead For an Hour (1080p AMZN WEB-DL x265 RCVR).mkv (486.6 MB)
Two and a Half Men (2003) - S04E10 - Kissing Abraham Lincoln (1080p AMZN WEB-DL x265 RCVR).mkv (495.3 MB)
Two and a Half Men (2003) - S04E11 - Walnuts and Demerol (1080p AMZN WEB-DL x265 RCVR).mkv (480.4 MB)
Two and a Half Men (2003) - S04E12 - Castrating Sheep in Montana (1080p AMZN WEB-DL x265 RCVR).mkv (494.0 MB)
Two and a Half Men (2003) - S04E13 - Don't Worry, Speed Racer (1080p AMZN WEB-DL x265 RCVR).mkv (487.3 MB)
Two and a Half Men (2003) - S04E14 - That's Summer Sausage, Not Salami (1080p AMZN WEB-DL x265 RCVR).mkv (497.2 MB)
Two and a Half Men (2003) - S04E15 - My Damn Stalker (1080p AMZN WEB-DL x265 RCVR).mkv (498.1 MB)
Two and a Half Men (2003) - S04E16 - Young People Have Phlegm Too (1080p AMZN WEB-DL x265 RCVR).mkv (490.4 MB)
Two and a Half Men (2003) - S04E17 - I Merely Slept With a Commie (1080p AMZN WEB-DL x265 RCVR).mkv (498.4 MB)
Two and a Half Men (2003) - S04E18 - It Never Rains in Hooterville (1080p AMZN WEB-DL x265 RCVR).mkv (493.4 MB)
Two and a Half Men (2003) - S04E19 - Smooth as a Ken Doll (1080p AMZN WEB-DL x265 RCVR).mkv (477.0 MB)
Two and a Half Men (2003) - S04E20 - Aunt Myra Doesn't Pee a Lot (1080p AMZN WEB-DL x265 RCVR).mkv (492.0 MB)
Two and a Half Men (2003) - S04E21 - Tucked, Taped and Gorgeous (1080p AMZN WEB-DL x265 RCVR).mkv (498.3 MB)
Two and a Half Men (2003) - S04E22 - Mr. McGlue's Feedbag (1080p AMZN WEB-DL x265 RCVR).mkv (498.4 MB)
Two and a Half Men (2003) - S04E23 - Anteaters. They're Just Crazy-lookin (1080p AMZN WEB-DL x265 RCVR).mkv (493.5 MB)
Two and a Half Men (2003) - S04E24 - Prostitutes and Gelato (1080p AMZN WEB-DL x265 RCVR).mkv (466.4 MB)

Mediainfo

General 
Format : Matroska 
Format version : Version 4 / Version 2 
File size : 497 MiB 
Duration : 22 min 3 s 
Overall bit rate : 3 152 kb/s 
Encoded date : UTC 2017-11-06 14:06:30 
Writing application : mkvmerge v12.0.0 ('Trust / Lust') 64bit 
Writing library : libebml v1.3.4 + libmatroska v1.4.5 
Cover : Yes 
Attachments : cover.jpg 

Video 
ID : 1 
Format : HEVC 
Format/Info : High Efficiency Video Coding 
Format profile : Main [email protected]@Main 
Codec ID : V_MPEGH/ISO/HEVC 
Duration : 22 min 3 s 
Bit rate : 2 926 kb/s 
Width : 1 920 pixels 
Height : 1 080 pixels 
Display aspect ratio : 16:9 
Frame rate mode : Constant 
Frame rate : 23.976 (24000/1001) FPS 
Color space : YUV 
Chroma subsampling : 4:2:0 
Bit depth : 10 bits 
Bits/(Pixel*Frame) : 0.059 
Stream size : 462 MiB (93%) 
Writing library : x265 2.5+31-df2de6ea407d:[Windows][MSVC 1911][64 bit] 10bit 
Encoding settings : cpuid=1173503 / frame-threads=3 / numa-pools=8 / wpp / no-pmode / no-pme / no-psnr / no-ssim / log-level=2 / input-csp=1 / input-res=1920x1080 / interlace=0 / total-frames=31739 / level-idc=0 / high-tier=1 / uhd-bd=0 / ref=4 / no-allow-non-conformance / no-repeat-headers / annexb / no-aud / no-hrd / info / hash=0 / no-temporal-layers / open-gop / min-keyint=23 / keyint=250 / bframes=4 / b-adapt=2 / b-pyramid / bframe-bias=0 / rc-lookahead=120 / lookahead-slices=4 / scenecut=40 / no-intra-refresh / ctu=64 / min-cu-size=8 / rect / no-amp / max-tu-size=32 / tu-inter-depth=1 / tu-intra-depth=1 / limit-tu=0 / rdoq-level=2 / dynamic-rd=0.00 / no-ssim-rd / signhide / no-tskip / nr-intra=0 / nr-inter=0 / no-constrained-intra / no-strong-intra-smoothing / max-merge=3 / limit-refs=3 / limit-modes / me=3 / subme=5 / merange=57 / temporal-mvp / weightp / no-weightb / no-analyze-src-pics / deblock=-1:-1 / no-sao / no-sao-non-deblock / rd=4 / no-early-skip / rskip / no-fast-intra / no-tskip-fast / no-cu-lossless / no-b-intra / no-splitrd-skip / rdpenalty=0 / psy-rd=1.00 / psy-rdoq=1.00 / no-rd-refine / analysis-reuse-mode=0 / no-lossless / cbqpoffs=0 / crqpoffs=0 / rc=abr / bitrate=2925 / qcomp=0.60 / qpstep=4 / stats-write=0 / stats-read=2 / cplxblur=20.0 / qblur=0.5 / ipratio=1.40 / pbratio=1.30 / aq-mode=2 / aq-strength=0.75 / cutree / zone-count=0 / no-strict-cbr / qg-size=32 / no-rc-grain / qpmax=69 / qpmin=0 / no-const-vbv / sar=0 / overscan=0 / videoformat=5 / range=0 / colorprim=2 / transfer=2 / colormatrix=2 / chromaloc=0 / display-window=0 / max-cll=0,0 / min-luma=0 / max-luma=1023 / log2-max-poc-lsb=8 / vui-timing-info / vui-hrd-info / slices=1 / opt-qp-pps / opt-ref-list-length-pps / no-multi-pass-opt-rps / scenecut-bias=0.05 / no-opt-cu-delta-qp / no-aq-motion / no-hdr / no-hdr-opt / no-dhdr10-opt / analysis-reuse-level=5 / scale-factor=0 / refine-intra=0 / refine-inter=0 / refine-mv=0 / no-limit-sao / ctu-info=0 
Default : Yes 
Forced : No 

Audio 
ID : 2 
Format : E-AC-3 
Format/Info : Enhanced Audio Coding 3 
Format settings, Endianness : Big 
Codec ID : A_EAC3 
Duration : 22 min 3 s 
Bit rate mode : Constant 
Bit rate : 224 kb/s 
Channel(s) : 2 channels 
Channel positions : Front: L R 
Sampling rate : 48.0 kHz 
Frame rate : 187.500 FPS (256 spf) 
Compression mode : Lossy 
Stream size : 35.3 MiB (7%) 
Language : English 
Default : No 
Forced : No 

Subtitle 
ID : 3 
Format : UTF-8 
Codec ID : S_TEXT/UTF8 
Codec ID/Info : UTF-8 Plain Text 
Duration : 21 min 36 s 
Bit rate : 80 b/s 
Count of elements : 515 
Stream size : 12.8 KiB (0%) 
Language : English 
Default : No 
Forced : No

Screens

Download

Download: Google Drive (11.47 GB)

Season 5

Two and a Half Men (2003) Season 5 S05 (1080p AMZN WEB-DL x265 HEVC 10bit EAC3 2.0 RCVR)

Files

Two and a Half Men (2003) - S05E01 - Large Birds, Spiders and Mom (1080p AMZN WEB-DL x265 RCVR).mkv (470.1 MB)
Two and a Half Men (2003) - S05E02 - Media Room Slash Dungeon (1080p AMZN WEB-DL x265 RCVR).mkv (496.5 MB)
Two and a Half Men (2003) - S05E03 - Dum Diddy Dum Diddy Doo (1080p AMZN WEB-DL x265 RCVR).mkv (490.1 MB)
Two and a Half Men (2003) - S05E04 - City of Great Racks (1080p AMZN WEB-DL x265 RCVR).mkv (498.6 MB)
Two and a Half Men (2003) - S05E05 - Putting Swim Fins on a Cat (1080p AMZN WEB-DL x265 RCVR).mkv (497.1 MB)
Two and a Half Men (2003) - S05E06 - Help Daddy Find His Toenail (1080p AMZN WEB-DL x265 RCVR).mkv (479.6 MB)
Two and a Half Men (2003) - S05E07 - The Leather Gear is in the Guest Room (1080p AMZN WEB-DL x265 RCVR).mkv (470.5 MB)
Two and a Half Men (2003) - S05E08 - Is There a Mrs. Waffles (1080p AMZN WEB-DL x265 RCVR).mkv (453.9 MB)
Two and a Half Men (2003) - S05E09 - Shoes, Hats, Pickle, Jar Lids. (1080p AMZN WEB-DL x265 RCVR).mkv (471.6 MB)
Two and a Half Men (2003) - S05E10 - Kinda Like Necrophilia (1080p AMZN WEB-DL x265 RCVR).mkv (496.7 MB)
Two and a Half Men (2003) - S05E11 - Meander to Your Dander (1080p AMZN WEB-DL x265 RCVR).mkv (496.1 MB)
Two and a Half Men (2003) - S05E12 - A Little Clammy and None Too Fresh (1080p AMZN WEB-DL x265 RCVR).mkv (496.6 MB)
Two and a Half Men (2003) - S05E13 - The Soil is Moist (1080p AMZN WEB-DL x265 RCVR).mkv (452.3 MB)
Two and a Half Men (2003) - S05E14 - Winky-Dink Time (1080p AMZN WEB-DL x265 RCVR).mkv (497.3 MB)
Two and a Half Men (2003) - S05E15 - Rough Night in Hump Junction (aka His Ugly Bundle) (1080p AMZN WEB-DL x265 RCVR).mkv (491.9 MB)
Two and a Half Men (2003) - S05E16 - Look At Me, Mommy, I'm Pretty (1080p AMZN WEB-DL x265 RCVR).mkv (496.6 MB)
Two and a Half Men (2003) - S05E17 - Fish in a Drawer (1080p AMZN WEB-DL x265 RCVR).mkv (490.1 MB)
Two and a Half Men (2003) - S05E18 - If My Hole Could Talk (1080p AMZN WEB-DL x265 RCVR).mkv (490.9 MB)
Two and a Half Men (2003) - S05E19 - Waiting for the Right Snapper (1080p AMZN WEB-DL x265 RCVR).mkv (496.9 MB)

Mediainfo

General 
Format                                   : Matroska 
Format version                           : Version 4 / Version 2 
File size                                : 470 MiB 
Duration                                 : 20 min 50 s 
Overall bit rate                         : 3 152 kb/s 
Encoded date                             : UTC 2017-11-15 04:17:06 
Writing application                      : mkvmerge v12.0.0 ('Trust / Lust') 64bit 
Writing library                          : libebml v1.3.4 + libmatroska v1.4.5 
Cover                                    : Yes 
Attachments                              : cover.jpg 

Video 
ID                                       : 1 
Format                                   : HEVC 
Format/Info                              : High Efficiency Video Coding 
Format profile                           : Main [email protected]@Main 
Codec ID                                 : V_MPEGH/ISO/HEVC 
Duration                                 : 20 min 50 s 
Bit rate                                 : 2 925 kb/s 
Width                                    : 1 920 pixels 
Height                                   : 1 080 pixels 
Display aspect ratio                     : 16:9 
Frame rate mode                          : Constant 
Frame rate                               : 23.976 (24000/1001) FPS 
Color space                              : YUV 
Chroma subsampling                       : 4:2:0 
Bit depth                                : 10 bits 
Bits/(Pixel*Frame)                       : 0.059 
Stream size                              : 436 MiB (93%) 
Writing library                          : x265 2.5+48-bd438ce10843:[Windows][MSVC 1911][64 bit] 10bit 
Encoding settings                        : cpuid=1173503 / frame-threads=3 / numa-pools=8 / wpp / no-pmode / no-pme / no-psnr / no-ssim / log-level=2 / input-csp=1 / input-res=1920x1080 / interlace=0 / total-frames=29991 / level-idc=0 / high-tier=1 / uhd-bd=0 / ref=4 / no-allow-non-conformance / no-repeat-headers / annexb / no-aud / no-hrd / info / hash=0 / no-temporal-layers / open-gop / min-keyint=23 / keyint=250 / bframes=4 / b-adapt=2 / b-pyramid / bframe-bias=0 / rc-lookahead=120 / lookahead-slices=4 / scenecut=40 / no-intra-refresh / ctu=64 / min-cu-size=8 / rect / no-amp / max-tu-size=32 / tu-inter-depth=1 / tu-intra-depth=1 / limit-tu=0 / rdoq-level=2 / dynamic-rd=0.00 / no-ssim-rd / signhide / no-tskip / nr-intra=0 / nr-inter=0 / no-constrained-intra / no-strong-intra-smoothing / max-merge=3 / limit-refs=3 / limit-modes / me=3 / subme=5 / merange=57 / temporal-mvp / weightp / no-weightb / no-analyze-src-pics / deblock=-1:-1 / no-sao / no-sao-non-deblock / rd=4 / no-early-skip / rskip / no-fast-intra / no-tskip-fast / no-cu-lossless / no-b-intra / no-splitrd-skip / rdpenalty=0 / psy-rd=1.00 / psy-rdoq=1.00 / no-rd-refine / analysis-reuse-mode=0 / no-lossless / cbqpoffs=0 / crqpoffs=0 / rc=abr / bitrate=2925 / qcomp=0.60 / qpstep=4 / stats-write=0 / stats-read=2 / cplxblur=20.0 / qblur=0.5 / ipratio=1.40 / pbratio=1.30 / aq-mode=2 / aq-strength=0.75 / cutree / zone-count=0 / no-strict-cbr / qg-size=32 / no-rc-grain / qpmax=69 / qpmin=0 / no-const-vbv / sar=0 / overscan=0 / videoformat=5 / range=0 / colorprim=2 / transfer=2 / colormatrix=2 / chromaloc=0 / display-window=0 / max-cll=0,0 / min-luma=0 / max-luma=1023 / log2-max-poc-lsb=8 / vui-timing-info / vui-hrd-info / slices=1 / opt-qp-pps / opt-ref-list-length-pps / no-multi-pass-opt-rps / scenecut-bias=0.05 / no-opt-cu-delta-qp / no-aq-motion / no-hdr / no-hdr-opt / no-dhdr10-opt / analysis-reuse-level=5 / scale-factor=0 / refine-intra=0 / refine-inter=0 / refine-mv=0 / no-limit-sao / ctu-info=0 / no-lowpass-dct / refine-mv-type=0 
Default                                  : Yes 
Forced                                   : No 

Audio 
ID                                       : 2 
Format                                   : E-AC-3 
Format/Info                              : Enhanced Audio Coding 3 
Format settings, Endianness              : Big 
Codec ID                                 : A_EAC3 
Duration                                 : 20 min 50 s 
Bit rate mode                            : Constant 
Bit rate                                 : 224 kb/s 
Channel(s)                               : 2 channels 
Channel positions                        : Front: L R 
Sampling rate                            : 48.0 kHz 
Frame rate                               : 187.500 FPS (256 spf) 
Compression mode                         : Lossy 
Stream size                              : 33.4 MiB (7%) 
Language                                 : English 
Default                                  : No 
Forced                                   : No 

Subtitle 
ID                                       : 3 
Format                                   : UTF-8 
Codec ID                                 : S_TEXT/UTF8 
Codec ID/Info                            : UTF-8 Plain Text 
Duration                                 : 20 min 16 s 
Bit rate                                 : 92 b/s 
Count of elements                        : 471 
Stream size                              : 13.7 KiB (0%) 
Language                                 : English 
Default                                  : No 
Forced                                   : No

Screens

Download

Download: Google Drive (9.02 GB)

Season 6

Two and a Half Men (2003) Season 6 S06 (1080p AMZN WEB-DL x265 HEVC 10bit EAC3 2.0 RCVR)

Files

Two and a Half Men (2003) - S06E01 - Taterhead is Our Love Child (1080p AMZN WEB-DL x265 RCVR).mkv (479.9 MB)
Two and a Half Men (2003) - S06E02 - Pie Hole, Herb (1080p AMZN WEB-DL x265 RCVR).mkv (496.0 MB)
Two and a Half Men (2003) - S06E03 - Damn You, Eggs Benedict (1080p AMZN WEB-DL x265 RCVR).mkv (477.1 MB)
Two and a Half Men (2003) - S06E04 - The Flavin' and the Mavin' (1080p AMZN WEB-DL x265 RCVR).mkv (473.8 MB)
Two and a Half Men (2003) - S06E05 - A Jock Strap in Hell (1080p AMZN WEB-DL x265 RCVR).mkv (468.2 MB)
Two and a Half Men (2003) - S06E06 - It's Always Nazi Week (1) (1080p AMZN WEB-DL x265 RCVR).mkv (479.8 MB)
Two and a Half Men (2003) - S06E07 - Best H.O. Money Can Buy (1080p AMZN WEB-DL x265 RCVR).mkv (492.3 MB)
Two and a Half Men (2003) - S06E08 - Pinocchio's Mouth (1080p AMZN WEB-DL x265 RCVR).mkv (492.2 MB)
Two and a Half Men (2003) - S06E09 - The Mooch At The Boo (1080p AMZN WEB-DL x265 RCVR).mkv (478.9 MB)
Two and a Half Men (2003) - S06E10 - He Smelled the Ham, He Got Excited (1080p AMZN WEB-DL x265 RCVR).mkv (478.6 MB)
Two and a Half Men (2003) - S06E11 - The Devil's Lube (1080p AMZN WEB-DL x265 RCVR).mkv (496.7 MB)
Two and a Half Men (2003) - S06E12 - Thank God for Scoliosis (1080p AMZN WEB-DL x265 RCVR).mkv (466.9 MB)
Two and a Half Men (2003) - S06E13 - I Think You Offended Don (1080p AMZN WEB-DL x265 RCVR).mkv (496.3 MB)
Two and a Half Men (2003) - S06E14 - David Copperfield Slipped Me a Roofie (1080p AMZN WEB-DL x265 RCVR).mkv (486.2 MB)
Two and a Half Men (2003) - S06E15 - I'd Like to Start With the Cat (1080p AMZN WEB-DL x265 RCVR).mkv (491.7 MB)
Two and a Half Men (2003) - S06E16 - She'll Still Be Dead At Halftime (1080p AMZN WEB-DL x265 RCVR).mkv (469.0 MB)
Two and a Half Men (2003) - S06E17 - The 'Ocu' Or The 'Pado' (1080p AMZN WEB-DL x265 RCVR).mkv (457.4 MB)
Two and a Half Men (2003) - S06E18 - My Son's Enormous Head (1080p AMZN WEB-DL x265 RCVR).mkv (490.5 MB)
Two and a Half Men (2003) - S06E19 - The Two Finger Rule (1080p AMZN WEB-DL x265 RCVR).mkv (471.8 MB)
Two and a Half Men (2003) - S06E20 - Hello, I Am Alan Cousteau (1080p AMZN WEB-DL x265 RCVR).mkv (495.7 MB)
Two and a Half Men (2003) - S06E21 - Above Exalted Cyclops (1080p AMZN WEB-DL x265 RCVR).mkv (492.3 MB)
Two and a Half Men (2003) - S06E22 - Sir Lancelot's Litter Box (1080p AMZN WEB-DL x265 RCVR).mkv (460.9 MB)
Two and a Half Men (2003) - S06E23 - Good Morning, Mrs. Butterworth (1080p AMZN WEB-DL x265 RCVR).mkv (465.4 MB)
Two and a Half Men (2003) - S06E24 - Baseball with Better Steroids (1080p AMZN WEB-DL x265 RCVR).mkv (492.1 MB)

Mediainfo

General 
Format                                   : Matroska 
Format version                           : Version 4 / Version 2 
File size                                : 480 MiB 
Duration                                 : 21 min 16 s 
Overall bit rate                         : 3 152 kb/s 
Encoded date                             : UTC 2017-11-19 02:31:24 
Writing application                      : mkvmerge v12.0.0 ('Trust / Lust') 64bit 
Writing library                          : libebml v1.3.4 + libmatroska v1.4.5 
Cover                                    : Yes 
Attachments                              : cover.jpg 

Video 
ID                                       : 1 
Format                                   : HEVC 
Format/Info                              : High Efficiency Video Coding 
Format profile                           : Main [email protected]@Main 
Codec ID                                 : V_MPEGH/ISO/HEVC 
Duration                                 : 21 min 16 s 
Bit rate                                 : 2 926 kb/s 
Width                                    : 1 920 pixels 
Height                                   : 1 080 pixels 
Display aspect ratio                     : 16:9 
Frame rate mode                          : Constant 
Frame rate                               : 23.976 (24000/1001) FPS 
Color space                              : YUV 
Chroma subsampling                       : 4:2:0 
Bit depth                                : 10 bits 
Bits/(Pixel*Frame)                       : 0.059 
Stream size                              : 445 MiB (93%) 
Writing library                          : x265 2.5+48-bd438ce10843:[Windows][MSVC 1911][64 bit] 10bit 
Encoding settings                        : cpuid=1173503 / frame-threads=3 / numa-pools=8 / wpp / no-pmode / no-pme / no-psnr / no-ssim / log-level=2 / input-csp=1 / input-res=1920x1080 / interlace=0 / total-frames=30617 / level-idc=0 / high-tier=1 / uhd-bd=0 / ref=4 / no-allow-non-conformance / no-repeat-headers / annexb / no-aud / no-hrd / info / hash=0 / no-temporal-layers / open-gop / min-keyint=23 / keyint=250 / bframes=4 / b-adapt=2 / b-pyramid / bframe-bias=0 / rc-lookahead=120 / lookahead-slices=4 / scenecut=40 / no-intra-refresh / ctu=64 / min-cu-size=8 / rect / no-amp / max-tu-size=32 / tu-inter-depth=1 / tu-intra-depth=1 / limit-tu=0 / rdoq-level=2 / dynamic-rd=0.00 / no-ssim-rd / signhide / no-tskip / nr-intra=0 / nr-inter=0 / no-constrained-intra / no-strong-intra-smoothing / max-merge=3 / limit-refs=3 / limit-modes / me=3 / subme=5 / merange=57 / temporal-mvp / weightp / no-weightb / no-analyze-src-pics / deblock=-1:-1 / no-sao / no-sao-non-deblock / rd=4 / no-early-skip / rskip / no-fast-intra / no-tskip-fast / no-cu-lossless / no-b-intra / no-splitrd-skip / rdpenalty=0 / psy-rd=1.00 / psy-rdoq=1.00 / no-rd-refine / analysis-reuse-mode=0 / no-lossless / cbqpoffs=0 / crqpoffs=0 / rc=abr / bitrate=2925 / qcomp=0.60 / qpstep=4 / stats-write=0 / stats-read=2 / cplxblur=20.0 / qblur=0.5 / ipratio=1.40 / pbratio=1.30 / aq-mode=2 / aq-strength=0.75 / cutree / zone-count=0 / no-strict-cbr / qg-size=32 / no-rc-grain / qpmax=69 / qpmin=0 / no-const-vbv / sar=0 / overscan=0 / videoformat=5 / range=0 / colorprim=2 / transfer=2 / colormatrix=2 / chromaloc=0 / display-window=0 / max-cll=0,0 / min-luma=0 / max-luma=1023 / log2-max-poc-lsb=8 / vui-timing-info / vui-hrd-info / slices=1 / opt-qp-pps / opt-ref-list-length-pps / no-multi-pass-opt-rps / scenecut-bias=0.05 / no-opt-cu-delta-qp / no-aq-motion / no-hdr / no-hdr-opt / no-dhdr10-opt / analysis-reuse-level=5 / scale-factor=0 / refine-intra=0 / refine-inter=0 / refine-mv=0 / no-limit-sao / ctu-info=0 / no-lowpass-dct / refine-mv-type=0 
Default                                  : Yes 
Forced                                   : No 

Audio 
ID                                       : 2 
Format                                   : E-AC-3 
Format/Info                              : Enhanced Audio Coding 3 
Format settings, Endianness              : Big 
Codec ID                                 : A_EAC3 
Duration                                 : 21 min 16 s 
Bit rate mode                            : Constant 
Bit rate                                 : 224 kb/s 
Channel(s)                               : 2 channels 
Channel positions                        : Front: L R 
Sampling rate                            : 48.0 kHz 
Frame rate                               : 187.500 FPS (256 spf) 
Compression mode                         : Lossy 
Stream size                              : 34.1 MiB (7%) 
Language                                 : English 
Default                                  : No 
Forced                                   : No 

Subtitle 
ID                                       : 3 
Format                                   : UTF-8 
Codec ID                                 : S_TEXT/UTF8 
Codec ID/Info                            : UTF-8 Plain Text 
Duration                                 : 20 min 43 s 
Bit rate                                 : 90 b/s 
Count of elements                        : 472 
Stream size                              : 13.8 KiB (0%) 
Language                                 : English 
Default                                  : No 
Forced                                   : No

Screens

Download

Download: Google Drive (11.28 GB)

Season 7

Two and a Half Men (2003) Season 7 S07 (1080p AMZN WEB-DL x265 HEVC 10bit EAC3 6.0 RCVR) REPACK

Files

Two and a Half Men (2003) - S07E01 - 818-jklpuzo (1080p AMZN WEB-DL x265 RCVR).mkv (561.1 MB)
Two and a Half Men (2003) - S07E02 - Whipped Unto the Third Generation (1080p AMZN WEB-DL x265 RCVR).mkv (533.0 MB)
Two and a Half Men (2003) - S07E03 - Mmm, Fish. Yum. (1080p AMZN WEB-DL x265 RCVR).mkv (510.1 MB)
Two and a Half Men (2003) - S07E04 - Laxative Tester, Horse Inseminator (1080p AMZN WEB-DL x265 RCVR).mkv (521.8 MB)
Two and a Half Men (2003) - S07E05 - For the Sake of the Child (1080p AMZN WEB-DL x265 RCVR).mkv (561.8 MB)
Two and a Half Men (2003) - S07E06 - Give Me Your Thumb (1080p AMZN WEB-DL x265 RCVR).mkv (532.8 MB)
Two and a Half Men (2003) - S07E07 - Untainted by Filth (1080p AMZN WEB-DL x265 RCVR).mkv (563.7 MB)
Two and a Half Men (2003) - S07E08 - Gorp. Fnark. Schmegle. (1080p AMZN WEB-DL x265 RCVR).mkv (526.7 MB)
Two and a Half Men (2003) - S07E09 - Captain Terry's Spray-On Hair (1080p AMZN WEB-DL x265 RCVR).mkv (541.8 MB)
Two and a Half Men (2003) - S07E10 - That's Why They Call It Ball Room (1080p AMZN WEB-DL x265 RCVR).mkv (511.4 MB)
Two and a Half Men (2003) - S07E11 - Warning, It's Dirty (1080p AMZN WEB-DL x265 RCVR).mkv (504.6 MB)
Two and a Half Men (2003) - S07E12 - Fart Jokes, Pie and Celeste (1080p AMZN WEB-DL x265 RCVR).mkv (574.9 MB)
Two and a Half Men (2003) - S07E13 - Yay, No Polyps! (1080p AMZN WEB-DL x265 RCVR).mkv (534.1 MB)
Two and a Half Men (2003) - S07E14 - Crude and Uncalled For (1) (1080p AMZN WEB-DL x265 RCVR).mkv (547.5 MB)
Two and a Half Men (2003) - S07E15 - Aye, Aye, Captain Douche (2) (1080p AMZN WEB-DL x265 RCVR).mkv (563.3 MB)
Two and a Half Men (2003) - S07E16 - Tinkle Like a Princess (1080p AMZN WEB-DL x265 RCVR).mkv (552.1 MB)
Two and a Half Men (2003) - S07E17 - I Found Your Moustache (1080p AMZN WEB-DL x265 RCVR).mkv (553.5 MB)
Two and a Half Men (2003) - S07E18 - Ixnay on the Oggie Day (1080p AMZN WEB-DL x265 RCVR).mkv (544.4 MB)
Two and a Half Men (2003) - S07E19 - Keith Moon Is Vomiting in His Grave (1080p AMZN WEB-DL x265 RCVR).mkv (481.6 MB)
Two and a Half Men (2003) - S07E20 - I Called Him Magoo (1080p AMZN WEB-DL x265 RCVR).mkv (557.1 MB)
Two and a Half Men (2003) - S07E21 - Gumby with a Pokey (1080p AMZN WEB-DL x265 RCVR).mkv (557.1 MB)
Two and a Half Men (2003) - S07E22 - This is Not Gonna End Well (1080p AMZN WEB-DL x265 RCVR).mkv (536.6 MB)

Mediainfo

General 
Format: Matroska 
File Size: 561 MiB 
Duration: 21 min 59 s 
Overall Bit Rate: 3,568 kb/s 

Video 
Format: HEVC 
Format Profile: Main [email protected]@Main 
Bit Rate: 2,925 kb/s 
Dimensions: 1,920 x 1,080 pixels 
Display Aspect Ratio: 16:9 
Frame Rate: 23.976 (24000/1001) FPS 
Writing Library: x265 2.5+48-bd438ce10843:[Windows][MSVC 1911][64 bit] 10bit 
Encoding Settings: cpuid=1173503 / frame-threads=3 / numa-pools=8 / wpp / no-pmode / no-pme / no-psnr / no-ssim / log-level=2 / input-csp=1 / input-res=1920x1080 / interlace=0 / total-frames=31632 / level-idc=0 / high-tier=1 / uhd-bd=0 / ref=4 / no-allow-non-conformance / no-repeat-headers / annexb / no-aud / no-hrd / info / hash=0 / no-temporal-layers / open-gop / min-keyint=23 / keyint=250 / bframes=4 / b-adapt=2 / b-pyramid / bframe-bias=0 / rc-lookahead=120 / lookahead-slices=4 / scenecut=40 / no-intra-refresh / ctu=64 / min-cu-size=8 / rect / no-amp / max-tu-size=32 / tu-inter-depth=1 / tu-intra-depth=1 / limit-tu=0 / rdoq-level=2 / dynamic-rd=0.00 / no-ssim-rd / signhide / no-tskip / nr-intra=0 / nr-inter=0 / no-constrained-intra / no-strong-intra-smoothing / max-merge=3 / limit-refs=3 / limit-modes / me=3 / subme=5 / merange=57 / temporal-mvp / weightp / no-weightb / no-analyze-src-pics / deblock=-1:-1 / no-sao / no-sao-non-deblock / rd=4 / no-early-skip / rskip / no-fast-intra / no-tskip-fast / no-cu-lossless / no-b-intra / no-splitrd-skip / rdpenalty=0 / psy-rd=1.00 / psy-rdoq=1.00 / no-rd-refine / analysis-reuse-mode=0 / no-lossless / cbqpoffs=0 / crqpoffs=0 / rc=abr / bitrate=2925 / qcomp=0.60 / qpstep=4 / stats-write=0 / stats-read=2 / cplxblur=20.0 / qblur=0.5 / ipratio=1.40 / pbratio=1.30 / aq-mode=2 / aq-strength=0.75 / cutree / zone-count=0 / no-strict-cbr / qg-size=32 / no-rc-grain / qpmax=69 / qpmin=0 / no-const-vbv / sar=0 / overscan=0 / videoformat=5 / range=0 / colorprim=2 / transfer=2 / colormatrix=2 / chromaloc=0 / display-window=0 / max-cll=0,0 / min-luma=0 / max-luma=1023 / log2-max-poc-lsb=8 / vui-timing-info / vui-hrd-info / slices=1 / opt-qp-pps / opt-ref-list-length-pps / no-multi-pass-opt-rps / scenecut-bias=0.05 / no-opt-cu-delta-qp / no-aq-motion / no-hdr / no-hdr-opt / no-dhdr10-opt / analysis-reuse-level=5 / scale-factor=0 / refine-intra=0 / refine-inter=0 / refine-mv=0 / no-limit-sao / ctu-info=0 / no-lowpass-dct / refine-mv-type=0 

Audio: English - EAC3 / 6 channels / 640 kb/s 

Subtitle: English - UTF-8 / 88 b/s

Screens

Download

Download: Google Drive (11.59 GB)

Season 8

Two and a Half Men (2003) Season 8 S08 (1080p AMZN WEB-DL x265 HEVC 10bit EAC3 6.0 RCVR)

Files

Two and a Half Men (2003) - S08E01 - Three Girls and a Guy Named Bud (1080p AMZN WEB-DL x265 RCVR).mkv (523.7 MB)
Two and a Half Men (2003) - S08E02 - A Bottle of Wine and a Jackhammer (1080p AMZN WEB-DL x265 RCVR).mkv (523.9 MB)
Two and a Half Men (2003) - S08E03 - A Pudding-Filled Cactus (1080p AMZN WEB-DL x265 RCVR).mkv (523.6 MB)
Two and a Half Men (2003) - S08E04 - Hookers, Hookers, Hookers (1080p AMZN WEB-DL x265 RCVR).mkv (523.3 MB)
Two and a Half Men (2003) - S08E05 - The Immortal Mr. Billy Joel (1080p AMZN WEB-DL x265 RCVR).mkv (520.3 MB)
Two and a Half Men (2003) - S08E06 - Twanging Your Magic Clanger (1080p AMZN WEB-DL x265 RCVR).mkv (515.6 MB)
Two and a Half Men (2003) - S08E07 - The Crazy Bitch Gazette (1080p AMZN WEB-DL x265 RCVR).mkv (474.0 MB)
Two and a Half Men (2003) - S08E08 - Springtime on a Stick (1080p AMZN WEB-DL x265 RCVR).mkv (517.8 MB)
Two and a Half Men (2003) - S08E09 - A Good Time In Central Africa (1080p AMZN WEB-DL x265 RCVR).mkv (518.5 MB)
Two and a Half Men (2003) - S08E10 - Ow, Ow, Don't Stop (1080p AMZN WEB-DL x265 RCVR).mkv (474.3 MB)
Two and a Half Men (2003) - S08E11 - Dead From the Waist Down (1080p AMZN WEB-DL x265 RCVR).mkv (523.6 MB)
Two and a Half Men (2003) - S08E12 - Chocolate Diddlers or My Puppy's Dead (1080p AMZN WEB-DL x265 RCVR).mkv (509.3 MB)
Two and a Half Men (2003) - S08E13 - Skunk, Dog Crap and Ketchup (1080p AMZN WEB-DL x265 RCVR).mkv (517.0 MB)
Two and a Half Men (2003) - S08E14 - Lookin' for Japanese Subs (1080p AMZN WEB-DL x265 RCVR).mkv (520.0 MB)
Two and a Half Men (2003) - S08E15 - Three Hookers and a Philly Cheesesteak (1080p AMZN WEB-DL x265 RCVR).mkv (524.5 MB)
Two and a Half Men (2003) - S08E16 - That Darn Priest (1080p AMZN WEB-DL x265 RCVR).mkv (484.8 MB)

Mediainfo

General 
Format                                   : Matroska 
Format version                           : Version 4 / Version 2 
File size                                : 524 MiB 
Duration                                 : 21 min 34 s 
Overall bit rate                         : 3 393 kb/s 
Encoded date                             : UTC 2017-11-22 06:41:18 
Writing application                      : mkvmerge v12.0.0 ('Trust / Lust') 64bit 
Writing library                          : libebml v1.3.4 + libmatroska v1.4.5 
Cover                                    : Yes 
Attachments                              : cover.jpg 

Video 
ID                                       : 1 
Format                                   : HEVC 
Format/Info                              : High Efficiency Video Coding 
Format profile                           : Main [email protected]@Main 
Codec ID                                 : V_MPEGH/ISO/HEVC 
Duration                                 : 21 min 34 s 
Bit rate                                 : 2 750 kb/s 
Width                                    : 1 920 pixels 
Height                                   : 1 080 pixels 
Display aspect ratio                     : 16:9 
Frame rate mode                          : Constant 
Frame rate                               : 23.976 (24000/1001) FPS 
Color space                              : YUV 
Chroma subsampling                       : 4:2:0 
Bit depth                                : 10 bits 
Bits/(Pixel*Frame)                       : 0.055 
Stream size                              : 425 MiB (81%) 
Writing library                          : x265 2.5+66-dae558b40d99:[Windows][MSVC 1911][64 bit] 10bit 
Encoding settings                        : cpuid=1173503 / frame-threads=3 / numa-pools=8 / wpp / no-pmode / no-pme / no-psnr / no-ssim / log-level=2 / input-csp=1 / input-res=1920x1080 / interlace=0 / total-frames=31048 / level-idc=0 / high-tier=1 / uhd-bd=0 / ref=4 / no-allow-non-conformance / no-repeat-headers / annexb / no-aud / no-hrd / info / hash=0 / no-temporal-layers / open-gop / min-keyint=23 / keyint=250 / bframes=4 / b-adapt=2 / b-pyramid / bframe-bias=0 / rc-lookahead=120 / lookahead-slices=4 / scenecut=40 / no-intra-refresh / ctu=64 / min-cu-size=8 / rect / no-amp / max-tu-size=32 / tu-inter-depth=1 / tu-intra-depth=1 / limit-tu=0 / rdoq-level=2 / dynamic-rd=0.00 / no-ssim-rd / signhide / no-tskip / nr-intra=0 / nr-inter=0 / no-constrained-intra / no-strong-intra-smoothing / max-merge=3 / limit-refs=3 / limit-modes / me=3 / subme=5 / merange=57 / temporal-mvp / weightp / no-weightb / no-analyze-src-pics / deblock=-1:-1 / no-sao / no-sao-non-deblock / rd=4 / no-early-skip / rskip / no-fast-intra / no-tskip-fast / no-cu-lossless / no-b-intra / no-splitrd-skip / rdpenalty=0 / psy-rd=1.00 / psy-rdoq=1.00 / no-rd-refine / analysis-reuse-mode=0 / no-lossless / cbqpoffs=0 / crqpoffs=0 / rc=abr / bitrate=2750 / qcomp=0.60 / qpstep=4 / stats-write=0 / stats-read=2 / cplxblur=20.0 / qblur=0.5 / ipratio=1.40 / pbratio=1.30 / aq-mode=2 / aq-strength=0.75 / cutree / zone-count=0 / no-strict-cbr / qg-size=32 / no-rc-grain / qpmax=69 / qpmin=0 / no-const-vbv / sar=0 / overscan=0 / videoformat=5 / range=0 / colorprim=2 / transfer=2 / colormatrix=2 / chromaloc=0 / display-window=0 / max-cll=0,0 / min-luma=0 / max-luma=1023 / log2-max-poc-lsb=8 / vui-timing-info / vui-hrd-info / slices=1 / no-opt-qp-pps / no-opt-ref-list-length-pps / no-multi-pass-opt-rps / scenecut-bias=0.05 / no-opt-cu-delta-qp / no-aq-motion / no-hdr / no-hdr-opt / no-dhdr10-opt / analysis-reuse-level=5 / scale-factor=0 / refine-intra=0 / refine-inter=0 / refine-mv=0 / no-limit-sao / ctu-info=0 / no-lowpass-dct / refine-mv-type=0 / copy-pic=1 
Default                                  : Yes 
Forced                                   : No 

Audio 
ID                                       : 2 
Format                                   : E-AC-3 
Format/Info                              : Enhanced Audio Coding 3 
Format settings, Endianness              : Big 
Codec ID                                 : A_EAC3 
Duration                                 : 21 min 34 s 
Bit rate mode                            : Constant 
Bit rate                                 : 640 kb/s 
Channel(s)                               : 6 channels 
Channel positions                        : Front: L C R, Side: L R, LFE 
Sampling rate                            : 48.0 kHz 
Frame rate                               : 187.500 FPS (256 spf) 
Compression mode                         : Lossy 
Stream size                              : 98.8 MiB (19%) 
Language                                 : English 
Default                                  : No 
Forced                                   : No 

Subtitle 
ID                                       : 3 
Format                                   : UTF-8 
Codec ID                                 : S_TEXT/UTF8 
Codec ID/Info                            : UTF-8 Plain Text 
Duration                                 : 21 min 2 s 
Bit rate                                 : 89 b/s 
Count of elements                        : 504 
Stream size                              : 13.8 KiB (0%) 
Language                                 : English 
Default                                  : No 
Forced                                   : No

Screens

Download

Download: Google Drive (8 GB)

Season 9

Two and a Half Men (2003) Season 9 S09 (Mixed AMZN WEB-DL x265 HEVC 10bit EAC3 6.0 RCVR)

Files

Two and a Half Men (2003) - S09E01 - Nice to Meet You, Walden Schmidt (1080p AMZN WEB-DL x265 RCVR).mkv (530.0 MB)
Two and a Half Men (2003) - S09E02 - People Who Love Peepholes (1080p AMZN WEB-DL x265 RCVR).mkv (623.4 MB)
Two and a Half Men (2003) - S09E03 - Big Girls Don't Throw Food (720p AMZN WEB-DL x265 RCVR).mkv (258.2 MB)
Two and a Half Men (2003) - S09E04 - Nine Magic Fingers (1080p AMZN WEB-DL x265 RCVR).mkv (728.5 MB)
Two and a Half Men (2003) - S09E05 - A Giant Cat Holding a Churro (1080p AMZN WEB-DL x265 RCVR).mkv (557.3 MB)
Two and a Half Men (2003) - S09E06 - The Squat and the Hover (1080p AMZN WEB-DL x265 RCVR).mkv (636.4 MB)
Two and a Half Men (2003) - S09E07 - Those Fancy Japanese Toilets (1080p AMZN WEB-DL x265 RCVR).mkv (601.6 MB)
Two and a Half Men (2003) - S09E08 - Thank You for the Intercourse (1080p AMZN WEB-DL x265 RCVR).mkv (551.8 MB)
Two and a Half Men (2003) - S09E09 - Frodo's Headshots (1080p AMZN WEB-DL x265 RCVR).mkv (546.2 MB)
Two and a Half Men (2003) - S09E10 - A Fishbowl Full of Glass Eyes (1080p AMZN WEB-DL x265 RCVR).mkv (556.1 MB)
Two and a Half Men (2003) - S09E11 - What a Lovely Landing Strip (1080p AMZN WEB-DL x265 RCVR).mkv (524.4 MB)
Two and a Half Men (2003) - S09E12 - One False Move, Zimbabwe! (1080p AMZN WEB-DL x265 RCVR).mkv (657.4 MB)
Two and a Half Men (2003) - S09E13 - Slowly and in a Circular Fashion (1080p AMZN WEB-DL x265 RCVR).mkv (481.3 MB)
Two and a Half Men (2003) - S09E14 - A Possum On Chemo (1080p AMZN WEB-DL x265 RCVR).mkv (458.6 MB)
Two and a Half Men (2003) - S09E15 - The Duchess of Dull-in-Sack (1080p AMZN WEB-DL x265 RCVR).mkv (642.4 MB)
Two and a Half Men (2003) - S09E16 - Sips, Sonnets and Sodomy (1080p AMZN WEB-DL x265 RCVR).mkv (487.0 MB)
Two and a Half Men (2003) - S09E17 - Not in My Mouth! (1080p AMZN WEB-DL x265 RCVR).mkv (503.3 MB)
Two and a Half Men (2003) - S09E18 - The War Against Gingivitis (1080p AMZN WEB-DL x265 RCVR).mkv (708.7 MB)
Two and a Half Men (2003) - S09E19 - Palmdale, Ech (1080p AMZN WEB-DL x265 RCVR).mkv (455.0 MB)
Two and a Half Men (2003) - S09E20 - Grandma's Pie (1080p AMZN WEB-DL x265 RCVR).mkv (471.2 MB)
Two and a Half Men (2003) - S09E21 - Mr. Hose Says 'Yes' (1080p AMZN WEB-DL x265 RCVR).mkv (755.0 MB)
Two and a Half Men (2003) - S09E22 - Why We Gave Up Women (1080p AMZN WEB-DL x265 RCVR).mkv (603.8 MB)
Two and a Half Men (2003) - S09E23 - The Straw in My Donut Hole (1080p AMZN WEB-DL x265 RCVR).mkv (591.8 MB)
Two and a Half Men (2003) - S09E24 - Oh Look! Al-Qaeda! (1080p AMZN WEB-DL x265 RCVR).mkv (777.1 MB)

Mediainfo

General 
Format : Matroska 
Format version : Version 4 / Version 2 
File size : 530 MiB 
Duration : 21 min 29 s 
Overall bit rate : 3 448 kb/s 
Encoded date : UTC 2018-03-31 10:15:39 
Writing application : mkvmerge v12.0.0 ('Trust / Lust') 64bit 
Writing library : libebml v1.3.4 + libmatroska v1.4.5 
Cover : Yes 
Attachments : cover.jpg 

Video 
ID : 1 
Format : HEVC 
Format/Info : High Efficiency Video Coding 
Format profile : Main [email protected]@Main 
Codec ID : V_MPEGH/ISO/HEVC 
Duration : 21 min 29 s 
Bit rate : 2 805 kb/s 
Width : 1 920 pixels 
Height : 1 080 pixels 
Display aspect ratio : 16:9 
Frame rate mode : Constant 
Frame rate : 23.976 (24000/1001) FPS 
Color space : YUV 
Chroma subsampling : 4:2:0 
Bit depth : 10 bits 
Bits/(Pixel*Frame) : 0.056 
Stream size : 431 MiB (81%) 
Writing library : x265 2.7+17-2e370d98c806:[Windows][MSVC 1914][64 bit] 10bit 
Encoding settings : cpuid=1173503 / frame-threads=3 / numa-pools=8 / wpp / no-pmode / no-pme / no-psnr / no-ssim / log-level=2 / input-csp=1 / input-res=1920x1080 / interlace=0 / total-frames=30912 / level-idc=0 / high-tier=1 / uhd-bd=0 / ref=4 / no-allow-non-conformance / no-repeat-headers / annexb / no-aud / no-hrd / info / hash=0 / no-temporal-layers / open-gop / min-keyint=23 / keyint=250 / gop-lookahead=0 / bframes=8 / b-adapt=2 / b-pyramid / bframe-bias=0 / rc-lookahead=80 / lookahead-slices=4 / scenecut=40 / radl=0 / no-intra-refresh / ctu=64 / min-cu-size=8 / rect / no-amp / max-tu-size=32 / tu-inter-depth=1 / tu-intra-depth=1 / limit-tu=0 / rdoq-level=1 / dynamic-rd=0.00 / no-ssim-rd / signhide / no-tskip / nr-intra=0 / nr-inter=0 / no-constrained-intra / no-strong-intra-smoothing / max-merge=3 / limit-refs=3 / limit-modes / me=3 / subme=3 / merange=57 / temporal-mvp / weightp / weightb / no-analyze-src-pics / deblock=-1:-1 / sao / no-sao-non-deblock / rd=4 / no-early-skip / no-rskip / no-fast-intra / no-tskip-fast / no-cu-lossless / no-b-intra / no-splitrd-skip / rdpenalty=0 / psy-rd=0.70 / psy-rdoq=1.20 / no-rd-refine / no-lossless / cbqpoffs=0 / crqpoffs=0 / rc=crf / crf=22.5 / qcomp=0.60 / qpstep=4 / stats-write=0 / stats-read=0 / ipratio=1.40 / pbratio=1.30 / aq-mode=2 / aq-strength=1.00 / cutree / zone-count=0 / no-strict-cbr / qg-size=32 / no-rc-grain / qpmax=69 / qpmin=0 / no-const-vbv / sar=0 / overscan=0 / videoformat=5 / range=0 / colorprim=2 / transfer=2 / colormatrix=2 / chromaloc=0 / display-window=0 / max-cll=0,0 / min-luma=0 / max-luma=1023 / log2-max-poc-lsb=8 / vui-timing-info / vui-hrd-info / slices=1 / no-opt-qp-pps / no-opt-ref-list-length-pps / no-multi-pass-opt-rps / scenecut-bias=0.05 / no-opt-cu-delta-qp / no-aq-motion / no-hdr / no-hdr-opt / no-dhdr10-opt / no-idr-recovery-sei / analysis-reuse-level=5 / scale-factor=0 / refine-intra=0 / refine-inter=0 / refine-mv=0 / no-limit-sao / ctu-info=0 / no-lowpass-dct / refine-mv-type=0 / copy-pic=1 / max-ausize-factor=1.0 / no-dynamic-refine 
Default : Yes 
Forced : No 

Audio 
ID : 2 
Format : E-AC-3 
Format/Info : Enhanced Audio Coding 3 
Format settings, Endianness : Big 
Codec ID : A_EAC3 
Duration : 21 min 29 s 
Bit rate mode : Constant 
Bit rate : 640 kb/s 
Channel(s) : 6 channels 
Channel positions : Front: L C R, Side: L R, LFE 
Sampling rate : 48.0 kHz 
Frame rate : 187.500 FPS (256 spf) 
Compression mode : Lossy 
Stream size : 98.4 MiB (19%) 
Language : English 
Default : No 
Forced : No 

Subtitle 
ID : 3 
Format : UTF-8 
Codec ID : S_TEXT/UTF8 
Codec ID/Info : UTF-8 Plain Text 
Duration : 21 min 1 s 
Bit rate : 78 b/s 
Count of elements : 444 
Stream size : 12.1 KiB (0%) 
Language : English 
Default : No 
Forced : No 

Menu 
00:00:00.000 : en:Alan tries to speak highly of Charlie 
00:04:04.000 : en:Opening Credits 
00:04:11.000 : en:The family discusses Charlie's financial affairs 
00:05:55.000 : en:Evelyn begins showing the house 
00:07:19.000 : en:Alan says goodbye to Charlie 
00:10:14.000 : en:Break 
00:10:15.000 : en:Walden asks to borrow the phone 
00:14:12.000 : en:Alan asks Walden what he does 
00:15:37.000 : en:Alan asks about Walden's love life 
00:18:29.000 : en:Alan arrives home with the girls 
00:19:47.000 : en:Walden makes himself at home 
00:21:03.000 : en:End Credits

Screens

Download

Download: Google Drive (13.39 GB)

Season 10

Two and a Half Men (2003) Season 10 S10 (1080p AMZN WEB-DL x265 HEVC 10bit EAC3 6.0 RCVR)

Files

Two and a Half Men (2003) - S10E01 - I Changed My Mind About the Milk (1080p AMZN WEB-DL x265 RCVR).mkv (419.6 MB)
Two and a Half Men (2003) - S10E02 - A Big Bag of Dog (1080p AMZN WEB-DL x265 RCVR).mkv (479.6 MB)
Two and a Half Men (2003) - S10E03 - Four Balls, Two Bats and One Mitt (1080p AMZN WEB-DL x265 RCVR).mkv (500.7 MB)
Two and a Half Men (2003) - S10E04 - You Do Know What the Lollipop Is For (1080p AMZN WEB-DL x265 RCVR).mkv (520.3 MB)
Two and a Half Men (2003) - S10E05 - That's Not What They Call It in Amsterdam (1080p AMZN WEB-DL x265 RCVR).mkv (408.1 MB)
Two and a Half Men (2003) - S10E06 - Ferrets, Attack (1080p AMZN WEB-DL x265 RCVR).mkv (511.6 MB)
Two and a Half Men (2003) - S10E07 - Avoid the Chinese Mustard (1080p AMZN WEB-DL x265 RCVR).mkv (559.0 MB)
Two and a Half Men (2003) - S10E08 - Something My Gynecologist Said (1080p AMZN WEB-DL x265 RCVR).mkv (511.8 MB)
Two and a Half Men (2003) - S10E09 - I Scream When I Pee (1080p AMZN WEB-DL x265 RCVR).mkv (545.4 MB)
Two and a Half Men (2003) - S10E10 - One Nut Johnson (1080p AMZN WEB-DL x265 RCVR).mkv (618.6 MB)
Two and a Half Men (2003) - S10E11 - Give Santa a Tail-Hole (1080p AMZN WEB-DL x265 RCVR).mkv (662.2 MB)
Two and a Half Men (2003) - S10E12 - Welcome to Alancrest (1080p AMZN WEB-DL x265 RCVR).mkv (697.7 MB)
Two and a Half Men (2003) - S10E13 - Grab a Feather and Get in Line (1080p AMZN WEB-DL x265 RCVR).mkv (684.6 MB)
Two and a Half Men (2003) - S10E14 - Run, Steven Staven! Run! (1080p AMZN WEB-DL x265 RCVR).mkv (742.6 MB)
Two and a Half Men (2003) - S10E15 - Paint It, Pierce It or Plug It (1080p AMZN WEB-DL x265 RCVR).mkv (760.2 MB)
Two and a Half Men (2003) - S10E16 - Advantage Fat, Flying Baby (1080p AMZN WEB-DL x265 RCVR).mkv (675.7 MB)
Two and a Half Men (2003) - S10E17 - Throgwarten Middle School Mysteries (1080p AMZN WEB-DL x265 RCVR).mkv (731.0 MB)
Two and a Half Men (2003) - S10E18 - The 904 from Pemberton (1080p AMZN WEB-DL x265 RCVR).mkv (777.2 MB)
Two and a Half Men (2003) - S10E19 - Big Episode. Someone Stole a Spoon (1080p AMZN WEB-DL x265 RCVR).mkv (759.1 MB)
Two and a Half Men (2003) - S10E20 - Bazinga! That's from a TV Show (1080p AMZN WEB-DL x265 RCVR).mkv (642.0 MB)
Two and a Half Men (2003) - S10E21 - Another Night with Neil Diamond (1080p AMZN WEB-DL x265 RCVR).mkv (723.5 MB)
Two and a Half Men (2003) - S10E22 - My Bodacious Vidalia (1080p AMZN WEB-DL x265 RCVR).mkv (802.6 MB)
Two and a Half Men (2003) - S10E23 - Cows, Prepare to be Tipped (1080p AMZN WEB-DL x265 RCVR).mkv (615.2 MB)

Mediainfo

General 
Format : Matroska 
Format version : Version 4 / Version 2 
File size : 420 MiB 
Duration : 21 min 4 s 
Overall bit rate : 2 784 kb/s 
Encoded date : UTC 2018-02-01 23:11:09 
Writing application : mkvmerge v12.0.0 ('Trust / Lust') 64bit 
Writing library : libebml v1.3.4 + libmatroska v1.4.5 
Cover : Yes 
Attachments : cover.jpg 

Video 
ID : 1 
Format : HEVC 
Format/Info : High Efficiency Video Coding 
Format profile : Main [email protected]@Main 
Codec ID : V_MPEGH/ISO/HEVC 
Duration : 21 min 4 s 
Bit rate : 2 141 kb/s 
Width : 1 920 pixels 
Height : 1 080 pixels 
Display aspect ratio : 16:9 
Frame rate mode : Constant 
Frame rate : 23.976 (24000/1001) FPS 
Color space : YUV 
Chroma subsampling : 4:2:0 
Bit depth : 10 bits 
Bits/(Pixel*Frame) : 0.043 
Stream size : 323 MiB (77%) 
Writing library : x265 2.6+32-b763c22920f6:[Windows][MSVC 1900][64 bit] 10bit 
Encoding settings : cpuid=1173503 / frame-threads=3 / numa-pools=8 / wpp / no-pmode / no-pme / no-psnr / no-ssim / log-level=2 / input-csp=1 / input-res=1920x1080 / interlace=0 / total-frames=30317 / level-idc=0 / high-tier=1 / uhd-bd=0 / ref=4 / no-allow-non-conformance / no-repeat-headers / annexb / no-aud / no-hrd / info / hash=0 / no-temporal-layers / open-gop / min-keyint=23 / keyint=250 / gop-lookahead=0 / bframes=8 / b-adapt=2 / b-pyramid / bframe-bias=0 / rc-lookahead=80 / lookahead-slices=4 / scenecut=40 / radl=0 / no-intra-refresh / ctu=64 / min-cu-size=8 / rect / no-amp / max-tu-size=32 / tu-inter-depth=1 / tu-intra-depth=1 / limit-tu=0 / rdoq-level=1 / dynamic-rd=0.00 / no-ssim-rd / signhide / no-tskip / nr-intra=0 / nr-inter=0 / no-constrained-intra / no-strong-intra-smoothing / max-merge=3 / limit-refs=3 / limit-modes / me=3 / subme=5 / merange=57 / temporal-mvp / weightp / weightb / no-analyze-src-pics / deblock=-1:-1 / no-sao / no-sao-non-deblock / rd=4 / no-early-skip / no-rskip / no-fast-intra / no-tskip-fast / no-cu-lossless / no-b-intra / no-splitrd-skip / rdpenalty=0 / psy-rd=0.50 / psy-rdoq=1.00 / no-rd-refine / no-lossless / cbqpoffs=0 / crqpoffs=0 / rc=crf / crf=22.5 / qcomp=0.60 / qpstep=4 / stats-write=0 / stats-read=0 / ipratio=1.40 / pbratio=1.30 / aq-mode=2 / aq-strength=1.00 / cutree / zone-count=0 / no-strict-cbr / qg-size=32 / no-rc-grain / qpmax=69 / qpmin=0 / no-const-vbv / sar=0 / overscan=0 / videoformat=5 / range=0 / colorprim=2 / transfer=2 / colormatrix=2 / chromaloc=0 / display-window=0 / max-cll=0,0 / min-luma=0 / max-luma=1023 / log2-max-poc-lsb=8 / vui-timing-info / vui-hrd-info / slices=1 / no-opt-qp-pps / no-opt-ref-list-length-pps / no-multi-pass-opt-rps / scenecut-bias=0.05 / no-opt-cu-delta-qp / no-aq-motion / no-hdr / no-hdr-opt / no-dhdr10-opt / analysis-reuse-level=5 / scale-factor=0 / refine-intra=0 / refine-inter=0 / refine-mv=0 / no-limit-sao / ctu-info=0 / no-lowpass-dct / refine-mv-type=0 / copy-pic=1 
Default : Yes 
Forced : No 

Audio 
ID : 2 
Format : E-AC-3 
Format/Info : Enhanced Audio Coding 3 
Format settings, Endianness : Big 
Codec ID : A_EAC3 
Duration : 21 min 4 s 
Bit rate mode : Constant 
Bit rate : 640 kb/s 
Channel(s) : 6 channels 
Channel positions : Front: L C R, Side: L R, LFE 
Sampling rate : 48.0 kHz 
Frame rate : 187.500 FPS (256 spf) 
Compression mode : Lossy 
Stream size : 96.5 MiB (23%) 
Language : English 
Default : No 
Forced : No 

Subtitle 
ID : 3 
Format : UTF-8 
Codec ID : S_TEXT/UTF8 
Codec ID/Info : UTF-8 Plain Text 
Duration : 20 min 56 s 
Bit rate : 78 b/s 
Count of elements : 450 
Stream size : 12.1 KiB (0%) 
Language : English 
Default : No 
Forced : No

Screens

Download

Download: Google Drive (14.01 GB)

Season 11

Two and a Half Men (2003) Season 11 S11 (1080p AMZN WEB-DL x265 HEVC 10bit EAC3 6.0 RCVR)

Files

Two and a Half Men (2003) - S11E01 - Nangnangnangnang (1080p WEB-DL x265 RCVR).mkv (779.7 MB)
Two and a Half Men (2003) - S11E02 - I Think I Banged Lucille Ball (1080p WEB-DL x265 RCVR).mkv (698.2 MB)
Two and a Half Men (2003) - S11E03 - This Unblessed Biscuit (1080p WEB-DL x265 RCVR).mkv (792.9 MB)
Two and a Half Men (2003) - S11E04 - Clank, Clank, Drunken Skank (1080p WEB-DL x265 RCVR).mkv (699.1 MB)
Two and a Half Men (2003) - S11E05 - Alan Harper, Pleasing Women Since 2003 (1080p WEB-DL x265 RCVR).mkv (624.4 MB)
Two and a Half Men (2003) - S11E06 - Justice in Star-Spangled Hot Pants (1080p WEB-DL x265 RCVR).mkv (615.1 MB)
Two and a Half Men (2003) - S11E07 - Some Kind of Lesbian Zombie (1080p WEB-DL x265 RCVR).mkv (669.7 MB)
Two and a Half Men (2003) - S11E08 - Mr. Walden, He Die. I Clean Room. (1080p WEB-DL x265 RCVR).mkv (529.0 MB)
Two and a Half Men (2003) - S11E09 - Numero Uno Accidente Lawyer (1080p WEB-DL x265 RCVR).mkv (591.2 MB)
Two and a Half Men (2003) - S11E10 - On Vodka, On Soda, On Blender, On Mixer! (1080p WEB-DL x265 RCVR).mkv (656.9 MB)
Two and a Half Men (2003) - S11E11 - Tazed In the Lady Nuts (1080p WEB-DL x265 RCVR).mkv (592.2 MB)
Two and a Half Men (2003) - S11E12 - Baseball. Boobs. Boobs. Baseball. (1080p WEB-DL x265 RCVR).mkv (524.9 MB)
Two and a Half Men (2003) - S11E13 - Bite Me, Supreme Court (1080p WEB-DL x265 RCVR).mkv (643.7 MB)
Two and a Half Men (2003) - S11E14 - Three Fingers of Creme De Menthe (1080p WEB-DL x265 RCVR).mkv (675.5 MB)
Two and a Half Men (2003) - S11E15 - Cab Fare and a Bottle of Penicillin (1080p WEB-DL x265 RCVR).mkv (596.9 MB)
Two and a Half Men (2003) - S11E16 - How to Get Rid of Alan Harper (1080p WEB-DL x265 RCVR).mkv (589.5 MB)
Two and a Half Men (2003) - S11E17 - Welcome Home, Jake (1080p WEB-DL x265 RCVR).mkv (755.9 MB)
Two and a Half Men (2003) - S11E18 - West Side Story (1080p WEB-DL x265 RCVR).mkv (635.0 MB)
Two and a Half Men (2003) - S11E19 - Lan Mao Shi Zai Wuding Shang (1080p WEB-DL x265 RCVR).mkv (819.6 MB)
Two and a Half Men (2003) - S11E20 - Lotta Delis In Little Armenia (1080p WEB-DL x265 RCVR).mkv (531.5 MB)
Two and a Half Men (2003) - S11E21 - Dial 1-900-Mix-a-Lot (1080p WEB-DL x265 RCVR).mkv (460.5 MB)
Two and a Half Men (2003) - S11E22 - Oh, WALD-E, Good Times Ahead (1080p WEB-DL x265 RCVR).mkv (542.9 MB)

Mediainfo

General 
Format : Matroska 
Format version : Version 4 / Version 2 
File size : 780 MiB 
Duration : 21 min 30 s 
Overall bit rate : 5 067 kb/s 
Encoded date : UTC 2018-01-26 11:25:08 
Writing application : mkvmerge v12.0.0 ('Trust / Lust') 64bit 
Writing library : libebml v1.3.4 + libmatroska v1.4.5 
Cover : Yes 
Attachments : cover.jpg 

Video 
ID : 1 
Format : HEVC 
Format/Info : High Efficiency Video Coding 
Format profile : Main [email protected]@Main 
Codec ID : V_MPEGH/ISO/HEVC 
Duration : 21 min 30 s 
Bit rate : 4 424 kb/s 
Width : 1 920 pixels 
Height : 1 080 pixels 
Display aspect ratio : 16:9 
Frame rate mode : Constant 
Frame rate : 23.976 (24000/1001) FPS 
Color space : YUV 
Chroma subsampling : 4:2:0 
Bit depth : 10 bits 
Bits/(Pixel*Frame) : 0.089 
Stream size : 681 MiB (87%) 
Writing library : x265 2.6+26-b4edf9b44d23:[Windows][MSVC 1900][64 bit] 10bit 
Encoding settings : cpuid=1173503 / frame-threads=3 / numa-pools=8 / wpp / no-pmode / no-pme / no-psnr / no-ssim / log-level=2 / input-csp=1 / input-res=1920x1080 / interlace=0 / total-frames=30946 / level-idc=0 / high-tier=1 / uhd-bd=0 / ref=4 / no-allow-non-conformance / no-repeat-headers / annexb / no-aud / no-hrd / info / hash=0 / no-temporal-layers / open-gop / min-keyint=23 / keyint=250 / gop-lookahead=0 / bframes=8 / b-adapt=2 / b-pyramid / bframe-bias=0 / rc-lookahead=80 / lookahead-slices=4 / scenecut=40 / radl=0 / no-intra-refresh / ctu=64 / min-cu-size=8 / rect / no-amp / max-tu-size=32 / tu-inter-depth=1 / tu-intra-depth=1 / limit-tu=0 / rdoq-level=2 / dynamic-rd=0.00 / no-ssim-rd / signhide / no-tskip / nr-intra=0 / nr-inter=0 / no-constrained-intra / no-strong-intra-smoothing / max-merge=3 / limit-refs=3 / limit-modes / me=3 / subme=3 / merange=57 / temporal-mvp / weightp / weightb / no-analyze-src-pics / deblock=-1:-1 / sao / no-sao-non-deblock / rd=4 / no-early-skip / no-rskip / no-fast-intra / no-tskip-fast / no-cu-lossless / no-b-intra / no-splitrd-skip / rdpenalty=0 / psy-rd=0.50 / psy-rdoq=1.00 / no-rd-refine / no-lossless / cbqpoffs=0 / crqpoffs=0 / rc=crf / crf=22.5 / qcomp=0.60 / qpstep=4 / stats-write=0 / stats-read=0 / ipratio=1.40 / pbratio=1.30 / aq-mode=2 / aq-strength=1.00 / cutree / zone-count=0 / no-strict-cbr / qg-size=32 / no-rc-grain / qpmax=69 / qpmin=0 / no-const-vbv / sar=0 / overscan=0 / videoformat=5 / range=0 / colorprim=2 / transfer=2 / colormatrix=2 / chromaloc=0 / display-window=0 / max-cll=0,0 / min-luma=0 / max-luma=1023 / log2-max-poc-lsb=8 / vui-timing-info / vui-hrd-info / slices=1 / no-opt-qp-pps / no-opt-ref-list-length-pps / no-multi-pass-opt-rps / scenecut-bias=0.05 / no-opt-cu-delta-qp / no-aq-motion / no-hdr / no-hdr-opt / no-dhdr10-opt / analysis-save=(null) / analysis-load=(null) / analysis-reuse-level=5 / scale-factor=0 / refine-intra=0 / refine-inter=0 / refine-mv=0 / no-limit-sao / ctu-info=0 / no-lowpass-dct / refine-mv-type=0 / copy-pic=1 
Default : Yes 
Forced : No 

Audio 
ID : 2 
Format : E-AC-3 
Format/Info : Enhanced Audio Coding 3 
Format settings, Endianness : Big 
Codec ID : A_EAC3 
Duration : 21 min 30 s 
Bit rate mode : Constant 
Bit rate : 640 kb/s 
Channel(s) : 6 channels 
Channel positions : Front: L C R, Side: L R, LFE 
Sampling rate : 48.0 kHz 
Frame rate : 187.500 FPS (256 spf) 
Compression mode : Lossy 
Stream size : 98.5 MiB (13%) 
Language : English 
Default : No 
Forced : No 

Subtitle 
ID : 3 
Format : UTF-8 
Codec ID : S_TEXT/UTF8 
Codec ID/Info : UTF-8 Plain Text 
Duration : 20 min 58 s 
Bit rate : 96 b/s 
Count of elements : 535 
Stream size : 14.9 KiB (0%) 
Language : English 
Default : No 
Forced : No

Screens

Download

Download: Google Drive (13.70 GB)

Season 12

Two and a Half Men (2003) Season 12 S12 (1080p AMZN WEB-DL x265 HEVC 10bit EAC3 6.0 RCVR)

Files

Two and a Half Men (2003) - S12E01 - The Ol' Mexican Spinach (1080p WEB-DL x265 RCVR).mkv (424.0 MB)
Two and a Half Men (2003) - S12E02 - A Chic Bar in Ibiza (1080p WEB-DL x265 RCVR).mkv (477.2 MB)
Two and a Half Men (2003) - S12E03 - Glamping in a Yurt (1080p WEB-DL x265 RCVR).mkv (498.7 MB)
Two and a Half Men (2003) - S12E04 - Thirty-Eight, Sixty-Two, Thirty-Eight (1080p WEB-DL x265 RCVR).mkv (494.7 MB)
Two and a Half Men (2003) - S12E05 - Oontz, Oontz, Oontz (1080p WEB-DL x265 RCVR).mkv (457.2 MB)
Two and a Half Men (2003) - S12E06 - Alan Shot a Little Girl (1080p WEB-DL x265 RCVR).mkv (534.3 MB)
Two and a Half Men (2003) - S12E07 - Sex with an Animated Ed Asner (1080p WEB-DL x265 RCVR).mkv (447.4 MB)
Two and a Half Men (2003) - S12E08 - Family, Bublé, Deep-Fried Turkey (1080p WEB-DL x265 RCVR).mkv (554.8 MB)
Two and a Half Men (2003) - S12E09 - Bouncy, Bouncy, Bouncy, Lyndsey (1080p WEB-DL x265 RCVR).mkv (447.1 MB)
Two and a Half Men (2003) - S12E10 - Here I Come, Pants! (1080p WEB-DL x265 RCVR).mkv (505.1 MB)
Two and a Half Men (2003) - S12E11 - For Whom the Booty Calls (1080p WEB-DL x265 RCVR).mkv (511.2 MB)
Two and a Half Men (2003) - S12E12 - A Beer Battered Rip-Off (1080p WEB-DL x265 RCVR).mkv (506.0 MB)
Two and a Half Men (2003) - S12E13 - Boompa Loved His Hookers (1080p WEB-DL x265 RCVR).mkv (462.0 MB)
Two and a Half Men (2003) - S12E14 - Don’t Give a Monkey a Gun (1080p WEB-DL x265 RCVR).mkv (531.3 MB)
Two and a Half Men (2003) - S12E15 - Of Course He's Dead (1) (1080p WEB-DL x265 RCVR).mkv (396.8 MB)
Two and a Half Men (2003) - S12E16 - Of Course He's Dead (2) (1080p WEB-DL x265 RCVR).mkv (410.3 MB)

Mediainfo

General 
Format : Matroska 
Format version : Version 4 / Version 2 
File size : 424 MiB 
Duration : 21 min 7 s 
Overall bit rate : 2 806 kb/s 
Encoded date : UTC 2018-01-18 08:47:30 
Writing application : mkvmerge v12.0.0 ('Trust / Lust') 64bit 
Writing library : libebml v1.3.4 + libmatroska v1.4.5 
Cover : Yes 
Attachments : cover.jpg 

Video 
ID : 1 
Format : HEVC 
Format/Info : High Efficiency Video Coding 
Format profile : Main [email protected]@Main 
Codec ID : V_MPEGH/ISO/HEVC 
Duration : 21 min 7 s 
Bit rate : 2 163 kb/s 
Width : 1 920 pixels 
Height : 1 080 pixels 
Display aspect ratio : 16:9 
Frame rate mode : Constant 
Frame rate : 23.976 (24000/1001) FPS 
Color space : YUV 
Chroma subsampling : 4:2:0 
Bit depth : 10 bits 
Bits/(Pixel*Frame) : 0.044 
Stream size : 327 MiB (77%) 
Writing library : x265 2.6+26-b4edf9b44d23:[Windows][MSVC 1900][64 bit] 10bit 
Encoding settings : cpuid=1173503 / frame-threads=3 / numa-pools=8 / wpp / no-pmode / no-pme / no-psnr / no-ssim / log-level=2 / input-csp=1 / input-res=1920x1080 / interlace=0 / total-frames=30394 / level-idc=0 / high-tier=1 / uhd-bd=0 / ref=4 / no-allow-non-conformance / no-repeat-headers / annexb / no-aud / no-hrd / info / hash=0 / no-temporal-layers / open-gop / min-keyint=23 / keyint=250 / gop-lookahead=0 / bframes=8 / b-adapt=2 / b-pyramid / bframe-bias=0 / rc-lookahead=80 / lookahead-slices=4 / scenecut=40 / radl=0 / no-intra-refresh / ctu=64 / min-cu-size=8 / rect / no-amp / max-tu-size=32 / tu-inter-depth=1 / tu-intra-depth=1 / limit-tu=0 / rdoq-level=1 / dynamic-rd=0.00 / no-ssim-rd / signhide / no-tskip / nr-intra=0 / nr-inter=0 / no-constrained-intra / no-strong-intra-smoothing / max-merge=3 / limit-refs=3 / limit-modes / me=3 / subme=3 / merange=57 / temporal-mvp / weightp / weightb / no-analyze-src-pics / deblock=-1:-1 / sao / no-sao-non-deblock / rd=4 / no-early-skip / no-rskip / no-fast-intra / no-tskip-fast / no-cu-lossless / no-b-intra / no-splitrd-skip / rdpenalty=0 / psy-rd=0.70 / psy-rdoq=1.20 / no-rd-refine / no-lossless / cbqpoffs=0 / crqpoffs=0 / rc=crf / crf=22.5 / qcomp=0.60 / qpstep=4 / stats-write=0 / stats-read=0 / ipratio=1.40 / pbratio=1.30 / aq-mode=2 / aq-strength=1.00 / cutree / zone-count=0 / no-strict-cbr / qg-size=32 / no-rc-grain / qpmax=69 / qpmin=0 / no-const-vbv / sar=0 / overscan=0 / videoformat=5 / range=0 / colorprim=2 / transfer=2 / colormatrix=2 / chromaloc=0 / display-window=0 / max-cll=0,0 / min-luma=0 / max-luma=1023 / log2-max-poc-lsb=8 / vui-timing-info / vui-hrd-info / slices=1 / no-opt-qp-pps / no-opt-ref-list-length-pps / no-multi-pass-opt-rps / scenecut-bias=0.05 / no-opt-cu-delta-qp / no-aq-motion / no-hdr / no-hdr-opt / no-dhdr10-opt / analysis-save=(null) / analysis-load=(null) / analysis-reuse-level=5 / scale-factor=0 / refine-intra=0 / refine-inter=0 / refine-mv=0 / no-limit-sao / ctu-info=0 / no-lowpass-dct / refine-mv-type=0 / copy-pic=1 
Default : Yes 
Forced : No 

Audio 
ID : 2 
Format : E-AC-3 
Format/Info : Enhanced Audio Coding 3 
Format settings, Endianness : Big 
Codec ID : A_EAC3 
Duration : 21 min 7 s 
Bit rate mode : Constant 
Bit rate : 640 kb/s 
Channel(s) : 6 channels 
Channel positions : Front: L C R, Side: L R, LFE 
Sampling rate : 48.0 kHz 
Frame rate : 187.500 FPS (256 spf) 
Compression mode : Lossy 
Stream size : 96.7 MiB (23%) 
Language : English 
Default : No 
Forced : No 

Subtitle 
ID : 3 
Format : UTF-8 
Codec ID : S_TEXT/UTF8 
Codec ID/Info : UTF-8 Plain Text 
Duration : 20 min 32 s 
Bit rate : 111 b/s 
Count of elements : 530 
Stream size : 16.7 KiB (0%) 
Language : English 
Default : No 
Forced : No

Screens

Download

Download: Google Drive (7.48 GB)

16 thoughts on “Two and a Half Men (2003) Season 1-12 (1080p AMZN WEB-DL x265 HEVC 10bit EAC3 2.0 RCVR)

  1. Please, can you upload the chapters with the Spanish language of Spain (Not Latin)? Here this series is very popular and dear. Thank you!

    1. It’s only 400-500 MB/episode though. Almost all the releases are best quality ones for their sizes.
      If you’re looking for smaller sizes, than unfortunately you won’t find what you’re looking for here.

        1. Manish, perhaps downloading movies in 3GP is more your forte? you can download those from websites that are riddled with ads

Leave a Reply