Titans (2018) Season 1-2 (1080p BluRay x265 HEVC 10bit AAC 5.1 Vyndros)

Summary: Titans follows young heroes from across the DC Universe as they come of age and find belonging in a gritty take on the classic Teen Titans franchise. Dick Grayson and Rachel Roth, a special young girl possessed by a strange darkness, get embroiled in a conspiracy that could bring Hell on Earth. Joining them along the way are the hot-headed Starfire and loveable Beast Boy. Together they become a surrogate family and team of heroes.

Season 1

Titans (2018) Season 1 S01 (1080p BluRay x265 HEVC 10bit AAC 5.1 Vyndros)

Files

  • Titans.S01E01.Titans.1080p.10bit.BluRay.AAC5.1.HEVC-Vyndros.mkv (860.2 MB)
  • Titans.S01E02.Hawk.and.Dove.1080p.10bit.BluRay.AAC5.1.HEVC-Vyndros.mkv (753.7 MB)
  • Titans.S01E03.Origins.1080p.10bit.BluRay.AAC5.1.HEVC-Vyndros.mkv (1.0 GB)
  • Titans.S01E04.Doom.Patrol.1080p.10bit.BluRay.AAC5.1.HEVC-Vyndros.mkv (738.0 MB)
  • Titans.S01E05.Together.1080p.10bit.BluRay.AAC5.1.HEVC-Vyndros.mkv (655.0 MB)
  • Titans.S01E06.Jason.Todd.1080p.10bit.BluRay.AAC5.1.HEVC-Vyndros.mkv (731.7 MB)
  • Titans.S01E07.Asylum.1080p.10bit.BluRay.AAC5.1.HEVC-Vyndros.mkv (676.4 MB)
  • Titans.S01E08.Donna.Troy.1080p.10bit.BluRay.AAC5.1.HEVC-Vyndros.mkv (673.6 MB)
  • Titans.S01E09.Hank.and.Dawn.1080p.10bit.BluRay.AAC5.1.HEVC-Vyndros.mkv (761.3 MB)
  • Titans.S01E10.Koriand’r.1080p.10bit.BluRay.AAC5.1.HEVC-Vyndros.mkv (759.6 MB)
  • Titans.S01E11.Dick.Grayson.1080p.10bit.BluRay.AAC5.1.HEVC-Vyndros.mkv (750.2 MB)

Mediainfo

General
Format : Matroska
Format version : Version 4 / Version 2
File size : 761 MiB
Duration : 46 min 33 s
Overall bit rate : 2 286 kb/s
Movie name : Titans (2018) - S01E09 - Hank and Dawn
Encoded date : UTC 2019-07-18 14:13:47
Writing application : mkvmerge v20.0.0 ('I Am The Sun') 64-bit
Writing library : libebml v1.3.5 + libmatroska v1.4.8
Writing frontend : StaxRip v1.7.0.6

Video
ID : 1
Format : HEVC
Format/Info : High Efficiency Video Coding
Format profile : Main [email protected]@Main
Codec ID : V_MPEGH/ISO/HEVC
Duration : 46 min 33 s
Bit rate : 1 822 kb/s
Width : 1 920 pixels
Height : 960 pixels
Display aspect ratio : 2.000
Frame rate mode : Constant
Frame rate : 23.976 (24000/1001) FPS
Color space : YUV
Chroma subsampling : 4:2:0
Bit depth : 10 bits
Bits/(Pixel*Frame) : 0.041
Stream size : 607 MiB (80%)
Writing library : x265 3.1+5-9c5c9cef2a86:[Windows][MSVC 1921][64 bit] 10bit
Encoding settings : cpuid=1111039 / frame-threads=2 / numa-pools=4 / wpp / no-pmode / no-pme / no-psnr / ssim / log-level=2 / input-csp=1 / input-res=1920x960 / interlace=0 / total-frames=66975 / level-idc=0 / high-tier=1 / uhd-bd=0 / ref=3 / no-allow-non-conformance / no-repeat-headers / annexb / no-aud / no-hrd / info / hash=0 / no-temporal-layers / open-gop / min-keyint=23 / keyint=250 / gop-lookahead=0 / bframes=8 / b-adapt=2 / b-pyramid / bframe-bias=0 / rc-lookahead=80 / lookahead-slices=6 / scenecut=40 / radl=0 / no-splice / no-intra-refresh / ctu=64 / min-cu-size=8 / no-rect / no-amp / max-tu-size=32 / tu-inter-depth=1 / tu-intra-depth=1 / limit-tu=0 / rdoq-level=0 / dynamic-rd=0.00 / no-ssim-rd / signhide / no-tskip / nr-intra=0 / nr-inter=0 / no-constrained-intra / no-strong-intra-smoothing / max-merge=3 / limit-refs=1 / no-limit-modes / me=3 / subme=5 / merange=57 / temporal-mvp / weightp / no-weightb / no-analyze-src-pics / deblock=0:0 / sao / no-sao-non-deblock / rd=3 / early-skip / no-rskip / no-fast-intra / no-tskip-fast / no-cu-lossless / b-intra / no-splitrd-skip / rdpenalty=0 / psy-rd=2.00 / psy-rdoq=0.00 / no-rd-refine / no-lossless / cbqpoffs=0 / crqpoffs=0 / rc=crf / crf=20.0 / qcomp=0.60 / qpstep=4 / stats-write=0 / stats-read=0 / ipratio=1.40 / pbratio=1.30 / aq-mode=3 / aq-strength=1.00 / cutree / zone-count=0 / no-strict-cbr / qg-size=32 / no-rc-grain / qpmax=69 / qpmin=0 / no-const-vbv / sar=0 / overscan=0 / videoformat=5 / range=0 / colorprim=2 / transfer=2 / colormatrix=2 / chromaloc=0 / display-window=0cll=0,0 / min-luma=0 / max-luma=1023 / log2-max-poc-lsb=8 / vui-timing-info / vui-hrd-info / slices=1 / no-opt-qp-pps / no-opt-ref-list-length-pps / no-multi-pass-opt-rps / scenecut-bias=0.05 / no-opt-cu-delta-qp / no-aq-motion / no-hdr / no-hdr-opt / no-dhdr10-opt / no-idr-recovery-sei / analysis-reuse-level=5 / scale-factor=0 / refine-intra=0 / refine-inter=0 / refine-mv=0 / refine-ctu-distortion=0 / no-limit-sao / ctu-info=0 / no-lowpass-dct / refine-analysis-type=0 / copy-pic=1 / max-ausize-factor=1.0 / no-dynamic-refine / no-single-sei / no-hevc-aq / no-svt / no-field / qp-adaptation-range=1.00
Default : Yes
Forced : No

Audio
ID : 2
Format : AAC
Format/Info : Advanced Audio Codec
Format profile : LC
Codec ID : A_AAC
Duration : 46 min 33 s
Bit rate : 448 kb/s
Channel(s) : 6 channels
Channel positions : Front: L C R, Side: L R, LFE
Sampling rate : 48.0 kHz
Frame rate : 46.875 FPS (1024 spf)
Compression mode : Lossy
Stream size : 149 MiB (20%)
Language : English
Default : Yes
Forced : No

Subtitle
ID : 3
Format : PGS
Muxing mode : zlib
Codec ID : S_HDMV/PGS
Codec ID/Info : Picture based subtitle format used on BDs/HD-DVDs
Duration : 44 min 34 s
Bit rate : 27.5 kb/s
Count of elements : 1176
Stream size : 8.77 MiB (1%)
Language : English
Default : No
Forced : No

Screens

Download

Download: Google Drive

Season 2

Titans (2018) Season 2 S02 (1080p BluRay x265 HEVC 10bit AAC 5.1 Vyndros)

Files

  • Titans.S02E01.Trigon.1080p.10bit.BluRay.AAC5.1.HEVC-Vyndros.mkv (1,003.7 MB)
  • Titans.S02E01.Trigon.1080p.10bit.BluRay.AAC5.1.HEVC-Vyndros.srt (53.1 KB)
  • Titans.S02E02.Rose.1080p.10bit.BluRay.AAC5.1.HEVC-Vyndros.mkv (706.6 MB)
  • Titans.S02E02.Rose.1080p.10bit.BluRay.AAC5.1.HEVC-Vyndros.srt (47.1 KB)
  • Titans.S02E03.Ghosts.1080p.10bit.BluRay.AAC5.1.HEVC-Vyndros.mkv (718.1 MB)
  • Titans.S02E03.Ghosts.1080p.10bit.BluRay.AAC5.1.HEVC-Vyndros.srt (58.3 KB)
  • Titans.S02E04.Aqualad.1080p.10bit.BluRay.AAC5.1.HEVC-Vyndros.mkv (741.5 MB)
  • Titans.S02E04.Aqualad.1080p.10bit.BluRay.AAC5.1.HEVC-Vyndros.srt (40.7 KB)
  • Titans.S02E05.Deathstroke.1080p.10bit.BluRay.AAC5.1.HEVC-Vyndros.mkv (615.2 MB)
  • Titans.S02E05.Deathstroke.1080p.10bit.BluRay.AAC5.1.HEVC-Vyndros.srt (50.4 KB)
  • Titans.S02E06.Conner.1080p.10bit.BluRay.AAC5.1.HEVC-Vyndros.mkv (688.6 MB)
  • Titans.S02E06.Conner.1080p.10bit.BluRay.AAC5.1.HEVC-Vyndros.srt (43.8 KB)
  • Titans.S02E07.Bruce.Wayne.1080p.10bit.BluRay.AAC5.1.HEVC-Vyndros.mkv (616.8 MB)
  • Titans.S02E07.Bruce.Wayne.1080p.10bit.BluRay.AAC5.1.HEVC-Vyndros.srt (47.5 KB)
  • Titans.S02E08.Jericho.1080p.10bit.BluRay.AAC5.1.HEVC-Vyndros.mkv (829.5 MB)
  • Titans.S02E08.Jericho.1080p.10bit.BluRay.AAC5.1.HEVC-Vyndros.srt (39.8 KB)
  • Titans.S02E09.Atonement.1080p.10bit.BluRay.AAC5.1.HEVC-Vyndros.mkv (823.5 MB)
  • Titans.S02E09.Atonement.1080p.10bit.BluRay.AAC5.1.HEVC-Vyndros.srt (47.9 KB)
  • Titans.S02E10.Fallen.1080p.10bit.BluRay.AAC5.1.HEVC-Vyndros.mkv (781.8 MB)
  • Titans.S02E10.Fallen.1080p.10bit.BluRay.AAC5.1.HEVC-Vyndros.srt (39.3 KB)
  • Titans.S02E11.E.L.O.1080p.10bit.BluRay.AAC5.1.HEVC-Vyndros.mkv (843.0 MB)
  • Titans.S02E11.E.L.O.1080p.10bit.BluRay.AAC5.1.HEVC-Vyndros.srt (48.0 KB)
  • Titans.S02E12.Faux-Hawk.1080p.10bit.BluRay.AAC5.1.HEVC-Vyndros.mkv (872.9 MB)
  • Titans.S02E12.Faux-Hawk.1080p.10bit.BluRay.AAC5.1.HEVC-Vyndros.srt (57.8 KB)
  • Titans.S02E13.Nightwing.1080p.10bit.BluRay.AAC5.1.HEVC-Vyndros.mkv (996.0 MB)
  • Titans.S02E13.Nightwing.1080p.10bit.BluRay.AAC5.1.HEVC-Vyndros.srt (43.8 KB)

Mediainfo

General
Format : Matroska
Format version : Version 4 / Version 2
File size : 830 MiB
Duration : 48 min 37 s
Overall bit rate : 2 385 kb/s
Movie name : Titans (2018) - S02E08 - Jericho
Encoded date : UTC 2020-04-14 09:03:04
Writing application : mkvmerge v20.0.0 ('I Am The Sun') 64-bit
Writing library : libebml v1.3.5 + libmatroska v1.4.8
Writing frontend : StaxRip v1.7.0.6

Video
ID : 1
Format : HEVC
Format/Info : High Efficiency Video Coding
Format profile : Main [email protected]@Main
Codec ID : V_MPEGH/ISO/HEVC
Duration : 48 min 37 s
Bit rate : 1 953 kb/s
Width : 1 920 pixels
Height : 872 pixels
Display aspect ratio : 2.2:1
Frame rate mode : Constant
Frame rate : 23.976 (24000/1001) FPS
Color space : YUV
Chroma subsampling : 4:2:0
Bit depth : 10 bits
Bits/(Pixel*Frame) : 0.049
Stream size : 679 MiB (82%)
Writing library : x265 3.3+1-g554c887ac:[Windows][MSVC 1924][64 bit] 10bit
Encoding settings : cpuid=1111039 / frame-threads=3 / numa-pools=12 / wpp / no-pmode / no-pme / no-psnr / ssim / log-level=2 / input-csp=1 / input-res=1920x872 / interlace=0 / total-frames=69942 / level-idc=0 / high-tier=1 / uhd-bd=0 / ref=3 / no-allow-non-conformance / no-repeat-headers / annexb / no-aud / no-hrd / info / hash=0 / no-temporal-layers / open-gop / min-keyint=23 / keyint=250 / gop-lookahead=0 / bframes=8 / b-adapt=2 / b-pyramid / bframe-bias=0 / rc-lookahead=80 / lookahead-slices=5 / scenecut=40 / hist-scenecut=0 / radl=0 / no-splice / no-intra-refresh / ctu=64 / min-cu-size=8 / no-rect / no-amp / max-tu-size=32 / tu-inter-depth=1 / tu-intra-depth=1 / limit-tu=0 / rdoq-level=0 / dynamic-rd=0.00 / no-ssim-rd / signhide / no-tskip / nr-intra=0 / nr-inter=0 / no-constrained-intra / no-strong-intra-smoothing / max-merge=3 / limit-refs=1 / no-limit-modes / me=3 / subme=5 / merange=57 / temporal-mvp / no-frame-dup / no-hme / weightp / no-weightb / no-analyze-src-pics / deblock=0:0 / sao / no-sao-non-deblock / rd=3 / selective-sao=4 / early-skip / no-rskip / no-fast-intra / no-tskip-fast / no-cu-lossless / b-intra / no-splitrd-skip / rdpenalty=0 / psy-rd=2.00 / psy-rdoq=0.00 / no-rd-refine / no-lossless / cbqpoffs=0 / crqpoffs=0 / rc=crf / crf=19.0 / qcomp=0.60 / qpstep=4 / stats-write=0 / stats-read=0 / ipratio=1.40 / pbratio=1.30 / aq-mode=3 / aq-strength=1.00 / cutree / zone-count=0 / no-strict-cbr / qg-size=32 / no-rc-grain / qpmax=69 / qpmin=0 / no-const-vbv / sar=0 / overscan=0 / videoformat=5 / range=0 / colorprim=2 / transfer=2 / colormatrix=2 / chromaloc=0 / display-window=0 / cll=0,0 / min-luma=0 / max-luma=1023 / log2-max-poc-lsb=8 / vui-timing-info / vui-hrd-info / slices=1 / no-opt-qp-pps / no-opt-ref-list-length-pps / no-multi-pass-opt-rps / scenecut-bias=0.05 / hist-threshold=0.01 / no-opt-cu-delta-qp / no-aq-motion / no-hdr10 / no-hdr10-opt / no-dhdr10-opt / no-idr-recovery-sei / analysis-reuse-level=0 / analysis-save-reuse-level=0 / analysis-load-reuse-level=0 / scale-factor=0 / refine-intra=0 / refine-inter=0 / refine-mv=1 / refine-ctu-distortion=0 / no-limit-sao / ctu-info=0 / no-lowpass-dct / refine-analysis-type=0 / copy-pic=1 / max-ausize-factor=1.0 / no-dynamic-refine / no-single-sei / no-hevc-aq / no-svt / no-field / qp-adaptation-range=1.00 / no-scenecut-aware-qpconformance-window-offsets / right=0 / bottom=0
Default : Yes
Forced : No

Audio
ID : 2
Format : AAC
Format/Info : Advanced Audio Codec
Format profile : LC
Codec ID : A_AAC
Duration : 48 min 37 s
Bit rate : 416 kb/s
Channel(s) : 6 channels
Channel positions : Front: L C R, Side: L R, LFE
Sampling rate : 48.0 kHz
Frame rate : 46.875 FPS (1024 spf)
Compression mode : Lossy
Delay relative to video : 20 ms
Stream size : 145 MiB (17%)
Language : English
Default : Yes
Forced : Yes

Subtitle
ID : 3
Format : PGS
Muxing mode : zlib
Codec ID : S_HDMV/PGS
Codec ID/Info : Picture based subtitle format used on BDs/HD-DVDs
Duration : 46 min 58 s
Bit rate : 26.1 kb/s
Count of elements : 1218
Stream size : 8.79 MiB (1%)
Language : English
Default : No
Forced : No

Screens

Download

Download: Google Drive

1 thought on “Titans (2018) Season 1-2 (1080p BluRay x265 HEVC 10bit AAC 5.1 Vyndros)

Leave a Reply