The Vampire Diaries (2009) Season 1-8 (1080p BluRay x265 HEVC 10bit AAC 5.1 Vyndros)

Plot: Elena Gilbert is immediately drawn to Stefan Salvatore, the new student at her high school. Little does she know, the attraction leads her and her friends into the supernatural world surrounding their quiet town, Mystic Falls, as they become entangled in the lives of Stefan and his brother, Damon — both of whom happen to be vampires.

Season 1

The Vampire Diaries (2009) Season 1 S01 (1080p BluRay x265 HEVC 10bit AAC 5.1 Vyndros)

Files

The Vampire Diaries (2009) Season 1 S01 (1080p BluRay x265 HEVC 10bit AAC 5.1 Vyndros)

  • The.Vampire.Diaries.S01E01.Pilot.1080p.10bit.BluRay.AAC5.1.HEVC-Vyndros.mkv (984.6 MB)
  • The.Vampire.Diaries.S01E02.The.Night.of.the.Comet.1080p.10bit.BluRay.AAC5.1.HEVC-Vyndros.mkv (790.6 MB)
  • The.Vampire.Diaries.S01E03.Friday.Night.Bites.1080p.10bit.BluRay.AAC5.1.HEVC-Vyndros.mkv (930.9 MB)
  • The.Vampire.Diaries.S01E04.Family.Ties.1080p.10bit.BluRay.AAC5.1.HEVC-Vyndros.mkv (887.5 MB)
  • The.Vampire.Diaries.S01E05.You’re.Undead.to.Me.1080p.10bit.BluRay.AAC5.1.HEVC-Vyndros.mkv (911.5 MB)
  • The.Vampire.Diaries.S01E06.Lost.Girls.1080p.10bit.BluRay.AAC5.1.HEVC-Vyndros.mkv (873.2 MB)
  • The.Vampire.Diaries.S01E07.Haunted.1080p.10bit.BluRay.AAC5.1.HEVC-Vyndros.mkv (853.7 MB)
  • The.Vampire.Diaries.S01E08.162.Candles.1080p.10bit.BluRay.AAC5.1.HEVC-Vyndros.mkv (780.0 MB)
  • The.Vampire.Diaries.S01E09.History.Repeating.1080p.10bit.BluRay.AAC5.1.HEVC-Vyndros.mkv (811.2 MB)
  • The.Vampire.Diaries.S01E10.The.Turning.Point.1080p.10bit.BluRay.AAC5.1.HEVC-Vyndros.mkv (684.9 MB)
  • The.Vampire.Diaries.S01E11.Bloodlines.1080p.10bit.BluRay.AAC5.1.HEVC-Vyndros.mkv (780.4 MB)
  • The.Vampire.Diaries.S01E12.Unpleasantville.1080p.10bit.BluRay.AAC5.1.HEVC-Vyndros.mkv (827.6 MB)
  • The.Vampire.Diaries.S01E13.Children.of.the.Damned.1080p.10bit.BluRay.AAC5.1.HEVC-Vyndros.mkv (706.9 MB)
  • The.Vampire.Diaries.S01E14.Fool.Me.Once.1080p.10bit.BluRay.AAC5.1.HEVC-Vyndros.mkv (640.6 MB)
  • The.Vampire.Diaries.S01E15.A.Few.Good.Men.1080p.10bit.BluRay.AAC5.1.HEVC-Vyndros.mkv (790.0 MB)
  • The.Vampire.Diaries.S01E16.There.Goes.the.Neighborhood.1080p.10bit.BluRay.AAC5.1.HEVC-Vyndros.mkv (813.4 MB)
  • The.Vampire.Diaries.S01E17.Let.the.Right.One.In.1080p.10bit.BluRay.AAC5.1.HEVC-Vyndros.mkv (775.5 MB)
  • The.Vampire.Diaries.S01E18.Under.Control.1080p.10bit.BluRay.AAC5.1.HEVC-Vyndros.mkv (678.9 MB)
  • The.Vampire.Diaries.S01E19.Miss.Mystic.Falls.1080p.10bit.BluRay.AAC5.1.HEVC-Vyndros.mkv (831.4 MB)
  • The.Vampire.Diaries.S01E20.Blood.Brothers.1080p.10bit.BluRay.AAC5.1.HEVC-Vyndros.mkv (623.7 MB)
  • The.Vampire.Diaries.S01E21.Isobel.1080p.10bit.BluRay.AAC5.1.HEVC-Vyndros.mkv (720.1 MB)
  • The.Vampire.Diaries.S01E22.Founder’s.Day.1080p.10bit.BluRay.AAC5.1.HEVC-Vyndros.mkv (890.2 MB)

Mediainfo

General
Format : Matroska
Format version : Version 4 / Version 2
File size : 720 MiB
Duration : 42 min 26 s
Overall bit rate : 2 372 kb/s
Movie name : The Vampire Diaries S01E21 1080p Blu-ray Remux VC-1 DD 5.1 - DTHD
Encoded date : UTC 2018-11-18 05:11:03
Writing application : mkvmerge v20.0.0 ('I Am The Sun') 64-bit
Writing library : libebml v1.3.5 + libmatroska v1.4.8
Writing frontend : StaxRip v1.7.0.6

Video
ID : 1
Format : HEVC
Format/Info : High Efficiency Video Coding
Format profile : Main @Main
Codec ID : V_MPEGH/ISO/HEVC
Duration : 42 min 26 s
Bit rate : 1 903 kb/s
Width : 1 920 pixels
Height : 1 080 pixels
Display aspect ratio : 16:9
Frame rate mode : Constant
Frame rate : 23.976 (24000/1001) FPS
Color space : YUV
Chroma subsampling : 4:2:0
Bit depth : 10 bits
Bits/(Pixel*Frame) : 0.038
Stream size : 578 MiB (80%)
Writing library : x265 2.9+1-169e76b6bbcc:[Windows][GCC 8.2.0][64 bit] 10bit
Encoding settings : cpuid=1111039 / frame-threads=2 / numa-pools=4 / wpp / no-pmode / no-pme / no-psnr / ssim / log-level=2 / input-csp=1 / input-res=1920x1080 / interlace=0 / total-frames=61065 / level-idc=0 / high-tier=1 / uhd-bd=0 / ref=3 / no-allow-non-conformance / no-repeat-headers / annexb / no-aud / no-hrd / info / hash=0 / no-temporal-layers / open-gop / min-keyint=23 / keyint=250 / gop-lookahead=0 / bframes=8 / b-adapt=2 / b-pyramid / bframe-bias=0 / rc-lookahead=50 / lookahead-slices=6 / scenecut=40 / radl=0 / no-intra-refresh / ctu=64 / min-cu-size=8 / no-rect / no-amp / max-tu-size=32 / tu-inter-depth=1 / tu-intra-depth=1 / limit-tu=0 / rdoq-level=0 / dynamic-rd=0.00 / no-ssim-rd / signhide / no-tskip / nr-intra=0 / nr-inter=0 / no-constrained-intra / no-strong-intra-smoothing / max-merge=3 / limit-refs=3 / no-limit-modes / me=3 / subme=5 / merange=57 / temporal-mvp / weightp / no-weightb / no-analyze-src-pics / deblock=0:0 / sao / no-sao-non-deblock / rd=3 / no-early-skip / no-rskip / no-fast-intra / no-tskip-fast / no-cu-lossless / no-b-intra / no-splitrd-skip / rdpenalty=0 / psy-rd=2.00 / psy-rdoq=0.00 / no-rd-refine / no-lossless / cbqpoffs=0 / crqpoffs=0 / rc=crf / crf=20.0 / qcomp=0.60 / qpstep=4 / stats-write=0 / stats-read=0 / ipratio=1.40 / pbratio=1.30 / aq-mode=3 / aq-strength=1.00 / cutree / zone-count=0 / no-strict-cbr / qg-size=32 / no-rc-grain / qpmax=69 / qpmin=0 / no-const-vbv / sar=0 / overscan=0 / videoformat=5 / range=0 / colorprim=2 / transfer=2 / colormatrix=2 / chromaloc=0 / display-window=0 / max-cll=0,0 / min-luma=0 / max-luma=1023 / log2-max-poc-lsb=8 / vui-timing-info / vui-hrd-info / slices=1 / no-opt-qp-pps / no-opt-ref-list-length-pps / no-multi-pass-opt-rps / scenecut-bias=0.05 / no-opt-cu-delta-qp / no-aq-motion / no-hdr / no-hdr-opt / no-dhdr10-opt / no-idr-recovery-sei / analysis-reuse-level=5 / scale-factor=0 / refine-intra=0 / refine-inter=0 / refine-mv=0 / no-limit-sao / ctu-info=0 / no-lowpass-dct / refine-mv-type=0 / copy-pic=1 / max-ausize-factor=1.0 / no-dynamic-refine / no-single-sei
Default : Yes
Forced : No

Audio
ID : 2
Format : AAC
Format/Info : Advanced Audio Codec
Format profile : LC
Codec ID : A_AAC
Duration : 42 min 26 s
Bit rate : 449 kb/s
Channel(s) : 6 channels
Channel positions : Front: L C R, Side: L R, LFE
Sampling rate : 48.0 kHz
Frame rate : 46.875 FPS (1024 spf)
Compression mode : Lossy
Stream size : 136 MiB (19%)
Language : English
Default : Yes
Forced : No

Subtitle
ID : 3
Format : PGS
Muxing mode : zlib
Codec ID : S_HDMV/PGS
Codec ID/Info : Picture based subtitle format used on BDs/HD-DVDs
Duration : 42 min 23 s
Bit rate : 39.5 kb/s
Count of elements : 1240
Stream size : 12.0 MiB (2%)
Language : English
Default : No
Forced : No

Download

Season: Google Drive (17.17 GB)

Season 2

The Vampire Diaries (2009) Season 2 S02 (1080p BluRay x265 HEVC 10bit AAC 5.1 Vyndros)

Files

The Vampire Diaries (2009) Season 2 S02 (1080p BluRay x265 HEVC 10bit AAC 5.1 Vyndros)

  • The.Vampire.Diaries.S02E01.The.Return.1080p.10bit.BluRay.AAC5.1.HEVC-Vyndros.mkv (883.4 MB)
  • The.Vampire.Diaries.S02E02.Brave.New.World.1080p.10bit.BluRay.AAC5.1.HEVC-Vyndros.mkv (1.1 GB)
  • The.Vampire.Diaries.S02E03.Bad.Moon.Rising.1080p.10bit.BluRay.AAC5.1.HEVC-Vyndros.mkv (844.3 MB)
  • The.Vampire.Diaries.S02E04.Memory.Lane.1080p.10bit.BluRay.AAC5.1.HEVC-Vyndros.mkv (731.7 MB)
  • The.Vampire.Diaries.S02E05.Kill.or.Be.Killed.1080p.10bit.BluRay.AAC5.1.HEVC-Vyndros.mkv (897.7 MB)
  • The.Vampire.Diaries.S02E06.Plan.B.1080p.10bit.BluRay.AAC5.1.HEVC-Vyndros.mkv (1.0 GB)
  • The.Vampire.Diaries.S02E07.Masquerade.1080p.10bit.BluRay.AAC5.1.HEVC-Vyndros.mkv (851.5 MB)
  • The.Vampire.Diaries.S02E08.Rose.1080p.10bit.BluRay.AAC5.1.HEVC-Vyndros.mkv (776.4 MB)
  • The.Vampire.Diaries.S02E09.Katerina.1080p.10bit.BluRay.AAC5.1.HEVC-Vyndros.mkv (780.8 MB)
  • The.Vampire.Diaries.S02E10.The.Sacrifice.1080p.10bit.BluRay.AAC5.1.HEVC-Vyndros.mkv (780.7 MB)
  • The.Vampire.Diaries.S02E11.By.the.Light.of.the.Moon.1080p.10bit.BluRay.AAC5.1.HEVC-Vyndros.mkv (697.3 MB)
  • The.Vampire.Diaries.S02E12.The.Descent.1080p.10bit.BluRay.AAC5.1.HEVC-Vyndros.mkv (836.0 MB)
  • The.Vampire.Diaries.S02E13.Daddy.Issues.1080p.10bit.BluRay.AAC5.1.HEVC-Vyndros.mkv (802.3 MB)
  • The.Vampire.Diaries.S02E14.Crying.Wolf.1080p.10bit.BluRay.AAC5.1.HEVC-Vyndros.mkv (823.2 MB)
  • The.Vampire.Diaries.S02E15.The.Dinner.Party.1080p.10bit.BluRay.AAC5.1.HEVC-Vyndros.mkv (759.3 MB)
  • The.Vampire.Diaries.S02E16.The.House.Guest.1080p.10bit.BluRay.AAC5.1.HEVC-Vyndros.mkv (791.3 MB)
  • The.Vampire.Diaries.S02E17.Know.Thy.Enemy.1080p.10bit.BluRay.AAC5.1.HEVC-Vyndros.mkv (966.9 MB)
  • The.Vampire.Diaries.S02E18.The.Last.Dance.1080p.10bit.BluRay.AAC5.1.HEVC-Vyndros.mkv (978.9 MB)
  • The.Vampire.Diaries.S02E19.Klaus.1080p.10bit.BluRay.AAC5.1.HEVC-Vyndros.mkv (765.4 MB)
  • The.Vampire.Diaries.S02E20.The.Last.Day.1080p.10bit.BluRay.AAC5.1.HEVC-Vyndros.mkv (872.8 MB)
  • The.Vampire.Diaries.S02E21.The.Sun.Also.Rises.1080p.10bit.BluRay.AAC5.1.HEVC-Vyndros.mkv (829.7 MB)
  • The.Vampire.Diaries.S02E22.As.I.Lay.Dying.1080p.10bit.BluRay.AAC5.1.HEVC-Vyndros.mkv (774.2 MB)

Mediainfo

General
Format : Matroska
Format version : Version 4 / Version 2
File size : 967 MiB
Duration : 42 min 20 s
Overall bit rate : 3 193 kb/s
Movie name : The Vampire Diaries S02E17 1080p Blu-ray Remux AVC DTS-HD MA 5.1 - DTHD
Encoded date : UTC 2018-11-29 16:19:41
Writing application : mkvmerge v20.0.0 ('I Am The Sun') 64-bit
Writing library : libebml v1.3.5 + libmatroska v1.4.8
Writing frontend : StaxRip v1.7.0.6

Video
ID : 1
Format : HEVC
Format/Info : High Efficiency Video Coding
Format profile : Main @Main
Codec ID : V_MPEGH/ISO/HEVC
Duration : 42 min 19 s
Bit rate : 2 728 kb/s
Width : 1 920 pixels
Height : 1 080 pixels
Display aspect ratio : 16:9
Frame rate mode : Constant
Frame rate : 23.976 (24000/1001) FPS
Color space : YUV
Chroma subsampling : 4:2:0
Bit depth : 10 bits
Bits/(Pixel*Frame) : 0.055
Stream size : 826 MiB (85%)
Writing library : x265 2.9+4-471726d3a046:[Windows][GCC 8.2.0][64 bit] 10bit
Encoding settings : cpuid=1111039 / frame-threads=2 / numa-pools=4 / wpp / no-pmode / no-pme / no-psnr / ssim / log-level=2 / input-csp=1 / input-res=1920x1080 / interlace=0 / total-frames=60890 / level-idc=0 / high-tier=1 / uhd-bd=0 / ref=3 / no-allow-non-conformance / no-repeat-headers / annexb / no-aud / no-hrd / info / hash=0 / no-temporal-layers / open-gop / min-keyint=23 / keyint=250 / gop-lookahead=0 / bframes=8 / b-adapt=2 / b-pyramid / bframe-bias=0 / rc-lookahead=50 / lookahead-slices=6 / scenecut=40 / radl=0 / no-intra-refresh / ctu=64 / min-cu-size=8 / no-rect / no-amp / max-tu-size=32 / tu-inter-depth=1 / tu-intra-depth=1 / limit-tu=0 / rdoq-level=0 / dynamic-rd=0.00 / no-ssim-rd / signhide / no-tskip / nr-intra=0 / nr-inter=0 / no-constrained-intra / no-strong-intra-smoothing / max-merge=3 / limit-refs=3 / no-limit-modes / me=3 / subme=5 / merange=57 / temporal-mvp / weightp / no-weightb / no-analyze-src-pics / deblock=0:0 / sao / no-sao-non-deblock / rd=3 / no-early-skip / no-rskip / no-fast-intra / no-tskip-fast / no-cu-lossless / no-b-intra / no-splitrd-skip / rdpenalty=0 / psy-rd=2.00 / psy-rdoq=0.00 / no-rd-refine / no-lossless / cbqpoffs=0 / crqpoffs=0 / rc=crf / crf=20.0 / qcomp=0.60 / qpstep=4 / stats-write=0 / stats-read=0 / ipratio=1.40 / pbratio=1.30 / aq-mode=3 / aq-strength=1.00 / cutree / zone-count=0 / no-strict-cbr / qg-size=32 / no-rc-grain / qpmax=69 / qpmin=0 / no-const-vbv / sar=0 / overscan=0 / videoformat=5 / range=0 / colorprim=2 / transfer=2 / colormatrix=2 / chromaloc=0 / display-window=0 / max-cll=0,0 / min-luma=0 / max-luma=1023 / log2-max-poc-lsb=8 / vui-timing-info / vui-hrd-info / slices=1 / no-opt-qp-pps / no-opt-ref-list-length-pps / no-multi-pass-opt-rps / scenecut-bias=0.05 / no-opt-cu-delta-qp / no-aq-motion / no-hdr / no-hdr-opt / no-dhdr10-opt / no-idr-recovery-sei / analysis-reuse-level=5 / scale-factor=0 / refine-intra=0 / refine-inter=0 / refine-mv=0 / no-limit-sao / ctu-info=0 / no-lowpass-dct / refine-mv-type=0 / copy-pic=1 / max-ausize-factor=1.0 / no-dynamic-refine / no-single-sei
Default : Yes
Forced : No

Audio
ID : 2
Format : AAC
Format/Info : Advanced Audio Codec
Format profile : LC
Codec ID : A_AAC
Duration : 42 min 20 s
Bit rate : 448 kb/s
Channel(s) : 6 channels
Channel positions : Front: L C R, Side: L R, LFE
Sampling rate : 48.0 kHz
Frame rate : 46.875 FPS (1024 spf)
Compression mode : Lossy
Stream size : 136 MiB (14%)
Language : English
Default : Yes
Forced : No

Subtitle
ID : 3
Format : PGS
Muxing mode : zlib
Codec ID : S_HDMV/PGS
Codec ID/Info : Picture based subtitle format used on BDs/HD-DVDs
Duration : 42 min 13 s
Bit rate : 34.7 kb/s
Count of elements : 1076
Stream size : 10.5 MiB (1%)
Language : English
Default : No
Forced : No

Download

Season: Google Drive (18.19 GB)

Season 3

The Vampire Diaries (2009) Season 3 S03 (1080p BluRay x265 HEVC 10bit AAC 5.1 Vyndros)

Files

The Vampire Diaries (2009) Season 3 S03 (1080p BluRay x265 HEVC 10bit AAC 5.1 Vyndros)

  • The.Vampire.Diaries.S03E01.The.Birthday.1080p.10bit.BluRay.AAC5.1.HEVC-Vyndros.mkv (845.8 MB)
  • The.Vampire.Diaries.S03E02.The.Hybrid.1080p.10bit.BluRay.AAC5.1.HEVC-Vyndros.mkv (847.3 MB)
  • The.Vampire.Diaries.S03E03.The.End.of.the.Affair.1080p.10bit.BluRay.AAC5.1.HEVC-Vyndros.mkv (717.5 MB)
  • The.Vampire.Diaries.S03E04.Disturbing.Behavior.1080p.10bit.BluRay.AAC5.1.HEVC-Vyndros.mkv (744.3 MB)
  • The.Vampire.Diaries.S03E05.The.Reckoning.1080p.10bit.BluRay.AAC5.1.HEVC-Vyndros.mkv (798.4 MB)
  • The.Vampire.Diaries.S03E06.Smells.Like.Teen.Spirit.1080p.10bit.BluRay.AAC5.1.HEVC-Vyndros.mkv (768.5 MB)
  • The.Vampire.Diaries.S03E07.Ghost.World.1080p.10bit.BluRay.AAC5.1.HEVC-Vyndros.mkv (736.0 MB)
  • The.Vampire.Diaries.S03E08.Ordinary.People.1080p.10bit.BluRay.AAC5.1.HEVC-Vyndros.mkv (841.7 MB)
  • The.Vampire.Diaries.S03E09.Homecoming.1080p.10bit.BluRay.AAC5.1.HEVC-Vyndros.mkv (721.6 MB)
  • The.Vampire.Diaries.S03E10.The.New.Deal.1080p.10bit.BluRay.AAC5.1.HEVC-Vyndros.mkv (737.1 MB)
  • The.Vampire.Diaries.S03E11.Our.Town.1080p.10bit.BluRay.AAC5.1.HEVC-Vyndros.mkv (634.3 MB)
  • The.Vampire.Diaries.S03E12.The.Ties.That.Bind.1080p.10bit.BluRay.AAC5.1.HEVC-Vyndros.mkv (674.1 MB)
  • The.Vampire.Diaries.S03E13.Bringing.Out.the.Dead.1080p.10bit.BluRay.AAC5.1.HEVC-Vyndros.mkv (609.7 MB)
  • The.Vampire.Diaries.S03E14.Dangerous.Liaisons.1080p.10bit.BluRay.AAC5.1.HEVC-Vyndros.mkv (696.2 MB)
  • The.Vampire.Diaries.S03E15.All.My.Children.1080p.10bit.BluRay.AAC5.1.HEVC-Vyndros.mkv (596.5 MB)
  • The.Vampire.Diaries.S03E16.1912.1080p.10bit.BluRay.AAC5.1.HEVC-Vyndros.mkv (642.5 MB)
  • The.Vampire.Diaries.S03E17.Break.On.Through.1080p.10bit.BluRay.AAC5.1.HEVC-Vyndros.mkv (694.3 MB)
  • The.Vampire.Diaries.S03E18.The.Murder.of.One.1080p.10bit.BluRay.AAC5.1.HEVC-Vyndros.mkv (623.5 MB)
  • The.Vampire.Diaries.S03E19.Heart.of.Darkness.1080p.10bit.BluRay.AAC5.1.HEVC-Vyndros.mkv (629.8 MB)
  • The.Vampire.Diaries.S03E20.Do.Not.Go.Gentle.1080p.10bit.BluRay.AAC5.1.HEVC-Vyndros.mkv (756.8 MB)
  • The.Vampire.Diaries.S03E21.Before.Sunset.1080p.10bit.BluRay.AAC5.1.HEVC-Vyndros.mkv (694.0 MB)
  • The.Vampire.Diaries.S03E22.The.Departed.1080p.10bit.BluRay.AAC5.1.HEVC-Vyndros.mkv (670.2 MB)

Mediainfo

General
Format : Matroska
Format version : Version 4 / Version 2
File size : 768 MiB
Duration : 42 min 5 s
Overall bit rate : 2 553 kb/s
Movie name : The Vampire Diaries S03E06
Encoded date : UTC 2018-12-15 10:48:37
Writing application : mkvmerge v20.0.0 ('I Am The Sun') 64-bit
Writing library : libebml v1.3.5 + libmatroska v1.4.8
Writing frontend : StaxRip v1.7.0.6

Video
ID : 1
Format : HEVC
Format/Info : High Efficiency Video Coding
Format profile : Main @Main
Codec ID : V_MPEGH/ISO/HEVC
Duration : 42 min 4 s
Bit rate : 2 088 kb/s
Width : 1 920 pixels
Height : 1 080 pixels
Display aspect ratio : 16:9
Frame rate mode : Constant
Frame rate : 23.976 (24000/1001) FPS
Color space : YUV
Chroma subsampling : 4:2:0
Bit depth : 10 bits
Bits/(Pixel*Frame) : 0.042
Stream size : 628 MiB (82%)
Writing library : x265 2.9+14-3023bd8b05c0:[Windows][GCC 8.2.1][64 bit] 10bit
Encoding settings : cpuid=1111039 / frame-threads=2 / numa-pools=4 / wpp / no-pmode / no-pme / no-psnr / ssim / log-level=2 / input-csp=1 / input-res=1920x1080 / interlace=0 / total-frames=60519 / level-idc=0 / high-tier=1 / uhd-bd=0 / ref=3 / no-allow-non-conformance / no-repeat-headers / annexb / no-aud / no-hrd / info / hash=0 / no-temporal-layers / open-gop / min-keyint=23 / keyint=250 / gop-lookahead=0 / bframes=8 / b-adapt=2 / b-pyramid / bframe-bias=0 / rc-lookahead=50 / lookahead-slices=6 / scenecut=40 / radl=0 / no-splice / no-intra-refresh / ctu=64 / min-cu-size=8 / no-rect / no-amp / max-tu-size=32 / tu-inter-depth=1 / tu-intra-depth=1 / limit-tu=0 / rdoq-level=0 / dynamic-rd=0.00 / no-ssim-rd / signhide / no-tskip / nr-intra=0 / nr-inter=0 / no-constrained-intra / no-strong-intra-smoothing / max-merge=3 / limit-refs=3 / no-limit-modes / me=3 / subme=5 / merange=57 / temporal-mvp / weightp / no-weightb / no-analyze-src-pics / deblock=0:0 / sao / no-sao-non-deblock / rd=3 / no-early-skip / no-rskip / no-fast-intra / no-tskip-fast / no-cu-lossless / no-b-intra / no-splitrd-skip / rdpenalty=0 / psy-rd=2.00 / psy-rdoq=0.00 / no-rd-refine / no-lossless / cbqpoffs=0 / crqpoffs=0 / rc=crf / crf=20.0 / qcomp=0.60 / qpstep=4 / stats-write=0 / stats-read=0 / ipratio=1.40 / pbratio=1.30 / aq-mode=3 / aq-strength=1.00 / cutree / zone-count=0 / no-strict-cbr / qg-size=32 / no-rc-grain / qpmax=69 / qpmin=0 / no-const-vbv / sar=0 / overscan=0 / videoformat=5 / range=0 / colorprim=2 / transfer=2 / colormatrix=2 / chromaloc=0 / display-window=0 / max-cll=0,0 / min-luma=0 / max-luma=1023 / log2-max-poc-lsb=8 / vui-timing-info / vui-hrd-info / slices=1 / no-opt-qp-pps / no-opt-ref-list-length-pps / no-multi-pass-opt-rps / scenecut-bias=0.05 / no-opt-cu-delta-qp / no-aq-motion / no-hdr / no-hdr-opt / no-dhdr10-opt / no-idr-recovery-sei / analysis-reuse-level=5 / scale-factor=0 / refine-intra=0 / refine-inter=0 / refine-mv=0 / no-limit-sao / ctu-info=0 / no-lowpass-dct / refine-mv-type=0 / copy-pic=1 / max-ausize-factor=1.0 / no-dynamic-refine / no-single-sei
Default : Yes
Forced : No

Audio
ID : 2
Format : AAC
Format/Info : Advanced Audio Codec
Format profile : LC
Codec ID : A_AAC
Duration : 42 min 5 s
Bit rate : 448 kb/s
Channel(s) : 6 channels
Channel positions : Front: L C R, Side: L R, LFE
Sampling rate : 48.0 kHz
Frame rate : 46.875 FPS (1024 spf)
Compression mode : Lossy
Stream size : 135 MiB (18%)
Language : English
Default : Yes
Forced : No

Subtitle
ID : 3
Format : PGS
Muxing mode : zlib
Codec ID : S_HDMV/PGS
Codec ID/Info : Picture based subtitle format used on BDs/HD-DVDs
Duration : 41 min 57 s
Bit rate : 34.9 kb/s
Count of elements : 1096
Stream size : 10.5 MiB (1%)
Language : English
Default : No
Forced : No

Download

Season: Google Drive (15.31 GB)

Season 4

The Vampire Diaries (2009) Season 4 S04 (1080p BluRay x265 HEVC 10bit AAC 5.1 Vyndros)

Files

The Vampire Diaries (2009) Season 4 S04 (1080p BluRay x265 HEVC 10bit AAC 5.1 Vyndros)

  • The.Vampire.Diaries.S04E01.Growing.Pains.1080p.10bit.BluRay.AAC5.1.HEVC-Vyndros.mkv (650.4 MB)
  • The.Vampire.Diaries.S04E02.Memorial.1080p.10bit.BluRay.AAC5.1.HEVC-Vyndros.mkv (733.1 MB)
  • The.Vampire.Diaries.S04E03.The.Rager.1080p.10bit.BluRay.AAC5.1.HEVC-Vyndros.mkv (734.4 MB)
  • The.Vampire.Diaries.S04E04.The.Five.1080p.10bit.BluRay.AAC5.1.HEVC-Vyndros.mkv (713.4 MB)
  • The.Vampire.Diaries.S04E05.The.Killer.1080p.10bit.BluRay.AAC5.1.HEVC-Vyndros.mkv (675.7 MB)
  • The.Vampire.Diaries.S04E06.We.All.Go.a.Little.Mad.Sometimes.1080p.10bit.BluRay.AAC5.1.HEVC-Vyndros.mkv (655.3 MB)
  • The.Vampire.Diaries.S04E07.My.Brother’s.Keeper.1080p.10bit.BluRay.AAC5.1.HEVC-Vyndros.mkv (803.0 MB)
  • The.Vampire.Diaries.S04E08.We’ll.Always.Have.Bourbon.Street.1080p.10bit.BluRay.AAC5.1.HEVC-Vyndros.mkv (672.5 MB)
  • The.Vampire.Diaries.S04E09.O.Come,.All.Ye.Faithful.1080p.10bit.BluRay.AAC5.1.HEVC-Vyndros.mkv (719.7 MB)
  • The.Vampire.Diaries.S04E10.After.School.Special.1080p.10bit.BluRay.AAC5.1.HEVC-Vyndros.mkv (711.0 MB)
  • The.Vampire.Diaries.S04E11.Catch.Me.If.You.Can.1080p.10bit.BluRay.AAC5.1.HEVC-Vyndros.mkv (601.8 MB)
  • The.Vampire.Diaries.S04E12.A.View.to.a.Kill.1080p.10bit.BluRay.AAC5.1.HEVC-Vyndros.mkv (643.2 MB)
  • The.Vampire.Diaries.S04E13.Into.the.Wild.1080p.10bit.BluRay.AAC5.1.HEVC-Vyndros.mkv (620.2 MB)
  • The.Vampire.Diaries.S04E14.Down.the.Rabbit.Hole.1080p.10bit.BluRay.AAC5.1.HEVC-Vyndros.mkv (648.0 MB)
  • The.Vampire.Diaries.S04E15.Stand.by.Me.1080p.10bit.BluRay.AAC5.1.HEVC-Vyndros.mkv (704.4 MB)
  • The.Vampire.Diaries.S04E16.Bring.it.On.1080p.10bit.BluRay.AAC5.1.HEVC-Vyndros.mkv (729.8 MB)
  • The.Vampire.Diaries.S04E17.Because.the.Night.1080p.10bit.BluRay.AAC5.1.HEVC-Vyndros.mkv (767.5 MB)
  • The.Vampire.Diaries.S04E18.American.Gothic.1080p.10bit.BluRay.AAC5.1.HEVC-Vyndros.mkv (747.3 MB)
  • The.Vampire.Diaries.S04E19.Pictures.of.You.1080p.10bit.BluRay.AAC5.1.HEVC-Vyndros.mkv (757.4 MB)
  • The.Vampire.Diaries.S04E20.The.Originals.1080p.10bit.BluRay.AAC5.1.HEVC-Vyndros.mkv (661.7 MB)
  • The.Vampire.Diaries.S04E21.She’s.Come.Undone.1080p.10bit.BluRay.AAC5.1.HEVC-Vyndros.mkv (676.0 MB)
  • The.Vampire.Diaries.S04E22.The.Walking.Dead.1080p.10bit.BluRay.AAC5.1.HEVC-Vyndros.mkv (606.1 MB)
  • The.Vampire.Diaries.S04E23.Graduation.1080p.10bit.BluRay.AAC5.1.HEVC-Vyndros.mkv (707.8 MB)

Mediainfo

General
Format : Matroska
Format version : Version 4 / Version 2
File size : 803 MiB
Duration : 42 min 33 s
Overall bit rate : 2 638 kb/s
Movie name : The.Vampire.Diaries.S04E07.My.Brother's.Keeper.BluRay.1080p.DTS-HD.MA.5.1.AVC.REMUX-FraMeSToR
Encoded date : UTC 2018-12-24 18:17:42
Writing application : mkvmerge v20.0.0 ('I Am The Sun') 64-bit
Writing library : libebml v1.3.5 + libmatroska v1.4.8
Writing frontend : StaxRip v1.7.0.6

Video
ID : 1
Format : HEVC
Format/Info : High Efficiency Video Coding
Format profile : Main @Main
Codec ID : V_MPEGH/ISO/HEVC
Duration : 42 min 32 s
Bit rate : 2 170 kb/s
Width : 1 920 pixels
Height : 1 080 pixels
Display aspect ratio : 16:9
Frame rate mode : Constant
Frame rate : 23.976 (24000/1001) FPS
Color space : YUV
Chroma subsampling : 4:2:0
Bit depth : 10 bits
Bits/(Pixel*Frame) : 0.044
Stream size : 660 MiB (82%)
Writing library : x265 2.9+14-3023bd8b05c0:[Windows][GCC 8.2.1][64 bit] 10bit
Encoding settings : cpuid=1111039 / frame-threads=2 / numa-pools=4 / wpp / no-pmode / no-pme / no-psnr / ssim / log-level=2 / input-csp=1 / input-res=1920x1080 / interlace=0 / total-frames=61203 / level-idc=0 / high-tier=1 / uhd-bd=0 / ref=3 / no-allow-non-conformance / no-repeat-headers / annexb / no-aud / no-hrd / info / hash=0 / no-temporal-layers / open-gop / min-keyint=23 / keyint=250 / gop-lookahead=0 / bframes=8 / b-adapt=2 / b-pyramid / bframe-bias=0 / rc-lookahead=50 / lookahead-slices=6 / scenecut=40 / radl=0 / no-splice / no-intra-refresh / ctu=64 / min-cu-size=8 / no-rect / no-amp / max-tu-size=32 / tu-inter-depth=1 / tu-intra-depth=1 / limit-tu=0 / rdoq-level=0 / dynamic-rd=0.00 / no-ssim-rd / signhide / no-tskip / nr-intra=0 / nr-inter=0 / no-constrained-intra / no-strong-intra-smoothing / max-merge=3 / limit-refs=3 / no-limit-modes / me=3 / subme=5 / merange=57 / temporal-mvp / weightp / no-weightb / no-analyze-src-pics / deblock=0:0 / sao / no-sao-non-deblock / rd=3 / no-early-skip / no-rskip / no-fast-intra / no-tskip-fast / no-cu-lossless / no-b-intra / no-splitrd-skip / rdpenalty=0 / psy-rd=2.00 / psy-rdoq=0.00 / no-rd-refine / no-lossless / cbqpoffs=0 / crqpoffs=0 / rc=crf / crf=20.0 / qcomp=0.60 / qpstep=4 / stats-write=0 / stats-read=0 / ipratio=1.40 / pbratio=1.30 / aq-mode=3 / aq-strength=1.00 / cutree / zone-count=0 / no-strict-cbr / qg-size=32 / no-rc-grain / qpmax=69 / qpmin=0 / no-const-vbv / sar=0 / overscan=0 / videoformat=5 / range=0 / colorprim=2 / transfer=2 / colormatrix=2 / chromaloc=0 / display-window=0 / max-cll=0,0 / min-luma=0 / max-luma=1023 / log2-max-poc-lsb=8 / vui-timing-info / vui-hrd-info / slices=1 / no-opt-qp-pps / no-opt-ref-list-length-pps / no-multi-pass-opt-rps / scenecut-bias=0.05 / no-opt-cu-delta-qp / no-aq-motion / no-hdr / no-hdr-opt / no-dhdr10-opt / no-idr-recovery-sei / analysis-reuse-level=5 / scale-factor=0 / refine-intra=0 / refine-inter=0 / refine-mv=0 / no-limit-sao / ctu-info=0 / no-lowpass-dct / refine-mv-type=0 / copy-pic=1 / max-ausize-factor=1.0 / no-dynamic-refine / no-single-sei
Default : Yes
Forced : No

Audio
ID : 2
Format : AAC
Format/Info : Advanced Audio Codec
Format profile : LC
Codec ID : A_AAC
Duration : 42 min 33 s
Bit rate : 449 kb/s
Channel(s) : 6 channels
Channel positions : Front: L C R, Side: L R, LFE
Sampling rate : 48.0 kHz
Frame rate : 46.875 FPS (1024 spf)
Compression mode : Lossy
Stream size : 137 MiB (17%)
Language : English
Default : Yes
Forced : No

Subtitle
ID : 3
Format : PGS
Muxing mode : zlib
Codec ID : S_HDMV/PGS
Codec ID/Info : Picture based subtitle format used on BDs/HD-DVDs
Duration : 42 min 27 s
Bit rate : 39.4 kb/s
Count of elements : 1186
Stream size : 12.0 MiB (1%)
Language : English
Default : No
Forced : No

Download

Season: Google Drive (15.57 GB)

Season 5

The Vampire Diaries (2009) Season 5 S05 (1080p BluRay x265 HEVC 10bit AAC 5.1 Vyndros)

Files

The Vampire Diaries (2009) Season 5 S05 (1080p BluRay x265 HEVC 10bit AAC 5.1 Vyndros)

  • The.Vampire.Diaries.S05E01.I.Know.What.You.Did.Last.Summer.1080p.10bit.BluRay.AAC5.1.HEVC-Vyndros.mkv (803.2 MB)
  • The.Vampire.Diaries.S05E02.True.Lies.1080p.10bit.BluRay.AAC5.1.HEVC-Vyndros.mkv (838.2 MB)
  • The.Vampire.Diaries.S05E03.Original.Sin.1080p.10bit.BluRay.AAC5.1.HEVC-Vyndros.mkv (600.8 MB)
  • The.Vampire.Diaries.S05E04.For.Whom.the.Bell.Tolls.1080p.10bit.BluRay.AAC5.1.HEVC-Vyndros.mkv (780.8 MB)
  • The.Vampire.Diaries.S05E05.Monster’s.Ball.1080p.10bit.BluRay.AAC5.1.HEVC-Vyndros.mkv (636.7 MB)
  • The.Vampire.Diaries.S05E06.Handle.with.Care.1080p.10bit.BluRay.AAC5.1.HEVC-Vyndros.mkv (697.1 MB)
  • The.Vampire.Diaries.S05E07.Death.and.the.Maiden.1080p.10bit.BluRay.AAC5.1.HEVC-Vyndros.mkv (605.5 MB)
  • The.Vampire.Diaries.S05E08.Dead.Man.on.Campus.1080p.10bit.BluRay.AAC5.1.HEVC-Vyndros.mkv (739.1 MB)
  • The.Vampire.Diaries.S05E09.The.Cell.1080p.10bit.BluRay.AAC5.1.HEVC-Vyndros.mkv (697.8 MB)
  • The.Vampire.Diaries.S05E10.Fifty.Shades.of.Grayson.1080p.10bit.BluRay.AAC5.1.HEVC-Vyndros.mkv (793.0 MB)
  • The.Vampire.Diaries.S05E11.500.Years.of.Solitude.1080p.10bit.BluRay.AAC5.1.HEVC-Vyndros.mkv (670.6 MB)
  • The.Vampire.Diaries.S05E12.The.Devil.Inside.1080p.10bit.BluRay.AAC5.1.HEVC-Vyndros.mkv (707.6 MB)
  • The.Vampire.Diaries.S05E13.Total.Eclipse.of.the.Heart.1080p.10bit.BluRay.AAC5.1.HEVC-Vyndros.mkv (767.8 MB)
  • The.Vampire.Diaries.S05E14.No.Exit.1080p.10bit.BluRay.AAC5.1.HEVC-Vyndros.mkv (787.4 MB)
  • The.Vampire.Diaries.S05E15.Gone.Girl.1080p.10bit.BluRay.AAC5.1.HEVC-Vyndros.mkv (620.3 MB)
  • The.Vampire.Diaries.S05E16.While.You.Were.Sleeping.1080p.10bit.BluRay.AAC5.1.HEVC-Vyndros.mkv (698.2 MB)
  • The.Vampire.Diaries.S05E17.Rescue.Me.1080p.10bit.BluRay.AAC5.1.HEVC-Vyndros.mkv (694.9 MB)
  • The.Vampire.Diaries.S05E18.Resident.Evil.1080p.10bit.BluRay.AAC5.1.HEVC-Vyndros.mkv (777.7 MB)
  • The.Vampire.Diaries.S05E19.Man.on.Fire.1080p.10bit.BluRay.AAC5.1.HEVC-Vyndros.mkv (854.8 MB)
  • The.Vampire.Diaries.S05E20.What.Lies.Beneath.1080p.10bit.BluRay.AAC5.1.HEVC-Vyndros.mkv (827.3 MB)
  • The.Vampire.Diaries.S05E21.Promised.Land.1080p.10bit.BluRay.AAC5.1.HEVC-Vyndros.mkv (814.8 MB)
  • The.Vampire.Diaries.S05E22.Home.1080p.10bit.BluRay.AAC5.1.HEVC-Vyndros.mkv (890.9 MB)

Mediainfo

General
Format : Matroska
Format version : Version 4 / Version 2
File size : 778 MiB
Duration : 42 min 20 s
Overall bit rate : 2 568 kb/s
Encoded date : UTC 2019-01-07 06:05:16
Writing application : mkvmerge v20.0.0 ('I Am The Sun') 64-bit
Writing library : libebml v1.3.5 + libmatroska v1.4.8
Writing frontend : StaxRip v1.7.0.6

Video
ID : 1
Format : HEVC
Format/Info : High Efficiency Video Coding
Format profile : Main @Main
Codec ID : V_MPEGH/ISO/HEVC
Duration : 42 min 19 s
Bit rate : 2 103 kb/s
Width : 1 920 pixels
Height : 1 080 pixels
Display aspect ratio : 16:9
Frame rate mode : Constant
Frame rate : 23.976 (24000/1001) FPS
Color space : YUV
Chroma subsampling : 4:2:0
Bit depth : 10 bits
Bits/(Pixel*Frame) : 0.042
Stream size : 636 MiB (82%)
Writing library : x265 2.9+14-3023bd8b05c0:[Windows][GCC 8.2.1][64 bit] 10bit
Encoding settings : cpuid=1111039 / frame-threads=2 / numa-pools=4 / wpp / no-pmode / no-pme / no-psnr / ssim / log-level=2 / input-csp=1 / input-res=1920x1080 / interlace=0 / total-frames=60878 / level-idc=0 / high-tier=1 / uhd-bd=0 / ref=3 / no-allow-non-conformance / no-repeat-headers / annexb / no-aud / no-hrd / info / hash=0 / no-temporal-layers / open-gop / min-keyint=23 / keyint=250 / gop-lookahead=0 / bframes=8 / b-adapt=2 / b-pyramid / bframe-bias=0 / rc-lookahead=50 / lookahead-slices=6 / scenecut=40 / radl=0 / no-splice / no-intra-refresh / ctu=64 / min-cu-size=8 / no-rect / no-amp / max-tu-size=32 / tu-inter-depth=1 / tu-intra-depth=1 / limit-tu=0 / rdoq-level=0 / dynamic-rd=0.00 / no-ssim-rd / signhide / no-tskip / nr-intra=0 / nr-inter=0 / no-constrained-intra / no-strong-intra-smoothing / max-merge=3 / limit-refs=3 / no-limit-modes / me=3 / subme=5 / merange=57 / temporal-mvp / weightp / no-weightb / no-analyze-src-pics / deblock=0:0 / sao / no-sao-non-deblock / rd=3 / no-early-skip / no-rskip / no-fast-intra / no-tskip-fast / no-cu-lossless / no-b-intra / no-splitrd-skip / rdpenalty=0 / psy-rd=2.00 / psy-rdoq=0.00 / no-rd-refine / no-lossless / cbqpoffs=0 / crqpoffs=0 / rc=crf / crf=20.0 / qcomp=0.60 / qpstep=4 / stats-write=0 / stats-read=0 / ipratio=1.40 / pbratio=1.30 / aq-mode=3 / aq-strength=1.00 / cutree / zone-count=0 / no-strict-cbr / qg-size=32 / no-rc-grain / qpmax=69 / qpmin=0 / no-const-vbv / sar=0 / overscan=0 / videoformat=5 / range=0 / colorprim=2 / transfer=2 / colormatrix=2 / chromaloc=0 / display-window=0 / max-cll=0,0 / min-luma=0 / max-luma=1023 / log2-max-poc-lsb=8 / vui-timing-info / vui-hrd-info / slices=1 / no-opt-qp-pps / no-opt-ref-list-length-pps / no-multi-pass-opt-rps / scenecut-bias=0.05 / no-opt-cu-delta-qp / no-aq-motion / no-hdr / no-hdr-opt / no-dhdr10-opt / no-idr-recovery-sei / analysis-reuse-level=5 / scale-factor=0 / refine-intra=0 / refine-inter=0 / refine-mv=0 / no-limit-sao / ctu-info=0 / no-lowpass-dct / refine-mv-type=0 / copy-pic=1 / max-ausize-factor=1.0 / no-dynamic-refine / no-single-sei
Default : Yes
Forced : No

Audio
ID : 2
Format : AAC
Format/Info : Advanced Audio Codec
Format profile : LC
Codec ID : A_AAC
Duration : 42 min 20 s
Bit rate : 447 kb/s
Channel(s) : 6 channels
Channel positions : Front: L C R, Side: L R, LFE
Sampling rate : 48.0 kHz
Frame rate : 46.875 FPS (1024 spf)
Compression mode : Lossy
Stream size : 135 MiB (17%)
Language : English
Default : Yes
Forced : No

Subtitle
ID : 3
Format : PGS
Muxing mode : zlib
Codec ID : S_HDMV/PGS
Codec ID/Info : Picture based subtitle format used on BDs/HD-DVDs
Duration : 42 min 14 s
Bit rate : 38.2 kb/s
Count of elements : 1318
Stream size : 11.6 MiB (1%)
Language : English
Default : No
Forced : No

Download

Season: Google Drive (15.92 GB)

Season 6

The Vampire Diaries (2009) Season 6 S06 (1080p BluRay x265 HEVC 10bit AAC 5.1 Vyndros)

Files

  • The.Vampire.Diaries.S06E01.I’ll.Remember.1080p.10bit.BluRay.AAC5.1.HEVC-Vyndros.mkv (935.7 MB)
  • The.Vampire.Diaries.S06E02.Yellow.Ledbetter.1080p.10bit.BluRay.AAC5.1.HEVC-Vyndros.mkv (908.7 MB)
  • The.Vampire.Diaries.S06E03.Welcome.to.Paradise.1080p.10bit.BluRay.AAC5.1.HEVC-Vyndros.mkv (1,009.8 MB)
  • The.Vampire.Diaries.S06E04.Black.Hole.Sun.1080p.10bit.BluRay.AAC5.1.HEVC-Vyndros.mkv (892.7 MB)
  • The.Vampire.Diaries.S06E05.The.World.Has.Turned.and.Left.Me.Here.1080p.10bit.BluRay.AAC5.1.HEVC-Vyndros.mkv (884.4 MB)
  • The.Vampire.Diaries.S06E06.The.More.You.Ignore.Me,.The.Closer.I.Get.1080p.10bit.BluRay.AAC5.1.HEVC-Vyndros.mkv (813.5 MB)
  • The.Vampire.Diaries.S06E07.Do.You.Remember.the.First.Time.1080p.10bit.BluRay.AAC5.1.HEVC-Vyndros.mkv (758.1 MB)
  • The.Vampire.Diaries.S06E08.Fade.Into.You.1080p.10bit.BluRay.AAC5.1.HEVC-Vyndros.mkv (924.6 MB)
  • The.Vampire.Diaries.S06E09.I.Alone.1080p.10bit.BluRay.AAC5.1.HEVC-Vyndros.mkv (830.6 MB)
  • The.Vampire.Diaries.S06E10.Christmas.Through.Your.Eyes.1080p.10bit.BluRay.AAC5.1.HEVC-Vyndros.mkv (934.2 MB)
  • The.Vampire.Diaries.S06E11.Woke.Up.With.a.Monster.1080p.10bit.BluRay.AAC5.1.HEVC-Vyndros.mkv (772.8 MB)
  • The.Vampire.Diaries.S06E12.Prayer.For.the.Dying.1080p.10bit.BluRay.AAC5.1.HEVC-Vyndros.mkv (815.2 MB)
  • The.Vampire.Diaries.S06E13.The.Day.I.Tried.To.Live.1080p.10bit.BluRay.AAC5.1.HEVC-Vyndros.mkv (837.4 MB)
  • The.Vampire.Diaries.S06E14.Stay.1080p.10bit.BluRay.AAC5.1.HEVC-Vyndros.mkv (831.0 MB)
  • The.Vampire.Diaries.S06E15.Let.Her.Go.1080p.10bit.BluRay.AAC5.1.HEVC-Vyndros.mkv (768.3 MB)
  • The.Vampire.Diaries.S06E16.The.Downward.Spiral.1080p.10bit.BluRay.AAC5.1.HEVC-Vyndros.mkv (822.8 MB)
  • The.Vampire.Diaries.S06E17.A.Bird.In.a.Gilded.Cage.1080p.10bit.BluRay.AAC5.1.HEVC-Vyndros.mkv (713.6 MB)
  • The.Vampire.Diaries.S06E18.I.Could.Never.Love.Like.That.1080p.10bit.BluRay.AAC5.1.HEVC-Vyndros.mkv (810.3 MB)
  • The.Vampire.Diaries.S06E19.Because.1080p.10bit.BluRay.AAC5.1.HEVC-Vyndros.mkv (732.1 MB)
  • The.Vampire.Diaries.S06E20.I’d.Leave.My.Happy.Home.For.You.1080p.10bit.BluRay.AAC5.1.HEVC-Vyndros.mkv (701.0 MB)
  • The.Vampire.Diaries.S06E21.I’ll.Wed.You.In.the.Golden.Summertime.1080p.10bit.BluRay.AAC5.1.HEVC-Vyndros.mkv (830.2 MB)
  • The.Vampire.Diaries.S06E22.I’m.Thinking.of.You.All.the.While.1080p.10bit.BluRay.AAC5.1.HEVC-Vyndros.mkv (876.5 MB)

Mediainfo

General
Format : Matroska
Format version : Version 4 / Version 2
File size : 877 MiB
Duration : 42 min 33 s
Overall bit rate : 2 880 kb/s
Encoded date : UTC 2019-01-17 23:58:54
Writing application : mkvmerge v20.0.0 ('I Am The Sun') 64-bit
Writing library : libebml v1.3.5 + libmatroska v1.4.8
Writing frontend : StaxRip v1.7.0.6

Video
ID : 1
Format : HEVC
Format/Info : High Efficiency Video Coding
Format profile : Main @Main
Codec ID : V_MPEGH/ISO/HEVC
Duration : 42 min 32 s
Bit rate : 2 430 kb/s
Width : 1 920 pixels
Height : 1 080 pixels
Display aspect ratio : 16:9
Frame rate mode : Constant
Frame rate : 23.976 (24000/1001) FPS
Color space : YUV
Chroma subsampling : 4:2:0
Bit depth : 10 bits
Bits/(Pixel*Frame) : 0.049
Stream size : 739 MiB (84%)
Writing library : x265 2.9+14-3023bd8b05c0:[Windows][GCC 8.2.1][64 bit] 10bit
Encoding settings : cpuid=1111039 / frame-threads=2 / numa-pools=4 / wpp / no-pmode / no-pme / no-psnr / ssim / log-level=2 / input-csp=1 / input-res=1920x1080 / interlace=0 / total-frames=61192 / level-idc=0 / high-tier=1 / uhd-bd=0 / ref=3 / no-allow-non-conformance / no-repeat-headers / annexb / no-aud / no-hrd / info / hash=0 / no-temporal-layers / open-gop / min-keyint=23 / keyint=250 / gop-lookahead=0 / bframes=8 / b-adapt=2 / b-pyramid / bframe-bias=0 / rc-lookahead=50 / lookahead-slices=6 / scenecut=40 / radl=0 / no-splice / no-intra-refresh / ctu=64 / min-cu-size=8 / no-rect / no-amp / max-tu-size=32 / tu-inter-depth=1 / tu-intra-depth=1 / limit-tu=0 / rdoq-level=0 / dynamic-rd=0.00 / no-ssim-rd / signhide / no-tskip / nr-intra=0 / nr-inter=0 / no-constrained-intra / no-strong-intra-smoothing / max-merge=3 / limit-refs=3 / no-limit-modes / me=3 / subme=5 / merange=57 / temporal-mvp / weightp / no-weightb / no-analyze-src-pics / deblock=0:0 / sao / no-sao-non-deblock / rd=3 / no-early-skip / no-rskip / no-fast-intra / no-tskip-fast / no-cu-lossless / no-b-intra / no-splitrd-skip / rdpenalty=0 / psy-rd=2.00 / psy-rdoq=0.00 / no-rd-refine / no-lossless / cbqpoffs=0 / crqpoffs=0 / rc=crf / crf=20.0 / qcomp=0.60 / qpstep=4 / stats-write=0 / stats-read=0 / ipratio=1.40 / pbratio=1.30 / aq-mode=3 / aq-strength=1.00 / cutree / zone-count=0 / no-strict-cbr / qg-size=32 / no-rc-grain / qpmax=69 / qpmin=0 / no-const-vbv / sar=0 / overscan=0 / videoformat=5 / range=0 / colorprim=2 / transfer=2 / colormatrix=2 / chromaloc=0 / display-window=0 / max-cll=0,0 / min-luma=0 / max-luma=1023 / log2-max-poc-lsb=8 / vui-timing-info / vui-hrd-info / slices=1 / no-opt-qp-pps / no-opt-ref-list-length-pps / no-multi-pass-opt-rps / scenecut-bias=0.05 / no-opt-cu-delta-qp / no-aq-motion / no-hdr / no-hdr-opt / no-dhdr10-opt / no-idr-recovery-sei / analysis-reuse-level=5 / scale-factor=0 / refine-intra=0 / refine-inter=0 / refine-mv=0 / no-limit-sao / ctu-info=0 / no-lowpass-dct / refine-mv-type=0 / copy-pic=1 / max-ausize-factor=1.0 / no-dynamic-refine / no-single-sei
Default : Yes
Forced : No

Audio
ID : 2
Format : AAC
Format/Info : Advanced Audio Codec
Format profile : LC
Codec ID : A_AAC
Duration : 42 min 33 s
Bit rate : 448 kb/s
Channel(s) : 6 channels
Channel positions : Front: L C R, Side: L R, LFE
Sampling rate : 48.0 kHz
Frame rate : 46.875 FPS (1024 spf)
Compression mode : Lossy
Stream size : 136 MiB (16%)
Language : English
Default : Yes
Forced : No

Download

Season: Google Drive (17.97 GB)

Season 7

The Vampire Diaries (2009) Season 7 S07 (1080p BluRay x265 HEVC 10bit AAC 5.1 Vyndros)

Files

The Vampire Diaries (2009) Season 7 S07 (1080p BluRay x265 HEVC 10bit AAC 5.1 Vyndros)

  • The.Vampire.Diaries.S07E01.Day.One.of.Twenty-Two.Thousand,.Give.or.Take.1080p.10bit.BluRay.AAC5.1.HEVC-Vyndros.mkv (956.9 MB)
  • The.Vampire.Diaries.S07E02.Never.Let.Me.Go.1080p.10bit.BluRay.AAC5.1.HEVC-Vyndros.mkv (756.8 MB)
  • The.Vampire.Diaries.S07E03.Age.of.Innocence.1080p.10bit.BluRay.AAC5.1.HEVC-Vyndros.mkv (709.1 MB)
  • The.Vampire.Diaries.S07E04.I.Carry.Your.Heart.With.Me.1080p.10bit.BluRay.AAC5.1.HEVC-Vyndros.mkv (719.5 MB)
  • The.Vampire.Diaries.S07E05.Live.Through.This.1080p.10bit.BluRay.AAC5.1.HEVC-Vyndros.mkv (667.6 MB)
  • The.Vampire.Diaries.S07E06.Best.Served.Cold.1080p.10bit.BluRay.AAC5.1.HEVC-Vyndros.mkv (613.2 MB)
  • The.Vampire.Diaries.S07E07.Mommie.Dearest.1080p.10bit.BluRay.AAC5.1.HEVC-Vyndros.mkv (690.3 MB)
  • The.Vampire.Diaries.S07E08.Hold.Me,.Thrill.Me,.Kiss.Me,.Kill.Me.1080p.10bit.BluRay.AAC5.1.HEVC-Vyndros.mkv (703.7 MB)
  • The.Vampire.Diaries.S07E09.Cold.as.Ice.1080p.10bit.BluRay.AAC5.1.HEVC-Vyndros.mkv (782.3 MB)
  • The.Vampire.Diaries.S07E10.Hell.is.Other.People.1080p.10bit.BluRay.AAC5.1.HEVC-Vyndros.mkv (778.1 MB)
  • The.Vampire.Diaries.S07E11.Things.We.Lost.in.the.Fire.1080p.10bit.BluRay.AAC5.1.HEVC-Vyndros.mkv (673.1 MB)
  • The.Vampire.Diaries.S07E12.Postcards.From.the.Edge.1080p.10bit.BluRay.AAC5.1.HEVC-Vyndros.mkv (686.2 MB)
  • The.Vampire.Diaries.S07E13.This.Woman’s.Work.1080p.10bit.BluRay.AAC5.1.HEVC-Vyndros.mkv (690.2 MB)
  • The.Vampire.Diaries.S07E14.Moonlight.On.the.Bayou.1080p.10bit.BluRay.AAC5.1.HEVC-Vyndros.mkv (690.9 MB)
  • The.Vampire.Diaries.S07E15.I.Would.For.You.1080p.10bit.BluRay.AAC5.1.HEVC-Vyndros.mkv (839.5 MB)
  • The.Vampire.Diaries.S07E16.Days.of.Future.Past.1080p.10bit.BluRay.AAC5.1.HEVC-Vyndros.mkv (758.4 MB)
  • The.Vampire.Diaries.S07E17.I.Went.to.the.Woods.1080p.10bit.BluRay.AAC5.1.HEVC-Vyndros.mkv (740.4 MB)
  • The.Vampire.Diaries.S07E18.One.Way.or.Another.1080p.10bit.BluRay.AAC5.1.HEVC-Vyndros.mkv (779.8 MB)
  • The.Vampire.Diaries.S07E19.Somebody.That.I.Used.to.Know.1080p.10bit.BluRay.AAC5.1.HEVC-Vyndros.mkv (695.3 MB)
  • The.Vampire.Diaries.S07E20.Kill.‘Em.All.1080p.10bit.BluRay.AAC5.1.HEVC-Vyndros.mkv (726.7 MB)
  • The.Vampire.Diaries.S07E21.Requiem.for.a.Dream.1080p.10bit.BluRay.AAC5.1.HEVC-Vyndros.mkv (586.8 MB)
  • The.Vampire.Diaries.S07E22.Gods.&.Monsters.1080p.10bit.BluRay.AAC5.1.HEVC-Vyndros.mkv (712.0 MB)

Mediainfo

General
Format : Matroska
Format version : Version 4 / Version 2
File size : 758 MiB
Duration : 41 min 45 s
Overall bit rate : 2 539 kb/s
Encoded date : UTC 2019-01-25 13:11:07
Writing application : mkvmerge v20.0.0 ('I Am The Sun') 64-bit
Writing library : libebml v1.3.5 + libmatroska v1.4.8
Writing frontend : StaxRip v1.7.0.6

Video
ID : 1
Format : HEVC
Format/Info : High Efficiency Video Coding
Format profile : Main @Main
Codec ID : V_MPEGH/ISO/HEVC
Duration : 41 min 45 s
Bit rate : 2 073 kb/s
Width : 1 920 pixels
Height : 1 080 pixels
Display aspect ratio : 16:9
Frame rate mode : Constant
Frame rate : 23.976 (24000/1001) FPS
Color space : YUV
Chroma subsampling : 4:2:0
Bit depth : 10 bits
Bits/(Pixel*Frame) : 0.042
Stream size : 619 MiB (82%)
Writing library : x265 2.9+14-3023bd8b05c0:[Windows][GCC 8.2.1][64 bit] 10bit
Encoding settings : cpuid=1111039 / frame-threads=2 / numa-pools=4 / wpp / no-pmode / no-pme / no-psnr / ssim / log-level=2 / input-csp=1 / input-res=1920x1080 / interlace=0 / total-frames=60068 / level-idc=0 / high-tier=1 / uhd-bd=0 / ref=3 / no-allow-non-conformance / no-repeat-headers / annexb / no-aud / no-hrd / info / hash=0 / no-temporal-layers / open-gop / min-keyint=23 / keyint=250 / gop-lookahead=0 / bframes=8 / b-adapt=2 / b-pyramid / bframe-bias=0 / rc-lookahead=50 / lookahead-slices=6 / scenecut=40 / radl=0 / no-splice / no-intra-refresh / ctu=64 / min-cu-size=8 / no-rect / no-amp / max-tu-size=32 / tu-inter-depth=1 / tu-intra-depth=1 / limit-tu=0 / rdoq-level=0 / dynamic-rd=0.00 / no-ssim-rd / signhide / no-tskip / nr-intra=0 / nr-inter=0 / no-constrained-intra / no-strong-intra-smoothing / max-merge=3 / limit-refs=3 / no-limit-modes / me=3 / subme=5 / merange=57 / temporal-mvp / weightp / no-weightb / no-analyze-src-pics / deblock=0:0 / sao / no-sao-non-deblock / rd=3 / no-early-skip / no-rskip / no-fast-intra / no-tskip-fast / no-cu-lossless / no-b-intra / no-splitrd-skip / rdpenalty=0 / psy-rd=2.00 / psy-rdoq=0.00 / no-rd-refine / no-lossless / cbqpoffs=0 / crqpoffs=0 / rc=crf / crf=20.0 / qcomp=0.60 / qpstep=4 / stats-write=0 / stats-read=0 / ipratio=1.40 / pbratio=1.30 / aq-mode=3 / aq-strength=1.00 / cutree / zone-count=0 / no-strict-cbr / qg-size=32 / no-rc-grain / qpmax=69 / qpmin=0 / no-const-vbv / sar=0 / overscan=0 / videoformat=5 / range=0 / colorprim=2 / transfer=2 / colormatrix=2 / chromaloc=0 / display-window=0 / max-cll=0,0 / min-luma=0 / max-luma=1023 / log2-max-poc-lsb=8 / vui-timing-info / vui-hrd-info / slices=1 / no-opt-qp-pps / no-opt-ref-list-length-pps / no-multi-pass-opt-rps / scenecut-bias=0.05 / no-opt-cu-delta-qp / no-aq-motion / no-hdr / no-hdr-opt / no-dhdr10-opt / no-idr-recovery-sei / analysis-reuse-level=5 / scale-factor=0 / refine-intra=0 / refine-inter=0 / refine-mv=0 / no-limit-sao / ctu-info=0 / no-lowpass-dct / refine-mv-type=0 / copy-pic=1 / max-ausize-factor=1.0 / no-dynamic-refine / no-single-sei
Default : Yes
Forced : No

Audio
ID : 2
Format : AAC
Format/Info : Advanced Audio Codec
Format profile : LC
Codec ID : A_AAC
Duration : 41 min 45 s
Bit rate : 449 kb/s
Channel(s) : 6 channels
Channel positions : Front: L C R, Side: L R, LFE
Sampling rate : 48.0 kHz
Frame rate : 46.875 FPS (1024 spf)
Compression mode : Lossy
Stream size : 134 MiB (18%)
Language : English
Default : Yes
Forced : No

Subtitle
ID : 3
Format : PGS
Muxing mode : zlib
Codec ID : S_HDMV/PGS
Codec ID/Info : Picture based subtitle format used on BDs/HD-DVDs
Duration : 41 min 40 s
Bit rate : 51.6 kb/s
Count of elements : 1454
Stream size : 15.4 MiB (2%)
Language : English
Default : No
Forced : No

Download

Season: Google Drive (15.58 GB)

Season 8

The Vampire Diaries (2009) Season 8 S08 (1080p BluRay x265 HEVC 10bit AAC 5.1 Vyndros)

Files

The Vampire Diaries (2009) Season 8 S08 (1080p BluRay x265 HEVC 10bit AAC 5.1 Vyndros)

  • The.Vampire.Diaries.S08E01.Hello,.Brother.1080p.10bit.BluRay.AAC5.1.HEVC-Vyndros.mkv (854.5 MB)
  • The.Vampire.Diaries.S08E02.Today.Will.Be.Different.1080p.10bit.BluRay.AAC5.1.HEVC-Vyndros.mkv (901.9 MB)
  • The.Vampire.Diaries.S08E03.You.Decided.That.I.Was.Worth.Saving.1080p.10bit.BluRay.AAC5.1.HEVC-Vyndros.mkv (880.3 MB)
  • The.Vampire.Diaries.S08E04.An.Eternity.of.Misery.1080p.10bit.BluRay.AAC5.1.HEVC-Vyndros.mkv (871.6 MB)
  • The.Vampire.Diaries.S08E05.Coming.Home.Was.a.Mistake.1080p.10bit.BluRay.AAC5.1.HEVC-Vyndros.mkv (949.0 MB)
  • The.Vampire.Diaries.S08E06.Detoured.On.Some.Random.Backwoods.Path.to.Hell.1080p.10bit.BluRay.AAC5.1.HEVC-Vyndros.mkv (798.3 MB)
  • The.Vampire.Diaries.S08E07.The.Next.Time.I.Hurt.Somebody,.It.Could.Be.You.1080p.10bit.BluRay.AAC5.1.HEVC-Vyndros.mkv (812.4 MB)
  • The.Vampire.Diaries.S08E08.We.Have.History.Together.1080p.10bit.BluRay.AAC5.1.HEVC-Vyndros.mkv (883.9 MB)
  • The.Vampire.Diaries.S08E09.The.Simple.Intimacy.of.the.Near.Touch.1080p.10bit.BluRay.AAC5.1.HEVC-Vyndros.mkv (898.9 MB)
  • The.Vampire.Diaries.S08E10.Nostalgia’s.a.Bitch.1080p.10bit.BluRay.AAC5.1.HEVC-Vyndros.mkv (814.5 MB)
  • The.Vampire.Diaries.S08E11.You.Made.a.Choice.to.Be.Good.1080p.10bit.BluRay.AAC5.1.HEVC-Vyndros.mkv (945.6 MB)
  • The.Vampire.Diaries.S08E12.What.Are.You.1080p.10bit.BluRay.AAC5.1.HEVC-Vyndros.mkv (843.4 MB)
  • The.Vampire.Diaries.S08E13.The.Lies.Are.Going.to.Catch.Up.with.You.1080p.10bit.BluRay.AAC5.1.HEVC-Vyndros.mkv (855.7 MB)
  • The.Vampire.Diaries.S08E14.It’s.Been.a.Hell.of.a.Ride.1080p.10bit.BluRay.AAC5.1.HEVC-Vyndros.mkv (730.0 MB)
  • The.Vampire.Diaries.S08E15.We’re.Planning.a.June.Wedding.1080p.10bit.BluRay.AAC5.1.HEVC-Vyndros.mkv (897.0 MB)
  • The.Vampire.Diaries.S08E16.I.Was.Feeling.Epic.1080p.10bit.BluRay.AAC5.1.HEVC-Vyndros.mkv (864.2 MB)

Mediainfo

General
Format : Matroska
Format version : Version 4 / Version 2
File size : 897 MiB
Duration : 42 min 27 s
Overall bit rate : 2 954 kb/s
Encoded date : UTC 2019-02-13 06:29:54
Writing application : mkvmerge v20.0.0 ('I Am The Sun') 64-bit
Writing library : libebml v1.3.5 + libmatroska v1.4.8
Writing frontend : StaxRip v1.7.0.6

Video
ID : 1
Format : HEVC
Format/Info : High Efficiency Video Coding
Format profile : Main @Main
Codec ID : V_MPEGH/ISO/HEVC
Duration : 42 min 27 s
Bit rate : 2 492 kb/s
Width : 1 920 pixels
Height : 1 080 pixels
Display aspect ratio : 16:9
Frame rate mode : Constant
Frame rate : 23.976 (24000/1001) FPS
Color space : YUV
Chroma subsampling : 4:2:0
Bit depth : 10 bits
Bits/(Pixel*Frame) : 0.050
Stream size : 757 MiB (84%)
Writing library : x265 3.0_RC+14-46b84ff665fd:[Windows][GCC 8.2.1][64 bit] 10bit
Encoding settings : cpuid=1111039 / frame-threads=2 / numa-pools=4 / wpp / no-pmode / no-pme / no-psnr / ssim / log-level=2 / input-csp=1 / input-res=1920x1080 / interlace=0 / total-frames=61070 / level-idc=0 / high-tier=1 / uhd-bd=0 / ref=3 / no-allow-non-conformance / no-repeat-headers / annexb / no-aud / no-hrd / info / hash=0 / no-temporal-layers / open-gop / min-keyint=23 / keyint=250 / gop-lookahead=0 / bframes=8 / b-adapt=2 / b-pyramid / bframe-bias=0 / rc-lookahead=50 / lookahead-slices=6 / scenecut=40 / radl=0 / no-splice / no-intra-refresh / ctu=64 / min-cu-size=8 / no-rect / no-amp / max-tu-size=32 / tu-inter-depth=1 / tu-intra-depth=1 / limit-tu=0 / rdoq-level=0 / dynamic-rd=0.00 / no-ssim-rd / signhide / no-tskip / nr-intra=0 / nr-inter=0 / no-constrained-intra / no-strong-intra-smoothing / max-merge=3 / limit-refs=3 / no-limit-modes / me=3 / subme=5 / merange=57 / temporal-mvp / weightp / no-weightb / no-analyze-src-pics / deblock=0:0 / sao / no-sao-non-deblock / rd=3 / no-early-skip / no-rskip / no-fast-intra / no-tskip-fast / no-cu-lossless / no-b-intra / no-splitrd-skip / rdpenalty=0 / psy-rd=2.00 / psy-rdoq=0.00 / no-rd-refine / no-lossless / cbqpoffs=0 / crqpoffs=0 / rc=crf / crf=19.0 / qcomp=0.60 / qpstep=4 / stats-write=0 / stats-read=0 / ipratio=1.40 / pbratio=1.30 / aq-mode=3 / aq-strength=1.00 / cutree / zone-count=0 / no-strict-cbr / qg-size=32 / no-rc-grain / qpmax=69 / qpmin=0 / no-const-vbv / sar=0 / overscan=0 / videoformat=5 / range=0 / colorprim=2 / transfer=2 / colormatrix=2 / chromaloc=0 / display-window=0 / max-cll=0,0 / min-luma=0 / max-luma=1023 / log2-max-poc-lsb=8 / vui-timing-info / vui-hrd-info / slices=1 / no-opt-qp-pps / no-opt-ref-list-length-pps / no-multi-pass-opt-rps / scenecut-bias=0.05 / no-opt-cu-delta-qp / no-aq-motion / no-hdr / no-hdr-opt / no-dhdr10-opt / no-idr-recovery-sei / analysis-reuse-level=5 / scale-factor=0 / refine-intra=0 / refine-inter=0 / refine-mv=0 / refine-ctu-distortion=0 / no-limit-sao / ctu-info=0 / no-lowpass-dct / refine-analysis-type=0 / copy-pic=1 / max-ausize-factor=1.0 / no-dynamic-refine / no-single-sei / no-hevc-aq / qp-adaptation-range=1.00
Default : Yes
Forced : No

Audio
ID : 2
Format : AAC
Format/Info : Advanced Audio Codec
Format profile : LC
Codec ID : A_AAC
Duration : 42 min 27 s
Bit rate : 448 kb/s
Channel(s) : 6 channels
Channel positions : Front: L C R, Side: L R, LFE
Sampling rate : 48.0 kHz
Frame rate : 46.875 FPS (1024 spf)
Compression mode : Lossy
Stream size : 136 MiB (15%)
Language : English
Default : Yes
Forced : No

Subtitle
ID : 3
Format : PGS
Muxing mode : zlib
Codec ID : S_HDMV/PGS
Codec ID/Info : Picture based subtitle format used on BDs/HD-DVDs
Duration : 42 min 22 s
Bit rate : 39.9 kb/s
Count of elements : 1232
Stream size : 12.1 MiB (1%)
Language : English
Default : No
Forced : No

Screens

Download

Season: Google Drive (13.48 GB)

6 thoughts on “The Vampire Diaries (2009) Season 1-8 (1080p BluRay x265 HEVC 10bit AAC 5.1 Vyndros)

Leave a Reply