The Originals (2013) Season 1-5 (1080p Mixed x265 HEVC 10bit AAC 5.1 Vyndros)

Summary: A spin-off from The Vampire Diaries, The Originals centers on the Mikaelson siblings, otherwise known as the world’s original vampires: Klaus, Elijah and Rebekah. Following a tip-off informing him there’s a plot brewing against him, Klaus goes back to New Orleans only to find his former protégé, Marcel, ruling the city. Having originally built it but been forced to flee from their vengeful father, Klaus resolves that they must take down Marcel and get back the city that once belonged to them. While doing that, they must also protect their city from a war brewing between vampires, werewolves and witches.

Season 01

The Originals (2013) Season 1 S01 (1080p BluRay x265 HEVC 10bit AAC 5.1 Vyndros)

Files

The Originals (2013) Season 1 S01 (1080p BluRay x265 HEVC 10bit AAC 5.1 Vyndros)
The.Originals.S01E01.Always.and.Forever.1080p.10bit.BluRay.AAC5.1.HEVC-Vyndros.mkv (798.7 MB)
The.Originals.S01E02.House.of.the.Rising.Son.1080p.10bit.BluRay.AAC5.1.HEVC-Vyndros.mkv (945.7 MB)
The.Originals.S01E03.Tangled.Up.in.Blue.1080p.10bit.BluRay.AAC5.1.HEVC-Vyndros.mkv (829.9 MB)
The.Originals.S01E04.Girl.in.New.Orleans.1080p.10bit.BluRay.AAC5.1.HEVC-Vyndros.mkv (767.4 MB)
The.Originals.S01E05.Sinners.and.Saints.1080p.10bit.BluRay.AAC5.1.HEVC-Vyndros.mkv (896.6 MB)
The.Originals.S01E06.Fruit.of.the.Poisoned.Tree.1080p.10bit.BluRay.AAC5.1.HEVC-Vyndros.mkv (795.5 MB)
The.Originals.S01E07.Bloodletting.1080p.10bit.BluRay.AAC5.1.HEVC-Vyndros.mkv (1,005.5 MB)
The.Originals.S01E08.The.River.in.Reverse.1080p.10bit.BluRay.AAC5.1.HEVC-Vyndros.mkv (704.6 MB)
The.Originals.S01E09.Reigning.Pain.in.New.Orleans.1080p.10bit.BluRay.AAC5.1.HEVC-Vyndros.mkv (727.3 MB)
The.Originals.S01E10.The.Casket.Girls.1080p.10bit.BluRay.AAC5.1.HEVC-Vyndros.mkv (759.9 MB)
The.Originals.S01E11.Après.Moi,.Le.Déluge.1080p.10bit.BluRay.AAC5.1.HEVC-Vyndros.mkv (858.2 MB)
The.Originals.S01E12.Dance.Back.from.the.Grave.1080p.10bit.BluRay.AAC5.1.HEVC-Vyndros.mkv (986.0 MB)
The.Originals.S01E13.Crescent.City.1080p.10bit.BluRay.AAC5.1.HEVC-Vyndros.mkv (932.1 MB)
The.Originals.S01E14.Long.Way.Back.from.Hell.1080p.10bit.BluRay.AAC5.1.HEVC-Vyndros.mkv (954.4 MB)
The.Originals.S01E15.Le.Grand.Guignol.1080p.10bit.BluRay.AAC5.1.HEVC-Vyndros.mkv (949.5 MB)
The.Originals.S01E16.Farewell.to.Storyville.1080p.10bit.BluRay.AAC5.1.HEVC-Vyndros.mkv (852.9 MB)
The.Originals.S01E17.Moon.Over.Bourbon.Street.1080p.10bit.BluRay.AAC5.1.HEVC-Vyndros.mkv (920.2 MB)
The.Originals.S01E18.The.Big.Uneasy.1080p.10bit.BluRay.AAC5.1.HEVC-Vyndros.mkv (934.1 MB)
The.Originals.S01E19.An.Unblinking.Death.1080p.10bit.BluRay.AAC5.1.HEVC-Vyndros.mkv (982.7 MB)
The.Originals.S01E20.A.Closer.Walk.with.Thee.1080p.10bit.BluRay.AAC5.1.HEVC-Vyndros.mkv (915.0 MB)
The.Originals.S01E21.The.Battle.of.New.Orleans.1080p.10bit.BluRay.AAC5.1.HEVC-Vyndros.mkv (988.4 MB)
The.Originals.S01E22.From.a.Cradle.to.a.Grave.1080p.10bit.BluRay.AAC5.1.HEVC-Vyndros.mkv (965.6 MB)

Mediainfo

General 
Format                                   : Matroska 
Format version                           : Version 4 / Version 2 
File size                                : 799 MiB 
Duration                                 : 42 min 27 s 
Overall bit rate                         : 2 630 kb/s 
Encoded date                             : UTC 2018-03-07 21:48:40 
Writing application                      : mkvmerge v15.0.0 ('Duel with the Devil') 64-bit 
Writing library                          : libebml v1.3.5 + libmatroska v1.4.5 
Writing frontend                         : StaxRip v1.7.0.0 

Video 
ID                                       : 1 
Format                                   : HEVC 
Format/Info                              : High Efficiency Video Coding 
Format profile                           : Main [email protected]@Main 
Codec ID                                 : V_MPEGH/ISO/HEVC 
Duration                                 : 42 min 26 s 
Bit rate                                 : 2 141 kb/s 
Width                                    : 1 920 pixels 
Height                                   : 1 080 pixels 
Display aspect ratio                     : 16:9 
Frame rate mode                          : Constant 
Frame rate                               : 23.976 (24000/1001) FPS 
Color space                              : YUV 
Chroma subsampling                       : 4:2:0 
Bit depth                                : 10 bits 
Bits/(Pixel*Frame)                       : 0.043 
Stream size                              : 650 MiB (81%) 
Writing library                          : x265 2.7+8-613d9f443769:[Windows][GCC 7.3.0][64 bit] 10bit 
Encoding settings                        : cpuid=1173503 / frame-threads=2 / numa-pools=4 / wpp / no-pmode / no-pme / no-psnr / ssim / log-level=2 / input-csp=1 / input-res=1920x1080 / interlace=0 / total-frames=61060 / level-idc=0 / high-tier=1 / uhd-bd=0 / ref=3 / no-allow-non-conformance / no-repeat-headers / annexb / no-aud / no-hrd / info / hash=0 / no-temporal-layers / open-gop / min-keyint=23 / keyint=250 / gop-lookahead=0 / bframes=8 / b-adapt=2 / b-pyramid / bframe-bias=0 / rc-lookahead=50 / lookahead-slices=6 / scenecut=40 / radl=0 / no-intra-refresh / ctu=64 / min-cu-size=8 / no-rect / no-amp / max-tu-size=32 / tu-inter-depth=1 / tu-intra-depth=1 / limit-tu=0 / rdoq-level=2 / dynamic-rd=0.00 / no-ssim-rd / signhide / no-tskip / nr-intra=0 / nr-inter=0 / no-constrained-intra / no-strong-intra-smoothing / max-merge=3 / limit-refs=3 / no-limit-modes / me=3 / subme=3 / merange=57 / temporal-mvp / weightp / no-weightb / no-analyze-src-pics / deblock=0:0 / sao / no-sao-non-deblock / rd=3 / no-early-skip / no-rskip / no-fast-intra / no-tskip-fast / no-cu-lossless / no-b-intra / no-splitrd-skip / rdpenalty=0 / psy-rd=2.00 / psy-rdoq=1.00 / no-rd-refine / no-lossless / cbqpoffs=0 / crqpoffs=0 / rc=crf / crf=20.0 / qcomp=0.60 / qpstep=4 / stats-write=0 / stats-read=0 / ipratio=1.40 / pbratio=1.30 / aq-mode=3 / aq-strength=1.00 / cutree / zone-count=0 / no-strict-cbr / qg-size=32 / no-rc-grain / qpmax=69 / qpmin=0 / no-const-vbv / sar=0 / overscan=0 / videoformat=5 / range=0 / colorprim=2 / transfer=2 / colormatrix=2 / chromaloc=0 / display-window=0 / max-cll=0,0 / min-luma=0 / max-luma=1023 / log2-max-poc-lsb=8 / vui-timing-info / vui-hrd-info / slices=1 / no-opt-qp-pps / no-opt-ref-list-length-pps / no-multi-pass-opt-rps / scenecut-bias=0.05 / no-opt-cu-delta-qp / no-aq-motion / no-hdr / no-hdr-opt / no-dhdr10-opt / analysis-reuse-level=5 / scale-factor=0 / refine-intra=0 / refine-inter=0 / refine-mv=0 / no-limit-sao / ctu-info=0 / no-lowpass-dct / refine-mv-type=0 / copy-pic=1 / max-ausize-factor=1.0 
Default                                  : Yes 
Forced                                   : No 

Audio 
ID                                       : 2 
Format                                   : AAC 
Format/Info                              : Advanced Audio Codec 
Format profile                           : LC 
Codec ID                                 : A_AAC 
Duration                                 : 42 min 27 s 
Bit rate                                 : 448 kb/s 
Channel(s)                               : 6 channels 
Channel positions                        : Front: L C R, Side: L R, LFE 
Sampling rate                            : 48.0 kHz 
Frame rate                               : 46.875 FPS (1024 spf) 
Compression mode                         : Lossy 
Stream size                              : 136 MiB (17%) 
Language                                 : English 
Default                                  : Yes 
Forced                                   : No 

Subtitle 
ID                                       : 3 
Format                                   : PGS 
Muxing mode                              : zlib 
Codec ID                                 : S_HDMV/PGS 
Codec ID/Info                            : Picture based subtitle format used on BDs/HD-DVDs 
Duration                                 : 42 min 19 s 
Bit rate                                 : 86.9 kb/s 
Count of elements                        : 1516 
Stream size                              : 26.3 MiB (3%) 
Language                                 : English 
Default                                  : No 
Forced                                   : No

Download

Download: Google Drive (19.01 GB)

Season 02

The Originals (2013) Season 2 S02 (1080p BluRay x265 HEVC 10bit AAC 5.1 Vyndros)

Files

The Originals (2013) Season 2 S02 (1080p BluRay x265 HEVC 10bit AAC 5.1 Vyndros)
The.Originals.S02E01.Rebirth.1080p.10bit.BluRay.AAC5.1.HEVC-Vyndros.mkv (1.0 GB)
The.Originals.S02E02.Alive.&.Kicking.1080p.10bit.BluRay.AAC5.1.HEVC-Vyndros.mkv (923.3 MB)
The.Originals.S02E03.Every.Mother's.Son.1080p.10bit.BluRay.AAC5.1.HEVC-Vyndros.mkv (849.7 MB)
The.Originals.S02E04.Live.and.Let.Die.1080p.10bit.BluRay.AAC5.1.HEVC-Vyndros.mkv (931.3 MB)
The.Originals.S02E05.Red.Door.1080p.10bit.BluRay.AAC5.1.HEVC-Vyndros.mkv (970.5 MB)
The.Originals.S02E06.Wheel.Inside.the.Wheel.1080p.10bit.BluRay.AAC5.1.HEVC-Vyndros.mkv (981.6 MB)
The.Originals.S02E07.Chasing.the.Devil's.Tail.1080p.10bit.BluRay.AAC5.1.HEVC-Vyndros.mkv (896.4 MB)
The.Originals.S02E08.The.Brothers.That.Care.Forgot.1080p.10bit.BluRay.AAC5.1.HEVC-Vyndros.mkv (928.2 MB)
The.Originals.S02E09.The.Map.of.Moments.1080p.10bit.BluRay.AAC5.1.HEVC-Vyndros.mkv (936.8 MB)
The.Originals.S02E10.Gonna.Set.Your.Flag.on.Fire.1080p.10bit.BluRay.AAC5.1.HEVC-Vyndros.mkv (830.9 MB)
The.Originals.S02E11.Brotherhood.of.the.Damned.1080p.10bit.BluRay.AAC5.1.HEVC-Vyndros.mkv (935.7 MB)
The.Originals.S02E12.Sanctuary.1080p.10bit.BluRay.AAC5.1.HEVC-Vyndros.mkv (913.0 MB)
The.Originals.S02E13.The.Devil.Is.Damned.1080p.10bit.BluRay.AAC5.1.HEVC-Vyndros.mkv (1,005.5 MB)
The.Originals.S02E14.I.Love.You,.Goodbye.1080p.10bit.BluRay.AAC5.1.HEVC-Vyndros.mkv (944.9 MB)
The.Originals.S02E15.They.All.Asked.for.You.1080p.10bit.BluRay.AAC5.1.HEVC-Vyndros.mkv (928.1 MB)
The.Originals.S02E16.Save.My.Soul.1080p.10bit.BluRay.AAC5.1.HEVC-Vyndros.mkv (827.9 MB)
The.Originals.S02E17.Exquisite.Corpse.1080p.10bit.BluRay.AAC5.1.HEVC-Vyndros.mkv (1,022.7 MB)
The.Originals.S02E18.Night.Has.a.Thousand.Eyes.1080p.10bit.BluRay.AAC5.1.HEVC-Vyndros.mkv (893.0 MB)
The.Originals.S02E19.When.the.Levee.Breaks.1080p.10bit.BluRay.AAC5.1.HEVC-Vyndros.mkv (934.3 MB)
The.Originals.S02E20.City.Beneath.The.Sea.1080p.10bit.BluRay.AAC5.1.HEVC-Vyndros.mkv (1,006.7 MB)
The.Originals.S02E21.Fire.with.Fire.1080p.10bit.BluRay.AAC5.1.HEVC-Vyndros.mkv (1,004.8 MB)
The.Originals.S02E22.Ashes.to.Ashes.1080p.10bit.BluRay.AAC5.1.HEVC-Vyndros.mkv (1.0 GB)

Mediainfo

General 
Format : Matroska 
Format version : Version 4 / Version 2 
File size : 928 MiB 
Duration : 42 min 32 s 
Overall bit rate : 3 050 kb/s 
Encoded date : UTC 2018-03-23 10:27:50 
Writing application : mkvmerge v21.0.0 ('Tardigrades Will Inherit The Earth') 64-bit 
Writing library : libebml v1.3.5 + libmatroska v1.4.8 
Writing frontend : StaxRip v1.7.0.0 

Video 
ID : 1 
Format : HEVC 
Format/Info : High Efficiency Video Coding 
Format profile : Main [email protected]@Main 
Codec ID : V_MPEGH/ISO/HEVC 
Duration : 42 min 31 s 
Bit rate : 2 585 kb/s 
Width : 1 920 pixels 
Height : 1 080 pixels 
Display aspect ratio : 16:9 
Frame rate mode : Constant 
Frame rate : 23.976 (24000/1001) FPS 
Color space : YUV 
Chroma subsampling : 4:2:0 
Bit depth : 10 bits 
Bits/(Pixel*Frame) : 0.052 
Stream size : 786 MiB (85%) 
Writing library : x265 2.7+12-98e48e8dd6ab:[Windows][GCC 7.3.0][64 bit] 10bit 
Encoding settings : cpuid=1173503 / frame-threads=2 / numa-pools=4 / wpp / no-pmode / no-pme / no-psnr / ssim / log-level=2 / input-csp=1 / input-res=1920x1080 / interlace=0 / total-frames=61165 / level-idc=0 / high-tier=1 / uhd-bd=0 / ref=3 / no-allow-non-conformance / no-repeat-headers / annexb / no-aud / no-hrd / info / hash=0 / no-temporal-layers / open-gop / min-keyint=23 / keyint=250 / gop-lookahead=0 / bframes=8 / b-adapt=2 / b-pyramid / bframe-bias=0 / rc-lookahead=50 / lookahead-slices=6 / scenecut=40 / radl=0 / no-intra-refresh / ctu=64 / min-cu-size=8 / no-rect / no-amp / max-tu-size=32 / tu-inter-depth=1 / tu-intra-depth=1 / limit-tu=0 / rdoq-level=2 / dynamic-rd=0.00 / no-ssim-rd / signhide / no-tskip / nr-intra=0 / nr-inter=0 / no-constrained-intra / no-strong-intra-smoothing / max-merge=3 / limit-refs=3 / no-limit-modes / me=3 / subme=3 / merange=57 / temporal-mvp / weightp / no-weightb / no-analyze-src-pics / deblock=0:0 / sao / no-sao-non-deblock / rd=3 / no-early-skip / no-rskip / no-fast-intra / no-tskip-fast / no-cu-lossless / no-b-intra / no-splitrd-skip / rdpenalty=0 / psy-rd=2.00 / psy-rdoq=1.00 / no-rd-refine / no-lossless / cbqpoffs=0 / crqpoffs=0 / rc=crf / crf=20.0 / qcomp=0.60 / qpstep=4 / stats-write=0 / stats-read=0 / ipratio=1.40 / pbratio=1.30 / aq-mode=3 / aq-strength=1.00 / cutree / zone-count=0 / no-strict-cbr / qg-size=32 / no-rc-grain / qpmax=69 / qpmin=0 / no-const-vbv / sar=0 / overscan=0 / videoformat=5 / range=0 / colorprim=2 / transfer=2 / colormatrix=2 / chromaloc=0 / display-window=0 / max-cll=0,0 / min-luma=0 / max-luma=1023 / log2-max-poc-lsb=8 / vui-timing-info / vui-hrd-info / slices=1 / no-opt-qp-pps / no-opt-ref-list-length-pps / no-multi-pass-opt-rps / scenecut-bias=0.05 / no-opt-cu-delta-qp / no-aq-motion / no-hdr / no-hdr-opt / no-dhdr10-opt / no-idr-recovery-sei / analysis-reuse-level=5 / scale-factor=0 / refine-intra=0 / refine-inter=0 / refine-mv=0 / no-limit-sao / ctu-info=0 / no-lowpass-dct / refine-mv-type=0 / copy-pic=1 / max-ausize-factor=1.0 / no-dynamic-refine 
Default : Yes 
Forced : No 

Audio 
ID : 2 
Format : AAC 
Format/Info : Advanced Audio Codec 
Format profile : LC 
Codec ID : A_AAC 
Duration : 42 min 32 s 
Bit rate : 445 kb/s 
Channel(s) : 6 channels 
Channel positions : Front: L C R, Side: L R, LFE 
Sampling rate : 48.0 kHz 
Frame rate : 46.875 FPS (1024 spf) 
Compression mode : Lossy 
Stream size : 136 MiB (15%) 
Title : DTS-HD Master Audio _ 5.1 _ 48 kHz _ 2151 kbps _ 16-bit 
Language : English 
Default : Yes 
Forced : No 

Subtitle 
ID : 3 
Format : PGS 
Muxing mode : zlib 
Codec ID : S_HDMV/PGS 
Codec ID/Info : Picture based subtitle format used on BDs/HD-DVDs 
Duration : 42 min 26 s 
Bit rate : 41.6 kb/s 
Count of elements : 1202 
Stream size : 12.6 MiB (1%) 
Language : English 
Default : No 
Forced : No

Download

Download: Google Drive (20.31 GB)

Season 03

The Originals (2013) Season 3 S03 (1080p BluRay x265 HEVC 10bit AAC 5.1 Vyndros)

Files

The Originals (2013) Season 3 S03 (1080p BluRay x265 HEVC 10bit AAC 5.1 Vyndros)
The.Originals.S03E01.For.The.Next.Millennium.1080p.10bit.BluRay.AAC5.1.HEVC-Vyndros.mkv (866.5 MB)
The.Originals.S03E02.You.Hung.the.Moon.1080p.10bit.BluRay.AAC5.1.HEVC-Vyndros.mkv (814.5 MB)
The.Originals.S03E03.I’ll.See.You.in.Hell.or.New.Orleans.1080p.10bit.BluRay.AAC5.1.HEVC-Vyndros.mkv (823.6 MB)
The.Originals.S03E04.A.Walk.on.the.Wild.Side.1080p.10bit.BluRay.AAC5.1.HEVC-Vyndros.mkv (813.9 MB)
The.Originals.S03E05.The.Axeman's.Letter.1080p.10bit.BluRay.AAC5.1.HEVC-Vyndros.mkv (723.0 MB)
The.Originals.S03E06.Beautiful.Mistake.1080p.10bit.BluRay.AAC5.1.HEVC-Vyndros.mkv (783.4 MB)
The.Originals.S03E07.Out.of.the.Easy.1080p.10bit.BluRay.AAC5.1.HEVC-Vyndros.mkv (796.4 MB)
The.Originals.S03E08.The.Other.Girl.in.New.Orleans.1080p.10bit.BluRay.AAC5.1.HEVC-Vyndros.mkv (729.2 MB)
The.Originals.S03E09.Savior.1080p.10bit.BluRay.AAC5.1.HEVC-Vyndros.mkv (846.7 MB)
The.Originals.S03E10.A.Ghost.Along.the.Mississippi.1080p.10bit.BluRay.AAC5.1.HEVC-Vyndros.mkv (736.8 MB)
The.Originals.S03E11.Wild.at.Heart.1080p.10bit.BluRay.AAC5.1.HEVC-Vyndros.mkv (740.8 MB)
The.Originals.S03E12.Dead.Angels.1080p.10bit.BluRay.AAC5.1.HEVC-Vyndros.mkv (720.7 MB)
The.Originals.S03E13.Heart.Shaped.Box.1080p.10bit.BluRay.AAC5.1.HEVC-Vyndros.mkv (814.0 MB)
The.Originals.S03E14.A.Streetcar.Named.Desire.1080p.10bit.BluRay.AAC5.1.HEVC-Vyndros.mkv (651.9 MB)
The.Originals.S03E15.An.Old.Friend.Calls.1080p.10bit.BluRay.AAC5.1.HEVC-Vyndros.mkv (641.6 MB)
The.Originals.S03E16.Alone.with.Everybody.1080p.10bit.BluRay.AAC5.1.HEVC-Vyndros.mkv (761.1 MB)
The.Originals.S03E17.Behind.the.Black.Horizon.1080p.10bit.BluRay.AAC5.1.HEVC-Vyndros.mkv (850.7 MB)
The.Originals.S03E18.The.Devil.Comes.Here.and.Sighs.1080p.10bit.BluRay.AAC5.1.HEVC-Vyndros.mkv (740.9 MB)
The.Originals.S03E19.No.More.Heartbreaks.1080p.10bit.BluRay.AAC5.1.HEVC-Vyndros.mkv (779.7 MB)
The.Originals.S03E20.Where.Nothing.Stays.Buried.1080p.10bit.BluRay.AAC5.1.HEVC-Vyndros.mkv (783.2 MB)
The.Originals.S03E21.Give.'Em.Hell.Kid.1080p.10bit.BluRay.AAC5.1.HEVC-Vyndros.mkv (801.9 MB)
The.Originals.S03E22.The.Bloody.Crown.1080p.10bit.BluRay.AAC5.1.HEVC-Vyndros.mkv (741.5 MB)

Mediainfo

General 
Format : Matroska 
Format version : Version 4 / Version 2 
File size : 783 MiB 
Duration : 41 min 30 s 
Overall bit rate : 2 638 kb/s 
Encoded date : UTC 2018-04-09 23:25:32 
Writing application : mkvmerge v22.0.0 ('At The End Of The World') 64-bit 
Writing library : libebml v1.3.5 + libmatroska v1.4.8 
Writing frontend : StaxRip v1.7.0.0 

Video 
ID : 1 
Format : HEVC 
Format/Info : High Efficiency Video Coding 
Format profile : Main [email protected]@Main 
Codec ID : V_MPEGH/ISO/HEVC 
Duration : 41 min 30 s 
Bit rate : 2 176 kb/s 
Width : 1 920 pixels 
Height : 1 080 pixels 
Display aspect ratio : 16:9 
Frame rate mode : Constant 
Frame rate : 23.976 (24000/1001) FPS 
Color space : YUV 
Chroma subsampling : 4:2:0 
Bit depth : 10 bits 
Bits/(Pixel*Frame) : 0.044 
Stream size : 646 MiB (83%) 
Writing library : x265 2.7+22-946f82dbf4e8:[Windows][GCC 7.3.0][64 bit] 10bit 
Encoding settings : cpuid=1173503 / frame-threads=2 / numa-pools=4 / wpp / no-pmode / no-pme / no-psnr / ssim / log-level=2 / input-csp=1 / input-res=1920x1080 / interlace=0 / total-frames=59718 / level-idc=0 / high-tier=1 / uhd-bd=0 / ref=3 / no-allow-non-conformance / no-repeat-headers / annexb / no-aud / no-hrd / info / hash=0 / no-temporal-layers / open-gop / min-keyint=23 / keyint=250 / gop-lookahead=0 / bframes=8 / b-adapt=2 / b-pyramid / bframe-bias=0 / rc-lookahead=50 / lookahead-slices=6 / scenecut=40 / radl=0 / no-intra-refresh / ctu=64 / min-cu-size=8 / no-rect / no-amp / max-tu-size=32 / tu-inter-depth=1 / tu-intra-depth=1 / limit-tu=0 / rdoq-level=2 / dynamic-rd=0.00 / no-ssim-rd / signhide / no-tskip / nr-intra=0 / nr-inter=0 / no-constrained-intra / no-strong-intra-smoothing / max-merge=3 / limit-refs=3 / no-limit-modes / me=3 / subme=3 / merange=57 / temporal-mvp / weightp / no-weightb / no-analyze-src-pics / deblock=0:0 / sao / no-sao-non-deblock / rd=3 / no-early-skip / no-rskip / no-fast-intra / no-tskip-fast / no-cu-lossless / no-b-intra / no-splitrd-skip / rdpenalty=0 / psy-rd=2.00 / psy-rdoq=1.00 / no-rd-refine / no-lossless / cbqpoffs=0 / crqpoffs=0 / rc=crf / crf=20.0 / qcomp=0.60 / qpstep=4 / stats-write=0 / stats-read=0 / ipratio=1.40 / pbratio=1.30 / aq-mode=3 / aq-strength=1.00 / cutree / zone-count=0 / no-strict-cbr / qg-size=32 / no-rc-grain / qpmax=69 / qpmin=0 / no-const-vbv / sar=0 / overscan=0 / videoformat=5 / range=0 / colorprim=2 / transfer=2 / colormatrix=2 / chromaloc=0 / display-window=0 / max-cll=0,0 / min-luma=0 / max-luma=1023 / log2-max-poc-lsb=8 / vui-timing-info / vui-hrd-info / slices=1 / no-opt-qp-pps / no-opt-ref-list-length-pps / no-multi-pass-opt-rps / scenecut-bias=0.05 / no-opt-cu-delta-qp / no-aq-motion / no-hdr / no-hdr-opt / no-dhdr10-opt / no-idr-recovery-sei / analysis-reuse-level=5 / scale-factor=0 / refine-intra=0 / refine-inter=0 / refine-mv=0 / no-limit-sao / ctu-info=0 / no-lowpass-dct / refine-mv-type=0 / copy-pic=1 / max-ausize-factor=1.0 / no-dynamic-refine 
Default : Yes 
Forced : No 

Audio 
ID : 2 
Format : AAC 
Format/Info : Advanced Audio Codec 
Format profile : LC 
Codec ID : A_AAC 
Duration : 41 min 30 s 
Bit rate : 449 kb/s 
Channel(s) : 6 channels 
Channel positions : Front: L C R, Side: L R, LFE 
Sampling rate : 48.0 kHz 
Frame rate : 46.875 FPS (1024 spf) 
Compression mode : Lossy 
Stream size : 133 MiB (17%) 
Title : DTS-HD Master Audio _ 5.1 _ 48 kHz _ 2177 kbps _ 16-bit 
Language : English 
Default : Yes 
Forced : No 

Subtitle 
ID : 3 
Format : PGS 
Muxing mode : zlib 
Codec ID : S_HDMV/PGS 
Codec ID/Info : Picture based subtitle format used on BDs/HD-DVDs 
Duration : 41 min 26 s 
Bit rate : 35.2 kb/s 
Count of elements : 998 
Stream size : 10.4 MiB (1%) 
Language : English 
Default : No 
Forced : No

Download

Download: Google Drive (16.56 GB)

Season 04

The Originals (2013) Season 4 S04 (1080p BluRay x265 HEVC 10bit AAC 5.1 Vyndros)

Files

The Originals (2013) Season 4 S04 (1080p BluRay x265 HEVC 10bit AAC 5.1 Vyndros)
The.Originals.S04E01.Gather.Up.The.Killers.1080p.10bit.BluRay.AAC5.1.HEVC-Vyndros.mkv (745.2 MB)
The.Originals.S04E02.No.Quarter.1080p.10bit.BluRay.AAC5.1.HEVC-Vyndros.mkv (859.2 MB)
The.Originals.S04E03.Haunter.of.Ruins.1080p.10bit.BluRay.AAC5.1.HEVC-Vyndros.mkv (799.5 MB)
The.Originals.S04E04.Keepers.of.the.House.1080p.10bit.BluRay.AAC5.1.HEVC-Vyndros.mkv (762.4 MB)
The.Originals.S04E05.I.Hear.You.Knocking.1080p.10bit.BluRay.AAC5.1.HEVC-Vyndros.mkv (863.1 MB)
The.Originals.S04E06.Bag.of.Cobras.1080p.10bit.BluRay.AAC5.1.HEVC-Vyndros.mkv (637.6 MB)
The.Originals.S04E07.High.Water.and.a.Devil's.Daughter.1080p.10bit.BluRay.AAC5.1.HEVC-Vyndros.mkv (698.6 MB)
The.Originals.S04E08.Voodoo.in.My.Blood.1080p.10bit.BluRay.AAC5.1.HEVC-Vyndros.mkv (647.1 MB)
The.Originals.S04E09.Queen.Death.1080p.10bit.BluRay.AAC5.1.HEVC-Vyndros.mkv (720.8 MB)
The.Originals.S04E10.Phantomesque.1080p.10bit.BluRay.AAC5.1.HEVC-Vyndros.mkv (700.3 MB)
The.Originals.S04E11.A.Spirit.Here.That.Won't.Be.Broken.1080p.10bit.BluRay.AAC5.1.HEVC-Vyndros.mkv (747.5 MB)
The.Originals.S04E12.Voodoo.Child.1080p.10bit.BluRay.AAC5.1.HEVC-Vyndros.mkv (656.0 MB)
The.Originals.S04E13.The.Feast.of.All.Sinners.1080p.10bit.BluRay.AAC5.1.HEVC-Vyndros.mkv (712.3 MB)

Mediainfo

General 
Format : Matroska 
Format version : Version 4 / Version 2 
File size : 859 MiB 
Duration : 42 min 28 s 
Overall bit rate : 2 828 kb/s 
Encoded date : UTC 2018-04-09 22:03:37 
Writing application : mkvmerge v15.0.0 ('Duel with the Devil') 64-bit 
Writing library : libebml v1.3.5 + libmatroska v1.4.5 
Writing frontend : StaxRip v1.7.0.0 

Video 
ID : 1 
Format : HEVC 
Format/Info : High Efficiency Video Coding 
Format profile : Main [email protected]@Main 
Codec ID : V_MPEGH/ISO/HEVC 
Duration : 42 min 28 s 
Bit rate : 2 322 kb/s 
Width : 1 920 pixels 
Height : 1 080 pixels 
Display aspect ratio : 16:9 
Frame rate mode : Constant 
Frame rate : 23.976 (24000/1001) FPS 
Color space : YUV 
Chroma subsampling : 4:2:0 
Bit depth : 10 bits 
Bits/(Pixel*Frame) : 0.047 
Stream size : 706 MiB (82%) 
Writing library : x265 2.7+22-946f82dbf4e8:[Windows][GCC 7.3.0][64 bit] 10bit 
Encoding settings : cpuid=1173503 / frame-threads=2 / numa-pools=4 / wpp / no-pmode / no-pme / no-psnr / ssim / log-level=2 / input-csp=1 / input-res=1920x1080 / interlace=0 / total-frames=61104 / level-idc=0 / high-tier=1 / uhd-bd=0 / ref=3 / no-allow-non-conformance / no-repeat-headers / annexb / no-aud / no-hrd / info / hash=0 / no-temporal-layers / open-gop / min-keyint=23 / keyint=250 / gop-lookahead=0 / bframes=8 / b-adapt=2 / b-pyramid / bframe-bias=0 / rc-lookahead=50 / lookahead-slices=6 / scenecut=40 / radl=0 / no-intra-refresh / ctu=64 / min-cu-size=8 / no-rect / no-amp / max-tu-size=32 / tu-inter-depth=1 / tu-intra-depth=1 / limit-tu=0 / rdoq-level=2 / dynamic-rd=0.00 / no-ssim-rd / signhide / no-tskip / nr-intra=0 / nr-inter=0 / no-constrained-intra / no-strong-intra-smoothing / max-merge=3 / limit-refs=3 / no-limit-modes / me=3 / subme=3 / merange=57 / temporal-mvp / weightp / no-weightb / no-analyze-src-pics / deblock=0:0 / sao / no-sao-non-deblock / rd=3 / no-early-skip / no-rskip / no-fast-intra / no-tskip-fast / no-cu-lossless / no-b-intra / no-splitrd-skip / rdpenalty=0 / psy-rd=2.00 / psy-rdoq=1.00 / no-rd-refine / no-lossless / cbqpoffs=0 / crqpoffs=0 / rc=crf / crf=20.0 / qcomp=0.60 / qpstep=4 / stats-write=0 / stats-read=0 / ipratio=1.40 / pbratio=1.30 / aq-mode=3 / aq-strength=1.00 / cutree / zone-count=0 / no-strict-cbr / qg-size=32 / no-rc-grain / qpmax=69 / qpmin=0 / no-const-vbv / sar=0 / overscan=0 / videoformat=5 / range=0 / colorprim=2 / transfer=2 / colormatrix=2 / chromaloc=0 / display-window=0 / max-cll=0,0 / min-luma=0 / max-luma=1023 / log2-max-poc-lsb=8 / vui-timing-info / vui-hrd-info / slices=1 / no-opt-qp-pps / no-opt-ref-list-length-pps / no-multi-pass-opt-rps / scenecut-bias=0.05 / no-opt-cu-delta-qp / no-aq-motion / no-hdr / no-hdr-opt / no-dhdr10-opt / no-idr-recovery-sei / analysis-reuse-level=5 / scale-factor=0 / refine-intra=0 / refine-inter=0 / refine-mv=0 / no-limit-sao / ctu-info=0 / no-lowpass-dct / refine-mv-type=0 / copy-pic=1 / max-ausize-factor=1.0 / no-dynamic-refine 
Default : Yes 
Forced : No 

Audio 
ID : 2 
Format : AAC 
Format/Info : Advanced Audio Codec 
Format profile : LC 
Codec ID : A_AAC 
Duration : 42 min 28 s 
Bit rate : 446 kb/s 
Channel(s) : 6 channels 
Channel positions : Front: L C R, Side: L R, LFE 
Sampling rate : 48.0 kHz 
Frame rate : 46.875 FPS (1024 spf) 
Compression mode : Lossy 
Stream size : 136 MiB (16%) 
Language : English 
Default : Yes 
Forced : No 

Subtitle 
ID : 3 
Format : PGS 
Muxing mode : zlib 
Codec ID : S_HDMV/PGS 
Codec ID/Info : Picture based subtitle format used on BDs/HD-DVDs 
Duration : 41 min 50 s 
Bit rate : 94.7 kb/s 
Count of elements : 1692 
Stream size : 28.3 MiB (3%) 
Language : English 
Default : No 
Forced : No

Download

Download: Google Drive (9.33 GB)

Season 05

The Originals (2013) Season 5 S05 (1080p AMZN WEB-DL x265 HEVC 10bit AAC 5.1 Vyndros)

Files

The Originals (2013) Season 5 S05 (1080p AMZN WEB-DL x265 HEVC 10bit AAC 5.1 Vyndros)
The.Originals.S05E01.Where.You.Left.Your.Heart.1080p.10bit.AMZN.WEB-DL.AAC5.1.HEVC-Vyndros.mkv (657.6 MB)
The.Originals.S05E02.One.Wrong.Turn.On.Bourbon.1080p.10bit.AMZN.WEB-DL.AAC5.1.HEVC-Vyndros.mkv (670.0 MB)
The.Originals.S05E03.Ne.Me.Quitte.Pas.1080p.10bit.AMZN.WEB-DL.AAC5.1.HEVC-Vyndros.mkv (628.4 MB)
The.Originals.S05E04.Between.the.Devil.and.the.Deep.Blue.Sea.1080p.10bit.AMZN.WEB-DL.AAC5.1.HEVC-Vyndros.mkv (692.2 MB)
The.Originals.S05E05.Don't.It.Just.Break.Your.Heart.1080p.10bit.AMZN.WEB-DL.AAC5.1.HEVC-Vyndros.mkv (630.9 MB)
The.Originals.S05E06.What,.Will,.I,.Have,.Left.1080p.10bit.AMZN.WEB-DL.AAC5.1.HEVC-Vyndros.mkv (600.6 MB)
The.Originals.S05E07.God's.Gonna.Trouble.the.Water.1080p.10bit.AMZN.WEB-DL.AAC5.1.HEVC-Vyndros.mkv (700.7 MB)
The.Originals.S05E08.The.Kindness.of.Strangers.1080p.10bit.AMZN.WEB-DL.AAC5.1.HEVC-Vyndros.mkv (609.9 MB)
The.Originals.S05E09.We.Have.Not.Long.To.Love.1080p.10bit.AMZN.WEB-DL.AAC5.1.HEVC-Vyndros.mkv (668.7 MB)
The.Originals.S05E10.There.in.the.Disappearing.Light.1080p.10bit.AMZN.WEB-DL.AAC5.1.HEVC-Vyndros.mkv (630.7 MB)
The.Originals.S05E11.Til.the.Day.I.Die.1080p.10bit.AMZN.WEB-DL.AAC5.1.HEVC-Vyndros.mkv (656.7 MB)
The.Originals.S05E12.The.Tale.of.Two.Wolves.1080p.10bit.AMZN.WEB-DL.AAC5.1.HEVC-Vyndros.mkv (698.0 MB)
The.Originals.S05E13.When.The.Saints.Go.Marching.In.1080p.10bit.AMZN.WEB-DL.AAC5.1.HEVC-Vyndros.mkv (587.9 MB)

Mediainfo

General 
Format : Matroska 
Format version : Version 4 / Version 2 
File size : 588 MiB 
Duration : 42 min 21 s 
Overall bit rate : 1 940 kb/s 
Encoded date : UTC 2018-08-03 03:31:46 
Writing application : mkvmerge v20.0.0 ('I Am The Sun') 64-bit 
Writing library : libebml v1.3.5 + libmatroska v1.4.8 
Writing frontend : StaxRip v1.7.0.6 

Video 
ID : 1 
Format : HEVC 
Format/Info : High Efficiency Video Coding 
Format profile : Main [email protected]@Main 
Codec ID : V_MPEGH/ISO/HEVC 
Duration : 42 min 21 s 
Bit rate : 1 489 kb/s 
Width : 1 920 pixels 
Height : 1 080 pixels 
Display aspect ratio : 16:9 
Frame rate mode : Constant 
Frame rate : 23.976 (24000/1001) FPS 
Color space : YUV 
Chroma subsampling : 4:2:0 
Bit depth : 10 bits 
Bits/(Pixel*Frame) : 0.030 
Stream size : 451 MiB (77%) 
Writing library : x265 2.8+47-e2759ae31c36:[Windows][GCC 7.3.0][64 bit] 10bit 
Encoding settings : cpuid=1111039 / frame-threads=3 / numa-pools=12 / wpp / no-pmode / no-pme / no-psnr / ssim / log-level=2 / input-csp=1 / input-res=1920x1080 / interlace=0 / total-frames=60939 / level-idc=0 / high-tier=1 / uhd-bd=0 / ref=3 / no-allow-non-conformance / no-repeat-headers / annexb / no-aud / no-hrd / info / hash=0 / no-temporal-layers / open-gop / min-keyint=23 / keyint=250 / gop-lookahead=0 / bframes=8 / b-adapt=2 / b-pyramid / bframe-bias=0 / rc-lookahead=50 / lookahead-slices=6 / scenecut=40 / radl=0 / no-intra-refresh / ctu=64 / min-cu-size=8 / no-rect / no-amp / max-tu-size=32 / tu-inter-depth=1 / tu-intra-depth=1 / limit-tu=0 / rdoq-level=0 / dynamic-rd=0.00 / no-ssim-rd / signhide / no-tskip / nr-intra=0 / nr-inter=0 / no-constrained-intra / no-strong-intra-smoothing / max-merge=3 / limit-refs=3 / no-limit-modes / me=3 / subme=3 / merange=57 / temporal-mvp / weightp / no-weightb / no-analyze-src-pics / deblock=0:0 / sao / no-sao-non-deblock / rd=3 / no-early-skip / no-rskip / no-fast-intra / no-tskip-fast / no-cu-lossless / no-b-intra / no-splitrd-skip / rdpenalty=0 / psy-rd=2.00 / psy-rdoq=0.00 / no-rd-refine / no-lossless / cbqpoffs=0 / crqpoffs=0 / rc=crf / crf=19.0 / qcomp=0.60 / qpstep=4 / stats-write=0 / stats-read=0 / ipratio=1.40 / pbratio=1.30 / aq-mode=3 / aq-strength=0.80 / cutree / zone-count=0 / no-strict-cbr / qg-size=32 / no-rc-grain / qpmax=69 / qpmin=0 / no-const-vbv / sar=0 / overscan=0 / videoformat=5 / range=0 / colorprim=2 / transfer=2 / colormatrix=2 / chromaloc=0 / display-window=0 / max-cll=0,0 / min-luma=0 / max-luma=1023 / log2-max-poc-lsb=8 / vui-timing-info / vui-hrd-info / slices=1 / no-opt-qp-pps / no-opt-ref-list-length-pps / no-multi-pass-opt-rps / scenecut-bias=0.05 / no-opt-cu-delta-qp / no-aq-motion / no-hdr / no-hdr-opt / no-dhdr10-opt / no-idr-recovery-sei / analysis-reuse-level=5 / scale-factor=0 / refine-intra=0 / refine-inter=0 / refine-mv=0 / no-limit-sao / ctu-info=0 / no-lowpass-dct / refine-mv-type=0 / copy-pic=1 / max-ausize-factor=1.0 / no-dynamic-refine / no-single-sei 
Default : Yes 
Forced : No 

Audio 
ID : 2 
Format : AAC 
Format/Info : Advanced Audio Codec 
Format profile : LC 
Codec ID : A_AAC 
Duration : 42 min 21 s 
Bit rate : 449 kb/s 
Channel(s) : 6 channels 
Channel positions : Front: L C R, Side: L R, LFE 
Sampling rate : 48.0 kHz 
Frame rate : 46.875 FPS (1024 spf) 
Compression mode : Lossy 
Stream size : 136 MiB (23%) 
Language : English 
Default : Yes 
Forced : Yes 

Subtitle 
ID : 3 
Format : UTF-8 
Codec ID : S_TEXT/UTF8 
Codec ID/Info : UTF-8 Plain Text 
Duration : 41 min 28 s 
Bit rate : 65 b/s 
Count of elements : 663 
Stream size : 20.0 KiB (0%) 
Language : English 
Default : No 
Forced : No

Download

Download: Google Drive (8.23 GB)

2 thoughts on “The Originals (2013) Season 1-5 (1080p Mixed x265 HEVC 10bit AAC 5.1 Vyndros)

Leave a Reply