The Mandalorian (2019) Season 1 (1080p + 2160p HDR WEB-DL x265 HEVC 10bit)

Summary: “The Mandalorian” is set after the fall of the Empire and before the emergence of the First Order. We follow the travails of a lone gunfighter in the outer reaches of the galaxy, far from the authority of the New Republic.

1080p

The Mandalorian (2019) Season 1 S01 (1080p Disney+ WEB-DL x265 HEVC 10bit DDP 5.1 Vyndros)

Files

The Mandalorian (2019) Season 1 S01 (1080p DSNP WEB-DL x265 HEVC 10bit DDP 5.1 Vyndros)
The.Mandalorian.S01E01.Chapter.1.The.Mandalorian.1080p.10bit.DSNP.WEB-DL.DDP5.1.HEVC-Vyndros.mkv (719.0 MB)
The.Mandalorian.S01E02.Chapter.2.The.Child.1080p.10bit.DSNP.WEB-DL.DDP5.1.HEVC-Vyndros.mkv (638.1 MB)
The.Mandalorian.S01E03.Chapter.3.The.Sin.1080p.10bit.DSNP.WEB-DL.DDP5.1.HEVC-Vyndros.mkv (565.7 MB)
The.Mandalorian.S01E04.Chapter.4.Sanctuary.1080p.10bit.DSNP.WEB-DL.DDP5.1.HEVC-Vyndros.mkv (904.8 MB)
The.Mandalorian.S01E05.Chapter.5.The.Gunslinger.1080p.10bit.DSNP.WEB-DL.DDP5.1.HEVC-Vyndros.mkv (551.3 MB)
The.Mandalorian.S01E06.Chapter.6.The.Prisoner.1080p.10bit.DSNP.WEB-DL.DDP5.1.HEVC-Vyndros.mkv (731.3 MB)
The.Mandalorian.S01E07.Chapter.7.The.Reckoning.1080p.10bit.DSNP.WEB-DL.DDP5.1.HEVC-Vyndros.mkv (658.9 MB)
The.Mandalorian.S01E08.Chapter.8.Redemption.1080p.10bit.DSNP.WEB-DL.DDP5.1.HEVC-Vyndros.mkv (830.7 MB)

Mediainfo

General
Format : Matroska
Format version : Version 4 / Version 2
File size : 731 MiB
Duration : 43 min 18 s
Overall bit rate : 2 361 kb/s
Encoded date : UTC 2020-02-03 12:43:13
Writing application : mkvmerge v20.0.0 ('I Am The Sun') 64-bit
Writing library : libebml v1.3.5 + libmatroska v1.4.8
Writing frontend : StaxRip v1.7.0.6

Video
ID : 1
Format : HEVC
Format/Info : High Efficiency Video Coding
Format profile : Main [email protected]@Main
Codec ID : V_MPEGH/ISO/HEVC
Duration : 43 min 18 s
Bit rate : 1 617 kb/s
Width : 1 920 pixels
Height : 804 pixels
Display aspect ratio : 2.40:1
Frame rate mode : Constant
Frame rate : 23.976 (24000/1001) FPS
Color space : YUV
Chroma subsampling : 4:2:0
Bit depth : 10 bits
Bits/(Pixel*Frame) : 0.044
Stream size : 501 MiB (68%)
Writing library : x265 3.2+5-354901970679:[Windows][GCC 9.2.0][64 bit] 10bit
Encoding settings : cpuid=1111039 / frame-threads=3 / numa-pools=12 / wpp / no-pmode / no-pme / no-psnr / ssim / log-level=2 / input-csp=1 / input-res=1920x804 / interlace=0 / total-frames=62297 / level-idc=0 / high-tier=1 / uhd-bd=0 / ref=3 / no-allow-non-conformance / no-repeat-headers / annexb / no-aud / no-hrd / info / hash=0 / no-temporal-layers / open-gop / min-keyint=23 / keyint=250 / gop-lookahead=0 / bframes=8 / b-adapt=2 / b-pyramid / bframe-bias=0 / rc-lookahead=80 / lookahead-slices=5 / scenecut=40 / radl=0 / no-splice / no-intra-refresh / ctu=64 / min-cu-size=8 / no-rect / no-amp / max-tu-size=32 / tu-inter-depth=1 / tu-intra-depth=1 / limit-tu=0 / rdoq-level=0 / dynamic-rd=0.00 / no-ssim-rd / signhide / no-tskip / nr-intra=0 / nr-inter=0 / no-constrained-intra / no-strong-intra-smoothing / max-merge=3 / limit-refs=1 / no-limit-modes / me=3 / subme=5 / merange=57 / temporal-mvp / no-frame-dup / no-hme / weightp / no-weightb / no-analyze-src-pics / deblock=0:0 / sao / no-sao-non-deblock / rd=3 / selective-sao=4 / early-skip / no-rskip / no-fast-intra / no-tskip-fast / no-cu-lossless / b-intra / no-splitrd-skip / rdpenalty=0 / psy-rd=2.00 / psy-rdoq=0.00 / no-rd-refine / no-lossless / cbqpoffs=0 / crqpoffs=0 / rc=crf / crf=20.0 / qcomp=0.60 / qpstep=4 / stats-write=0 / stats-read=0 / ipratio=1.40 / pbratio=1.30 / aq-mode=3 / aq-strength=1.00 / cutree / zone-count=0 / no-strict-cbr / qg-size=32 / no-rc-grain / qpmax=69 / qpmin=0 / no-const-vbv / sar=0 / overscan=0 / videoformat=5 / range=0 / colorprim=2 / transfer=2 / colormatrix=2 / chromaloc=0 / display-window=0 / cll=0,0 / min-luma=0 / max-luma=1023 / log2-max-poc-lsb=8 / vui-timing-info / vui-hrd-info / slices=1 / no-opt-qp-pps / no-opt-ref-list-length-pps / no-multi-pass-opt-rps / scenecut-bias=0.05 / no-opt-cu-delta-qp / no-aq-motion / no-hdr / no-hdr-opt / no-dhdr10-opt / no-idr-recovery-sei / analysis-reuse-level=5 / scale-factor=0 / refine-intra=0 / refine-inter=0 / refine-mv=1 / refine-ctu-distortion=0 / no-limit-sao / ctu-info=0 / no-lowpass-dct / refine-analysis-type=0 / copy-pic=1 / max-ausize-factor=1.0 / no-dynamic-refine / no-single-sei / no-hevc-aq / no-svt / no-field / qp-adaptation-range=1.00
Default : Yes
Forced : No

Audio
ID : 2
Format : E-AC-3
Format/Info : Enhanced Audio Coding 3
Format settings, Endianness : Big
Codec ID : A_EAC3
Duration : 43 min 18 s
Bit rate mode : Constant
Bit rate : 768 kb/s
Channel(s) : 6 channels
Channel positions : Front: L C R, Side: L R, LFE
Sampling rate : 48.0 kHz
Frame rate : 187.500 FPS (256 spf)
Compression mode : Lossy
Stream size : 230 MiB (31%)
Language : English
Default : No
Forced : No

Screens

Download

Download: Google Drive (5.47 GB)

2160p

The Mandalorian (2019) Season 1 S01 (2160p WEBRip x265 HEVC 10bit HDR DTS 5.1 SAMPA)

Files

The Mandalorian (2019) - S01E06 - The Prisoner (2160p WEBRip x265 HDR SAMPA).mkv (4.3 GB)
The Mandalorian (2019) - S01E02 - The Child (2160p WEBRip x265 HDR SAMPA).mkv (2.2 GB)
The Mandalorian (2019) - S01E03 - The Sin (2160p WEBRip x265 HDR SAMPA).mkv (3.0 GB)
The Mandalorian (2019) - S01E04 - Sanctuary (2160p WEBRip x265 HDR SAMPA).mkv (3.8 GB)
The Mandalorian (2019) - S01E05 - The Gunslinger (2160p WEBRip x265 HDR SAMPA).mkv (3.2 GB)
The Mandalorian (2019) - S01E01 - The Mandalorian (2160p WEBRip x265 HDR SAMPA).mkv (3.7 GB)
The Mandalorian (2019) - S01E07 - The Reckoning (2160p WEBRip x265 HDR SAMPA).mkv (3.8 GB)
The Mandalorian (2019) - S01E08 - Redemption (2160p WEBRip x265 HDR SAMPA).mkv (3.5 GB)

Mediainfo

General
Format : Matroska
File Size : 3.72 GiB
Duration : 38 min 46 s
Overall Bit Rate : 13.7 Mb/s

Video
Format : HEVC
Format Profile : Main [email protected]@Main
Bit Rate : 11.9 Mb/s
Dimensions : 3840 pixels x 1608 pixels
Display Aspect Ratio : 2.40:1
Frame Rate : 23.976 (24000/1001) FPS
Writing Library : x265 3.2+9-971180b100f8:[Windows][GCC 9.2.0][64 bit] 10bit
Encoding Settings : cpuid=1049583 / frame-threads=5 / numa-pools=16,16 / wpp / no-pmode / no-pme / no-psnr / no-ssim / log-level=2 / input-csp=1 / input-res=3840x1608 / interlace=0 / total-frames=55773 / level-idc=0 / high-tier=1 / uhd-bd=0 / ref=4 / no-allow-non-conformance / repeat-headers / annexb / no-aud / no-hrd / info / hash=0 / no-temporal-layers / open-gop / min-keyint=23 / keyint=250 / gop-lookahead=0 / bframes=4 / b-adapt=2 / b-pyramid / bframe-bias=0 / rc-lookahead=40 / lookahead-slices=4 / scenecut=40 / radl=0 / no-splice / no-intra-refresh / ctu=64 / min-cu-size=8 / rect / no-amp / max-tu-size=32 / tu-inter-depth=1 / tu-intra-depth=1 / limit-tu=0 / rdoq-level=2 / dynamic-rd=0.00 / no-ssim-rd / signhide / no-tskip / nr-intra=0 / nr-inter=0 / no-constrained-intra / strong-intra-smoothing / max-merge=3 / limit-refs=3 / limit-modes / me=3 / subme=3 / merange=57 / temporal-mvp / no-frame-dup / no-hme / weightp / no-weightb / no-analyze-src-pics / deblock=0:0 / sao / sao-non-deblock / rd=4 / selective-sao=4 / no-early-skip / rskip / no-fast-intra / no-tskip-fast / no-cu-lossless / no-b-intra / no-splitrd-skip / rdpenalty=0 / psy-rd=2.00 / psy-rdoq=1.50 / no-rd-refine / no-lossless / cbqpoffs=0 / crqpoffs=0 / rc=crf / crf=16.0 / qcomp=0.60 / qpstep=4 / stats-write=0 / stats-read=0 / ipratio=1.40 / pbratio=1.30 / aq-mode=4 / aq-strength=1.00 / cutree / zone-count=0 / no-strict-cbr / qg-size=32 / no-rc-grain / qpmax=69 / qpmin=0 / no-const-vbv / sar=0 / overscan=0 / videoformat=5 / range=0 / colorprim=9 / transfer=16 / colormatrix=9 / chromaloc=0 / display-window=0 / cll=0,0 / min-luma=0 / max-luma=1023 / log2-max-poc-lsb=8 / vui-timing-info / vui-hrd-info / slices=1 / no-opt-qp-pps / no-opt-ref-list-length-pps / no-multi-pass-opt-rps / scenecut-bias=0.00 / no-opt-cu-delta-qp / no-aq-motion / hdr / hdr-opt / no-dhdr10-opt / no-idr-recovery-sei / analysis-reuse-level=5 / scale-factor=0 / refine-intra=0 / refine-inter=0 / refine-mv=1 / refine-ctu-distortion=0 / no-limit-sao / ctu-info=0 / no-lowpass-dct / refine-analysis-type=0 / copy-pic=1 / max-ausize-factor=1.0 / no-dynamic-refine / no-single-sei / no-hevc-aq / no-svt / no-field / qp-adaptation-range=1.00

Audio #1 : English / DTS / 6 channels / 768 kb/s / 5.1
Audio #2 : English / E-AC-3 / 6 channels / 768 kb/s / 5.1 w/Atmos
Audio #3 : English / AC-3 / 2 channels / 224 kb/s / Stereo (Compitibility Track)

Subtitle #1 : English / VobSub / 6634 b/s / English (SDH)
Subtitle #2 : English / VobSub / 4308 b/s / English
Subtitle #3 : Danish / VobSub / 3855 b/s
Subtitle #4 : Dutch / VobSub / 4113 b/s
Subtitle #5 : Finnish / VobSub / 3878 b/s
Subtitle #6 : French / VobSub / 3624 b/s
Subtitle #7 : German / VobSub / 4143 b/s
Subtitle #8 : Italian / VobSub / 3972 b/s
Subtitle #9 : Norwegian Bokmal / VobSub / 3497 b/s
Subtitle #10 : Polish / VobSub / 4045 b/s
Subtitle #11 : Portuguese / VobSub / 4130 b/s
Subtitle #12 : Portuguese / VobSub / 4104 b/s / Brazilian
Subtitle #13 : Spanish / VobSub / 3912 b/s
Subtitle #14 : Spanish / VobSub / 3930 b/s / Latin American
Subtitle #15 : Swedish / VobSub / 3748 b/s

Screens

Download

Download: Google Drive (27.35 GB)

3 thoughts on “The Mandalorian (2019) Season 1 (1080p + 2160p HDR WEB-DL x265 HEVC 10bit)

  1. You are awesome man! I’m curious, will you by chance upload 2160p 4K of the newly released blu-ray of other star wars movies? Like episodes i-VII and rogue one?

Leave a Reply