The Magicians (2015) Season 1-5 (1080p x265 HEVC 10bit AAC 5.1)

Summary: Quentin, a brilliant grad student is chosen to attend Brakebills College for Magical Pedagogy, a secret upstate New York university specializing in magic. He and his 20-something friends soon discover that the magical fantasy world they read about as children is all too real – and poses grave danger to humanity.

Season 1

The Magicians (2015) Season 1 S01 + Extras (1080p BDRip x265 HEVC 10bit AAC 5.1 RCVR) ENG FRE GER

Files

The Magicians - S01E01 - Unauthorized Magic (1080p BDRip x265 HEVC 10bit AAC 5.1 RCVR) [UTR].mkv   1.54 GB
The Magicians - S01E02 - The Source of Magic (1080p BDRip x265 HEVC 10bit AAC 5.1 RCVR) [UTR].mkv   1.07 GB
The Magicians - S01E03 - Consequences of Advanced Spellcasting (1080p BDRip x265 HEVC 10bit AAC 5.1 RCVR) [UTR].mkv 1017 MB
The Magicians - S01E04 - The World in the Walls (1080p BDRip x265 HEVC 10bit AAC 5.1 RCVR) [UTR].mkv    853 MB
The Magicians - S01E05 - Mendings/ Major and Minor (1080p BDRip x265 HEVC 10bit AAC 5.1 RCVR) [UTR].mkv 1019 MB
The Magicians - S01E06 - Impractical Applications (1080p BDRip x265 HEVC 10bit AAC 5.1 RCVR) [UTR].mkv  1013 MB
The Magicians - S01E07 - The Mayakovsky Circumstances (1080p BDRip x265 HEVC 10bit AAC 5.1 RCVR) [UTR].mkv  831 MB
The Magicians - S01E08 - The Strangled Heart (1080p BDRip x265 HEVC 10bit AAC 5.1 RCVR) [UTR].mkv   978 MB
The Magicians - S01E09 - The Writing Room (1080p BDRip x265 HEVC 10bit AAC 5.1 RCVR) [UTR].mkv  772 MB
The Magicians - S01E10 - Homecoming (1080p BDRip x265 HEVC 10bit AAC 5.1 RCVR) [UTR].mkv    878 MB
The Magicians - S01E11 - Remedial Battle Magic (1080p BDRip x265 HEVC 10bit AAC 5.1 RCVR) [UTR].mkv 827 MB
The Magicians - S01E12 - Thirty-Nine Graves (1080p BDRip x265 HEVC 10bit AAC 5.1 RCVR) [UTR].mkv    830 MB
The Magicians - S01E13 - Have You Brought Me Little Cakes (1080p BDRip x265 HEVC 10bit AAC 5.1 RCVR) [UTR].mkv  1.1 GB

Extras/Deleted Scenes/Homecoming/Remedial Battle Magic/ Thirty-Nine Graves & Have you brought me little Cakes.mkv   82.7 MB
Extras/Deleted Scenes/Mendings/ Major and Minor/ Impractical Applications/ The Mayakovsky Circumstrance/ The Stranged Heart & The Writing Room.mkv  108 MB
Extras/Deleted Scenes/Unauthorized Magic/ The Source of Magic & Consequences of Advanced Spellcasting.mkv   73.8 MB
Extras/Gag Reel.mkv 185 MB
Extras/Menu Art.mkv 1.82 MB
Extras/The World of The Magicians.mkv   293 MB

Mediainfo

General
Format                                   : Matroska
Format version                           : Version 4 / Version 2
File size                                : 1.54 GiB
Duration                                 : 52mn 9s
Overall bit rate                         : 4 220 Kbps
Movie name                               : The Magicians: Season One (Disc 1)
Encoded date                             : UTC 2017-10-08 12:05:15
Writing application                      : mkvmerge v16.0.0 ('Protest') 64-bit
Writing library                          : libebml v1.3.5 + libmatroska v1.4.8
Cover                                    : Yes
Attachments                              : cover.jpg

Video
ID                                       : 1
Format                                   : HEVC
Format/Info                              : High Efficiency Video Coding
Format profile                           : Main [email protected]@Main
Codec ID                                 : V_MPEGH/ISO/HEVC
Duration                                 : 52mn 9s
Bit rate                                 : 3 361 Kbps
Width                                    : 1 920 pixels
Height                                   : 1 080 pixels
Display aspect ratio                     : 16:9
Frame rate mode                          : Constant
Frame rate                               : 23.976 (24000/1001) fps
Color space                              : YUV
Chroma subsampling                       : 4:2:0
Bit depth                                : 10 bits
Bits/(Pixel*Frame)                       : 0.068
Stream size                              : 1.22 GiB (80%)
Writing library                          : x265 2.4+28-f850cdbe381c:[Windows][MSVC 1910][64 bit] 10bit
Encoding settings                        : cpuid=1173503 / frame-threads=3 / numa-pools=8 / wpp / no-pmode / no-pme / no-psnr / no-ssim / log-level=2 / input-csp=1 / input-res=1920x1080 / interlace=0 / total-frames=75025 / level-idc=0 / high-tier=1 / uhd-bd=0 / ref=5 / no-allow-non-conformance / no-repeat-headers / annexb / no-aud / no-hrd / info / hash=0 / no-temporal-layers / open-gop / min-keyint=23 / keyint=250 / bframes=8 / b-adapt=2 / b-pyramid / bframe-bias=0 / rc-lookahead=80 / lookahead-slices=4 / scenecut=40 / no-intra-refresh / ctu=64 / min-cu-size=8 / rect / no-amp / max-tu-size=32 / tu-inter-depth=1 / tu-intra-depth=1 / limit-tu=0 / rdoq-level=2 / dynamic-rd=0.00 / no-ssim-rd / signhide / no-tskip / nr-intra=0 / nr-inter=0 / no-constrained-intra / strong-intra-smoothing / max-merge=3 / limit-refs=3 / limit-modes / me=3 / subme=5 / merange=57 / temporal-mvp / weightp / weightb / no-analyze-src-pics / deblock=-3:-3 / no-sao / no-sao-non-deblock / rd=4 / no-early-skip / no-rskip / no-fast-intra / no-tskip-fast / no-cu-lossless / no-b-intra / rdpenalty=0 / psy-rd=1.20 / psy-rdoq=2.00 / no-rd-refine / analysis-mode=0 / no-lossless / cbqpoffs=0 / crqpoffs=0 / rc=crf / crf=20.0 / qcomp=0.60 / qpstep=4 / stats-write=0 / stats-read=0 / ipratio=1.40 / pbratio=1.30 / aq-mode=3 / aq-strength=1.00 / cutree / zone-count=0 / no-strict-cbr / qg-size=32 / no-rc-grain / qpmax=69 / qpmin=0 / sar=0 / overscan=0 / videoformat=5 / range=0 / colorprim=2 / transfer=2 / colormatrix=2 / chromaloc=0 / display-window=0 / max-cll=0,0 / min-luma=0 / max-luma=1023 / log2-max-poc-lsb=8 / vui-timing-info / vui-hrd-info / slices=1 / opt-qp-pps / opt-ref-list-length-pps / no-multi-pass-opt-rps / scenecut-bias=0.05 / no-opt-cu-delta-qp / no-aq-motion / no-hdr / no-hdr-opt / no-dhdr10-opt / refine-level=5 / no-limit-sao / ctu-info=0
Language                                 : English
Default                                  : Yes
Forced                                   : No

Audio #1
ID                                       : 2
Format                                   : AAC
Format/Info                              : Advanced Audio Codec
Format profile                           : LC
Codec ID                                 : A_AAC
Duration                                 : 52mn 9s
Bit rate                                 : 394 Kbps
Channel(s)                               : 6 channels
Channel positions                        : Front: L C R, Side: L R, LFE
Sampling rate                            : 48.0 KHz
Frame rate                               : 46.875 fps (1024 spf)
Compression mode                         : Lossy
Delay relative to video                  : 20ms
Stream size                              : 147 MiB (9%)
Language                                 : English
Default                                  : Yes
Forced                                   : No

Audio #2
ID                                       : 3
Format                                   : AAC
Format/Info                              : Advanced Audio Codec
Format profile                           : HE-AAC / LC
Codec ID                                 : A_AAC
Duration                                 : 52mn 9s
Bit rate                                 : 192 Kbps
Channel(s)                               : 6 channels
Channel positions                        : Front: L C R, Side: L R, LFE
Sampling rate                            : 48.0 KHz / 24.0 KHz
Frame rate                               : 23.438 fps (1024 spf)
Compression mode                         : Lossy
Delay relative to video                  : 40ms
Stream size                              : 71.6 MiB (5%)
Language                                 : French
Default                                  : No
Forced                                   : No

Audio #3
ID                                       : 4
Format                                   : AAC
Format/Info                              : Advanced Audio Codec
Format profile                           : HE-AAC / LC
Codec ID                                 : A_AAC
Duration                                 : 52mn 9s
Bit rate                                 : 192 Kbps
Channel(s)                               : 6 channels
Channel positions                        : Front: L C R, Side: L R, LFE
Sampling rate                            : 48.0 KHz / 24.0 KHz
Frame rate                               : 23.438 fps (1024 spf)
Compression mode                         : Lossy
Delay relative to video                  : 40ms
Stream size                              : 71.6 MiB (5%)
Language                                 : German
Default                                  : No
Forced                                   : No

Text #1
ID                                       : 5
Format                                   : PGS
Muxing mode                              : zlib
Codec ID                                 : S_HDMV/PGS
Codec ID/Info                            : Picture based subtitle format used on BDs/HD-DVDs
Duration                                 : 51mn 32s
Bit rate                                 : 38.8 Kbps
Count of elements                        : 1602
Stream size                              : 14.3 MiB (1%)
Language                                 : English
Default                                  : No
Forced                                   : No

Text #2
ID                                       : 6
Format                                   : PGS
Muxing mode                              : zlib
Codec ID                                 : S_HDMV/PGS
Codec ID/Info                            : Picture based subtitle format used on BDs/HD-DVDs
Duration                                 : 51mn 15s
Bit rate                                 : 32.1 Kbps
Count of elements                        : 1216
Stream size                              : 11.8 MiB (1%)
Language                                 : French
Default                                  : No
Forced                                   : No

Text #3
ID                                       : 7
Format                                   : PGS
Muxing mode                              : zlib
Codec ID                                 : S_HDMV/PGS
Codec ID/Info                            : Picture based subtitle format used on BDs/HD-DVDs
Duration                                 : 51mn 15s
Bit rate                                 : 34.5 Kbps
Count of elements                        : 1214
Stream size                              : 12.7 MiB (1%)
Language                                 : German
Default                                  : No
Forced                                   : No

Text #4
ID                                       : 8
Format                                   : PGS
Muxing mode                              : zlib
Codec ID                                 : S_HDMV/PGS
Codec ID/Info                            : Picture based subtitle format used on BDs/HD-DVDs
Duration                                 : 51mn 15s
Bit rate                                 : 32.8 Kbps
Count of elements                        : 1216
Stream size                              : 12.0 MiB (1%)
Language                                 : Dutch
Default                                  : No
Forced                                   : No

Text #5
ID                                       : 9
Format                                   : PGS
Muxing mode                              : zlib
Codec ID                                 : S_HDMV/PGS
Codec ID/Info                            : Picture based subtitle format used on BDs/HD-DVDs
Duration                                 : 51mn 15s
Bit rate                                 : 31.2 Kbps
Count of elements                        : 1210
Stream size                              : 11.4 MiB (1%)
Language                                 : Danish
Default                                  : No
Forced                                   : No

Text #6
ID                                       : 10
Format                                   : PGS
Muxing mode                              : zlib
Codec ID                                 : S_HDMV/PGS
Codec ID/Info                            : Picture based subtitle format used on BDs/HD-DVDs
Duration                                 : 51mn 15s
Bit rate                                 : 34.3 Kbps
Count of elements                        : 1214
Stream size                              : 12.6 MiB (1%)
Language                                 : Finnish
Default                                  : No
Forced                                   : No

Text #7
ID                                       : 11
Format                                   : PGS
Muxing mode                              : zlib
Codec ID                                 : S_HDMV/PGS
Codec ID/Info                            : Picture based subtitle format used on BDs/HD-DVDs
Duration                                 : 51mn 15s
Bit rate                                 : 31.9 Kbps
Count of elements                        : 1216
Stream size                              : 11.7 MiB (1%)
Language                                 : Norwegian Bokmal
Default                                  : No
Forced                                   : No

Text #8
ID                                       : 12
Format                                   : PGS
Muxing mode                              : zlib
Codec ID                                 : S_HDMV/PGS
Codec ID/Info                            : Picture based subtitle format used on BDs/HD-DVDs
Duration                                 : 51mn 15s
Bit rate                                 : 30.5 Kbps
Count of elements                        : 1216
Stream size                              : 11.2 MiB (1%)
Language                                 : Swedish
Default                                  : No
Forced                                   : No

Menu
00:00:00.000                             : en:Chapter 01
00:10:38.054                             : en:Chapter 02
00:21:39.381                             : en:Chapter 03
00:37:55.564                             : en:Chapter 04

Download

Download: Google Drive

Featurettes: Google Drive

Season 2

The Magicians (2015) Season 2 S02 + Extras (1080p BDRip x265 HEVC 10bit AAC 5.1 RCVR)

Files

The Magicians - S02E01 - Knight of Crowns (1080p BDRip x265 HEVC 10bit AAC 5.1 RCVR) [UTR].mkv 1.24 GB
The Magicians - S02E02 - Hotel Spa Potions (1080p BDRip x265 HEVC 10bit AAC 5.1 RCVR) [UTR].mkv 1.06 GB
The Magicians - S02E03 - Divine Elimination (1080p BDRip x265 HEVC 10bit AAC 5.1 RCVR) [UTR].mkv    1.07 GB
The Magicians - S02E04 - The Flying Forest (1080p BDRip x265 HEVC 10bit AAC 5.1 RCVR) [UTR].mkv 1.02 GB
The Magicians - S02E05 - Cheat Day (1080p BDRip x265 HEVC 10bit AAC 5.1 RCVR) [UTR].mkv 726 MB
The Magicians - S02E06 - The Cock Barrens (1080p BDRip x265 HEVC 10bit AAC 5.1 RCVR) [UTR].mkv  850 MB
The Magicians - S02E07 - Plan B (1080p BDRip x265 HEVC 10bit AAC 5.1 RCVR) [UTR].mkv    773 MB
The Magicians - S02E08 - Word As Bond (1080p BDRip x265 HEVC 10bit AAC 5.1 RCVR) [UTR].mkv  898 MB
The Magicians - S02E09 - Lesser Evils (1080p BDRip x265 HEVC 10bit AAC 5.1 RCVR) [UTR].mkv  999 MB
The Magicians - S02E10 - The Girl Who Told Time (1080p BDRip x265 HEVC 10bit AAC 5.1 RCVR) [UTR].mkv    855 MB
The Magicians - S02E11 - The Rattening (1080p BDRip x265 HEVC 10bit AAC 5.1 RCVR) [UTR].mkv 844 MB
The Magicians - S02E12 - Ramifications (1080p BDRip x265 HEVC 10bit AAC 5.1 RCVR) [UTR].mkv 1.17 GB
The Magicians - S02E13 - We Have Brought You Little Cakes (1080p BDRip x265 HEVC 10bit AAC 5.1 RCVR) [UTR].mkv  1.3 GB

Extras/Behind The Magic.mkv 307 MB
Extras/Gag Reel.mkv 143 MB

Mediainfo

General
Format                                   : Matroska
Format version                           : Version 4 / Version 2
File size                                : 1.24 GiB
Duration                                 : 46mn 6s
Overall bit rate                         : 3 860 Kbps
Movie name                               : The Magicians Season Two (Disc 1)
Encoded date                             : UTC 2017-10-16 18:09:29
Writing application                      : mkvmerge v12.0.0 ('Trust / Lust') 64bit
Writing library                          : libebml v1.3.4 + libmatroska v1.4.5
Cover                                    : Yes
Attachments                              : cover.jpg

Video
ID                                       : 1
Format                                   : HEVC
Format/Info                              : High Efficiency Video Coding
Format profile                           : Main [email protected]@Main
Codec ID                                 : V_MPEGH/ISO/HEVC
Duration                                 : 46mn 6s
Bit rate                                 : 3 429 Kbps
Width                                    : 1 920 pixels
Height                                   : 1 080 pixels
Display aspect ratio                     : 16:9
Frame rate mode                          : Constant
Frame rate                               : 23.976 (24000/1001) fps
Color space                              : YUV
Chroma subsampling                       : 4:2:0
Bit depth                                : 10 bits
Bits/(Pixel*Frame)                       : 0.069
Stream size                              : 1.10 GiB (89%)
Writing library                          : x265 2.5+27-0e168bdeb48b:[Windows][MSVC 1911][64 bit] 10bit
Encoding settings                        : cpuid=1173503 / frame-threads=3 / numa-pools=8 / wpp / no-pmode / no-pme / no-psnr / no-ssim / log-level=2 / input-csp=1 / input-res=1920x1080 / interlace=0 / total-frames=66336 / level-idc=0 / high-tier=1 / uhd-bd=0 / ref=5 / no-allow-non-conformance / no-repeat-headers / annexb / no-aud / no-hrd / info / hash=0 / no-temporal-layers / open-gop / min-keyint=23 / keyint=250 / bframes=8 / b-adapt=2 / b-pyramid / bframe-bias=0 / rc-lookahead=80 / lookahead-slices=4 / scenecut=40 / no-intra-refresh / ctu=64 / min-cu-size=8 / rect / no-amp / max-tu-size=32 / tu-inter-depth=1 / tu-intra-depth=1 / limit-tu=0 / rdoq-level=2 / dynamic-rd=0.00 / no-ssim-rd / signhide / no-tskip / nr-intra=0 / nr-inter=0 / no-constrained-intra / strong-intra-smoothing / max-merge=3 / limit-refs=3 / limit-modes / me=3 / subme=5 / merange=57 / temporal-mvp / weightp / weightb / no-analyze-src-pics / deblock=-3:-3 / no-sao / no-sao-non-deblock / rd=4 / no-early-skip / no-rskip / no-fast-intra / no-tskip-fast / no-cu-lossless / no-b-intra / no-splitrd-skip / rdpenalty=0 / psy-rd=1.20 / psy-rdoq=2.00 / no-rd-refine / analysis-reuse-mode=0 / no-lossless / cbqpoffs=0 / crqpoffs=0 / rc=crf / crf=20.0 / qcomp=0.60 / qpstep=4 / stats-write=0 / stats-read=0 / ipratio=1.40 / pbratio=1.30 / aq-mode=3 / aq-strength=1.00 / cutree / zone-count=0 / no-strict-cbr / qg-size=32 / no-rc-grain / qpmax=69 / qpmin=0 / no-const-vbv / sar=0 / overscan=0 / videoformat=5 / range=0 / colorprim=2 / transfer=2 / colormatrix=2 / chromaloc=0 / display-window=0 / max-cll=0,0 / min-luma=0 / max-luma=1023 / log2-max-poc-lsb=8 / vui-timing-info / vui-hrd-info / slices=1 / opt-qp-pps / opt-ref-list-length-pps / no-multi-pass-opt-rps / scenecut-bias=0.05 / no-opt-cu-delta-qp / no-aq-motion / no-hdr / no-hdr-opt / no-dhdr10-opt / analysis-reuse-level=5 / scale-factor=0 / refine-intra=0 / refine-inter=0 / refine-mv=0 / no-limit-sao / ctu-info=0
Default                                  : Yes
Forced                                   : No

Audio
ID                                       : 2
Format                                   : AAC
Format/Info                              : Advanced Audio Codec
Format profile                           : LC
Codec ID                                 : A_AAC
Duration                                 : 46mn 6s
Bit rate                                 : 404 Kbps
Channel(s)                               : 6 channels
Channel positions                        : Front: L C R, Side: L R, LFE
Sampling rate                            : 48.0 KHz
Frame rate                               : 46.875 fps (1024 spf)
Compression mode                         : Lossy
Delay relative to video                  : 20ms
Stream size                              : 133 MiB (10%)
Language                                 : English
Default                                  : Yes
Forced                                   : No

Text #1
ID                                       : 3
Format                                   : PGS
Muxing mode                              : zlib
Codec ID                                 : S_HDMV/PGS
Codec ID/Info                            : Picture based subtitle format used on BDs/HD-DVDs
Duration                                 : 45mn 42s
Bit rate                                 : 13.5 Kbps
Count of elements                        : 1503
Stream size                              : 4.43 MiB (0%)
Language                                 : English
Default                                  : No
Forced                                   : No

Text #2
ID                                       : 4
Format                                   : PGS
Muxing mode                              : zlib
Codec ID                                 : S_HDMV/PGS
Codec ID/Info                            : Picture based subtitle format used on BDs/HD-DVDs
Duration                                 : 46mn 4s
Bit rate                                 : 10.4 Kbps
Count of elements                        : 1384
Stream size                              : 3.43 MiB (0%)
Language                                 : French
Default                                  : No
Forced                                   : No

Menu
00:00:00.000                             : en:Chapter 01
00:07:06.926                             : en:Chapter 02
00:19:45.309                             : en:Chapter 03
00:33:56.617                             : en:Chapter 04

Download

Download: Google Drive

Featurettes: Google Drive

Season 3

The Magicians (2015) Season 3 S03 + Extras (1080p BluRay x265 HEVC 10bit AAC 5.1 RCVR)

Files

The Magicians (2015) - S03E01 - The Tales of the Seven Keys (1080p BluRay x265 RCVR).mkv (1.2 GB)
The Magicians (2015) - S03E02 - Heroes and Morons (1080p BluRay x265 RCVR).mkv (1.7 GB)
The Magicians (2015) - S03E03 - The Losses of Magic (1080p BluRay x265 RCVR).mkv (1.1 GB)
The Magicians (2015) - S03E04 - Be the Penny (1080p BluRay x265 RCVR).mkv (1,012.0 MB)
The Magicians (2015) - S03E05 - A Life in the Day (1080p BluRay x265 RCVR).mkv (1.3 GB)
The Magicians (2015) - S03E06 - Do You Like Teeth (1080p BluRay x265 RCVR).mkv (1.1 GB)
The Magicians (2015) - S03E07 - Poached Eggs (1080p BluRay x265 RCVR).mkv (979.8 MB)
The Magicians (2015) - S03E08 - Six Short Stories About Magic (1080p BluRay x265 RCVR).mkv (1.1 GB)
The Magicians (2015) - S03E09 - All That Josh (1080p BluRay x265 RCVR).mkv (1.1 GB)
The Magicians (2015) - S03E10 - The Art of the Deal (1080p BluRay x265 RCVR).mkv (823.9 MB)
The Magicians (2015) - S03E11 - Twenty-Three (1080p BluRay x265 RCVR).mkv (926.9 MB)
The Magicians (2015) - S03E12 - The Fillorian Candidate (1080p BluRay x265 RCVR).mkv (827.2 MB)
The Magicians (2015) - S03E13 - Will You Play with Me (1080p BluRay x265 RCVR).mkv (997.7 MB)

Gag Reel.mkv (129.6 MB)
Menu Art.mkv (1.2 MB)

Mediainfo

General
Format : Matroska
Format version : Version 4 / Version 2
File size : 1.17 GiB
Duration : 46 min 10 s
Overall bit rate : 3 613 kb/s
Encoded date : UTC 2018-09-16 01:52:22
Writing application : mkvmerge v20.0.0 ('I Am The Sun') 64-bit
Writing library : libebml v1.3.5 + libmatroska v1.4.8
Cover : Yes
Attachments : cover.jpg
Writing frontend : StaxRip v1.7.0.6

Video
ID : 1
Format : HEVC
Format/Info : High Efficiency Video Coding
Format profile : Main [email protected]@Main
Codec ID : V_MPEGH/ISO/HEVC
Duration : 46 min 10 s
Bit rate : 3 151 kb/s
Width : 1 920 pixels
Height : 1 080 pixels
Display aspect ratio : 16:9
Frame rate mode : Constant
Frame rate : 23.976 (24000/1001) FPS
Color space : YUV
Chroma subsampling : 4:2:0
Bit depth : 10 bits
Bits/(Pixel*Frame) : 0.063
Stream size : 1.02 GiB (87%)
Writing library : x265 2.8+68-fa57fa584898:[Windows][MSVC 1900][64 bit] 10bit
Encoding settings : cpuid=1111039 / frame-threads=3 / numa-pools=8 / wpp / no-pmode / no-pme / no-psnr / no-ssim / log-level=2 / input-csp=1 / input-res=1920x1080 / interlace=0 / total-frames=66414 / level-idc=0 / high-tier=1 / uhd-bd=0 / ref=5 / no-allow-non-conformance / no-repeat-headers / annexb / no-aud / no-hrd / info / hash=0 / no-temporal-layers / open-gop / min-keyint=23 / keyint=250 / gop-lookahead=0 / bframes=8 / b-adapt=2 / b-pyramid / bframe-bias=0 / rc-lookahead=80 / lookahead-slices=4 / scenecut=40 / radl=0 / no-intra-refresh / ctu=64 / min-cu-size=8 / rect / no-amp / max-tu-size=32 / tu-inter-depth=1 / tu-intra-depth=1 / limit-tu=0 / rdoq-level=2 / dynamic-rd=0.00 / no-ssim-rd / signhide / no-tskip / nr-intra=0 / nr-inter=0 / no-constrained-intra / no-strong-intra-smoothing / max-merge=4 / limit-refs=3 / limit-modes / me=3 / subme=5 / merange=57 / temporal-mvp / weightp / weightb / no-analyze-src-pics / deblock=-3:-3 / no-sao / no-sao-non-deblock / rd=4 / no-early-skip / rskip / no-fast-intra / no-tskip-fast / no-cu-lossless / b-intra / no-splitrd-skip / rdpenalty=0 / psy-rd=1.50 / psy-rdoq=2.00 / no-rd-refine / no-lossless / cbqpoffs=0 / crqpoffs=0 / rc=crf / crf=20.5 / qcomp=0.60 / qpstep=4 / stats-write=0 / stats-read=0 / ipratio=1.40 / pbratio=1.30 / aq-mode=3 / aq-strength=1.00 / cutree / zone-count=0 / no-strict-cbr / qg-size=32 / no-rc-grain / qpmax=69 / qpmin=0 / no-const-vbv / sar=0 / overscan=0 / videoformat=5 / range=0 / colorprim=2 / transfer=2 / colormatrix=2 / chromaloc=0 / display-window=0 / max-cll=0,0 / min-luma=0 / max-luma=1023 / log2-max-poc-lsb=8 / vui-timing-info / vui-hrd-info / slices=1 / no-opt-qp-pps / no-opt-ref-list-length-pps / no-multi-pass-opt-rps / scenecut-bias=0.05 / no-opt-cu-delta-qp / no-aq-motion / no-hdr / no-hdr-opt / no-dhdr10-opt / no-idr-recovery-sei / analysis-reuse-level=5 / scale-factor=0 / refine-intra=0 / refine-inter=0 / refine-mv=0 / no-limit-sao / ctu-info=0 / no-lowpass-dct / refine-mv-type=0 / copy-pic=1 / max-ausize-factor=1.0 / no-dynamic-refine / no-single-sei
Default : Yes
Forced : No

Audio
ID : 2
Format : AAC
Format/Info : Advanced Audio Codec
Format profile : LC
Codec ID : A_AAC
Duration : 46 min 10 s
Bit rate : 416 kb/s
Channel(s) : 6 channels
Channel positions : Front: L C R, Side: L R, LFE
Sampling rate : 48.0 kHz
Frame rate : 46.875 FPS (1024 spf)
Compression mode : Lossy
Delay relative to video : 20 ms
Stream size : 137 MiB (12%)
Language : English
Default : No
Forced : No

Subtitle #1
ID : 3
Format : VobSub
Muxing mode : zlib
Codec ID : S_VOBSUB
Codec ID/Info : Picture based subtitle format used on DVDs
Duration : 44 min 50 s
Bit rate : 13.7 kb/s
Count of elements : 842
Stream size : 4.41 MiB (0%)
Language : English
Default : No
Forced : No

Subtitle #2
ID : 4
Format : VobSub
Muxing mode : zlib
Codec ID : S_VOBSUB
Codec ID/Info : Picture based subtitle format used on DVDs
Duration : 46 min 7 s
Bit rate : 10.4 kb/s
Count of elements : 760
Stream size : 3.45 MiB (0%)
Language : French
Default : No
Forced : No

Subtitle #3
ID : 5
Format : VobSub
Muxing mode : zlib
Codec ID : S_VOBSUB
Codec ID/Info : Picture based subtitle format used on DVDs
Duration : 46 min 4 s
Bit rate : 11.7 kb/s
Count of elements : 799
Stream size : 3.87 MiB (0%)
Language : Danish
Default : No
Forced : No

Subtitle #4
ID : 6
Format : VobSub
Muxing mode : zlib
Codec ID : S_VOBSUB
Codec ID/Info : Picture based subtitle format used on DVDs
Duration : 46 min 4 s
Bit rate : 12.1 kb/s
Count of elements : 806
Stream size : 4.00 MiB (0%)
Language : Finnish
Default : No
Forced : No

Subtitle #5
ID : 7
Format : VobSub
Muxing mode : zlib
Codec ID : S_VOBSUB
Codec ID/Info : Picture based subtitle format used on DVDs
Duration : 46 min 7 s
Bit rate : 10.4 kb/s
Count of elements : 805
Stream size : 3.44 MiB (0%)
Language : Norwegian Bokmal
Default : No
Forced : No

Subtitle #6
ID : 8
Format : VobSub
Muxing mode : zlib
Codec ID : S_VOBSUB
Codec ID/Info : Picture based subtitle format used on DVDs
Duration : 46 min 4 s
Bit rate : 12.0 kb/s
Count of elements : 783
Stream size : 3.96 MiB (0%)
Language : Swedish
Default : No
Forced : No

Menu
00:00:00.000 : en:Chapter 01
00:05:25.116 : en:Chapter 02
00:11:43.035 : en:Chapter 03
00:16:16.976 : en:Chapter 04
00:30:28.034 : en:Chapter 05
00:36:08.958 : en:Chapter 06

Screens

Download

Download: Google Drive

Featurettes: Google Drive

Season 4

The Magicians (2015) Season 4 S04 (1080p BluRay x265 HEVC 10bit AAC 5.1 RCVR)

Files

The Magicians (2015) - S04E01 - A Flock of Lost Birds (1080p BluRay x265 RCVR).mkv (1.2 GB)
The Magicians (2015) - S04E02 - Lost, Found, Fucked (1080p BluRay x265 RCVR).mkv (1.2 GB)
The Magicians (2015) - S04E03 - The Bad News Bear (1080p BluRay x265 RCVR).mkv (1.2 GB)
The Magicians (2015) - S04E04 - Marry Fuck Kill (1080p BluRay x265 RCVR).mkv (919.0 MB)
The Magicians (2015) - S04E05 - Escape from the Happy Place (1080p BluRay x265 RCVR).mkv (1.0 GB)
The Magicians (2015) - S04E06 - A Timeline and Place (1080p BluRay x265 RCVR).mkv (1.3 GB)
The Magicians (2015) - S04E07 - The Side Effect (1080p BluRay x265 RCVR).mkv (913.2 MB)
The Magicians (2015) - S04E08 - Home Improvement (1080p BluRay x265 RCVR).mkv (957.4 MB)
The Magicians (2015) - S04E09 - The Serpent (1080p BluRay x265 RCVR).mkv (1.2 GB)
The Magicians (2015) - S04E10 - All That Hard, Glossy Armor (1080p BluRay x265 RCVR).mkv (1.2 GB)
The Magicians (2015) - S04E11 - The 4-1-1 (1080p BluRay x265 RCVR).mkv (909.3 MB)
The Magicians (2015) - S04E12 - The Secret Sea (1080p BluRay x265 RCVR).mkv (1.3 GB)
The Magicians (2015) - S04E13 - No Better to Be Safe Than Sorry (1080p BluRay x265 RCVR).mkv (1.2 GB)

Mediainfo

General
Format : Matroska
File Size : 1.23 GiB
Duration : 45 min 9 s
Overall Bit Rate : 3911 kb/s

Video
Format : HEVC
Format Profile : Main [email protected]@Main
Bit Rate : 3560 kb/s
Dimensions : 1920 pixels x 1080 pixels
Display Aspect Ratio : 16:9
Frame Rate : 23.976 (24000/1001) FPS
Writing Library : x265 3.1+4-4f6dde51a5db:[Windows][MSVC 1900][64 bit] 10bit
Encoding Settings : cpuid=1111039 / frame-threads=3 / numa-pools=8 / wpp / no-pmode / no-pme / no-psnr / no-ssim / log-level=2 / input-csp=1 / input-res=1920x1080 / interlace=0 / total-frames=64974 / level-idc=0 / high-tier=1 / uhd-bd=0 / ref=5 / no-allow-non-conformance / no-repeat-headers / annexb / no-aud / no-hrd / info / hash=0 / no-temporal-layers / open-gop / min-keyint=23 / keyint=250 / gop-lookahead=0 / bframes=8 / b-adapt=2 / b-pyramid / bframe-bias=0 / rc-lookahead=60 / lookahead-slices=4 / scenecut=40 / radl=0 / no-splice / no-intra-refresh / ctu=64 / min-cu-size=8 / rect / no-amp / max-tu-size=32 / tu-inter-depth=1 / tu-intra-depth=1 / limit-tu=0 / rdoq-level=2 / dynamic-rd=0.00 / no-ssim-rd / signhide / no-tskip / nr-intra=0 / nr-inter=0 / no-constrained-intra / no-strong-intra-smoothing / max-merge=4 / limit-refs=3 / limit-modes / me=3 / subme=5 / merange=57 / temporal-mvp / weightp / weightb / no-analyze-src-pics / deblock=-3:-3 / no-sao / no-sao-non-deblock / rd=5 / no-early-skip / no-rskip / no-fast-intra / no-tskip-fast / no-cu-lossless / no-b-intra / no-splitrd-skip / rdpenalty=0 / psy-rd=2.00 / psy-rdoq=1.60 / no-rd-refine / no-lossless / cbqpoffs=0 / crqpoffs=0 / rc=crf / crf=19.5 / qcomp=0.60 / qpstep=4 / stats-write=0 / stats-read=0 / ipratio=1.40 / pbratio=1.30 / aq-mode=3 / aq-strength=0.90 / cutree / zone-count=0 / no-strict-cbr / qg-size=32 / no-rc-grain / qpmax=69 / qpmin=0 / no-const-vbv / sar=0 / overscan=0 / videoformat=5 / range=0 / colorprim=2 / transfer=2 / colormatrix=2 / chromaloc=0 / display-window=0cll=0,0 / min-luma=0 / max-luma=1023 / log2-max-poc-lsb=8 / vui-timing-info / vui-hrd-info / slices=1 / no-opt-qp-pps / no-opt-ref-list-length-pps / no-multi-pass-opt-rps / scenecut-bias=0.05 / no-opt-cu-delta-qp / no-aq-motion / no-hdr / no-hdr-opt / no-dhdr10-opt / no-idr-recovery-sei / analysis-reuse-level=5 / scale-factor=0 / refine-intra=0 / refine-inter=0 / refine-mv=0 / refine-ctu-distortion=0 / no-limit-sao / ctu-info=0 / no-lowpass-dct / refine-analysis-type=0 / copy-pic=1 / max-ausize-factor=1.0 / no-dynamic-refine / no-single-sei / no-hevc-aq / no-svt / no-field / qp-adaptation-range=1.00

Audio #1 : English / AAC / 6 channels / 333 kb/s

Subtitle #1 : English / VobSub / 13.8 kb/s
Subtitle #2 : French / VobSub / 9844 b/s

Chapters
00:00:00.000 : en:Chapter 01
00:01:33.009 : en:Chapter 02
00:06:38.940 : en:Chapter 03
00:11:56.048 : en:Chapter 04
00:17:05.941 : en:Chapter 05
00:28:57.986 : en:Chapter 06
00:33:11.990 : en:Chapter 07
00:38:20.965 : en:Chapter 08

Screens

Download

Download: Google Drive

Season 5

The Magicians (2015) Season 5 S05 (1080p AMZN WEB-DL x265 HEVC 10bit AAC 5.1 Vyndros)

Files

The.Magicians.S05E01.Do.Something.Crazy.1080p.10bit.AMZN.WEB-DL.AAC5.1.HEVC-Vyndros.mkv (779.8 MB)
The.Magicians.S05E02.The.Wrath.of.the.Time.Bees.1080p.10bit.AMZN.WEB-DL.AAC5.1.HEVC-Vyndros.mkv (650.7 MB)
The.Magicians.S05E03.The.Mountain.of.Ghosts.1080p.10bit.AMZN.WEB-DL.AAC5.1.HEVC-Vyndros.mkv (866.8 MB)
The.Magicians.S05E04.Magicians.Anonymous.1080p.10bit.AMZN.WEB-DL.AAC5.1.HEVC-Vyndros.mkv (809.0 MB)
The.Magicians.S05E05.Apocalypse.Now.!.1080p.10bit.AMZN.WEB-DL.AAC5.1.HEVC-Vyndros.mkv (586.3 MB)
The.Magicians.S05E06.Oops!.I.Did.It.Again.1080p.10bit.AMZN.WEB-DL.AAC5.1.HEVC-Vyndros.mkv (690.6 MB)
The.Magicians.S05E07.Acting.Dean.1080p.10bit.AMZN.WEB-DL.AAC5.1.HEVC-Vyndros.mkv (749.2 MB)
The.Magicians.S05E08.Garden.Variety.Homicide.1080p.10bit.AMZN.WEB-DL.AAC5.1.HEVC-Vyndros.mkv (664.4 MB)
The.Magicians.S05E09.Cello.Squirrel.Daffodil.1080p.10bit.AMZN.WEB-DL.AAC5.1.HEVC-Vyndros.mkv (690.5 MB)
The.Magicians.S05E10.Purgatory.1080p.10bit.AMZN.WEB-DL.AAC5.1.HEVC-Vyndros.mkv (764.1 MB)
The.Magicians.S05E11.Be.the.Hyman.1080p.10bit.AMZN.WEB-DL.AAC5.1.HEVC-Vyndros.mkv (608.4 MB)
The.Magicians.S05E12.The.Balls.1080p.10bit.AMZN.WEB-DL.AAC5.1.HEVC-Vyndros.mkv (674.4 MB)
The.Magicians.S05E13.Fillory.and.Further.1080p.10bit.AMZN.WEB-DL.AAC5.1.HEVC-Vyndros.mkv (792.4 MB)

Mediainfo

General
Format : Matroska
Format version : Version 4 / Version 2
File size : 792 MiB
Duration : 47 min 50 s
Overall bit rate : 2 315 kb/s
Encoded date : UTC 2020-04-04 23:12:13
Writing application : mkvmerge v20.0.0 ('I Am The Sun') 64-bit
Writing library : libebml v1.3.5 + libmatroska v1.4.8
Writing frontend : StaxRip v1.7.0.6

Video
ID : 1
Format : HEVC
Format/Info : High Efficiency Video Coding
Format profile : Main [email protected]@Main
Codec ID : V_MPEGH/ISO/HEVC
Duration : 47 min 50 s
Bit rate : 1 974 kb/s
Width : 1 920 pixels
Height : 1 080 pixels
Display aspect ratio : 16:9
Frame rate mode : Constant
Frame rate : 23.976 (24000/1001) FPS
Color space : YUV
Chroma subsampling : 4:2:0
Bit depth : 10 bits
Bits/(Pixel*Frame) : 0.040
Stream size : 675 MiB (85%)
Writing library : x265 3.3+1-g554c887ac:[Windows][MSVC 1924][64 bit] 10bit
Encoding settings : cpuid=1111039 / frame-threads=3 / numa-pools=12 / wpp / no-pmode / no-pme / no-psnr / ssim / log-level=2 / input-csp=1 / input-res=1920x1080 / interlace=0 / total-frames=68832 / level-idc=0 / high-tier=1 / uhd-bd=0 / ref=3 / no-allow-non-conformance / no-repeat-headers / annexb / no-aud / no-hrd / info / hash=0 / no-temporal-layers / open-gop / min-keyint=23 / keyint=250 / gop-lookahead=0 / bframes=8 / b-adapt=2 / b-pyramid / bframe-bias=0 / rc-lookahead=80 / lookahead-slices=6 / scenecut=40 / hist-scenecut=0 / radl=0 / no-splice / no-intra-refresh / ctu=64 / min-cu-size=8 / no-rect / no-amp / max-tu-size=32 / tu-inter-depth=1 / tu-intra-depth=1 / limit-tu=0 / rdoq-level=0 / dynamic-rd=0.00 / no-ssim-rd / signhide / no-tskip / nr-intra=0 / nr-inter=0 / no-constrained-intra / no-strong-intra-smoothing / max-merge=3 / limit-refs=1 / no-limit-modes / me=3 / subme=5 / merange=57 / temporal-mvp / no-frame-dup / no-hme / weightp / no-weightb / no-analyze-src-pics / deblock=0:0 / sao / no-sao-non-deblock / rd=3 / selective-sao=4 / early-skip / no-rskip / no-fast-intra / no-tskip-fast / no-cu-lossless / b-intra / no-splitrd-skip / rdpenalty=0 / psy-rd=2.00 / psy-rdoq=0.00 / no-rd-refine / no-lossless / cbqpoffs=0 / crqpoffs=0 / rc=crf / crf=20.0 / qcomp=0.60 / qpstep=4 / stats-write=0 / stats-read=0 / ipratio=1.40 / pbratio=1.30 / aq-mode=3 / aq-strength=0.80 / cutree / zone-count=0 / no-strict-cbr / qg-size=32 / no-rc-grain / qpmax=69 / qpmin=0 / no-const-vbv / sar=0 / overscan=0 / videoformat=5 / range=0 / colorprim=2 / transfer=2 / colormatrix=2 / chromaloc=0 / display-window=0 / cll=0,0 / min-luma=0 / max-luma=1023 / log2-max-poc-lsb=8 / vui-timing-info / vui-hrd-info / slices=1 / no-opt-qp-pps / no-opt-ref-list-length-pps / no-multi-pass-opt-rps / scenecut-bias=0.05 / hist-threshold=0.01 / no-opt-cu-delta-qp / no-aq-motion / no-hdr10 / no-hdr10-opt / no-dhdr10-opt / no-idr-recovery-sei / analysis-reuse-level=0 / analysis-save-reuse-level=0 / analysis-load-reuse-level=0 / scale-factor=0 / refine-intra=0 / refine-inter=0 / refine-mv=1 / refine-ctu-distortion=0 / no-limit-sao / ctu-info=0 / no-lowpass-dct / refine-analysis-type=0 / copy-pic=1 / max-ausize-factor=1.0 / no-dynamic-refine / no-single-sei / no-hevc-aq / no-svt / no-field / qp-adaptation-range=1.00 / no-scenecut-aware-qpconformance-window-offsets / right=0 / bottom=0
Default : Yes
Forced : No

Audio
ID : 2
Format : AAC
Format/Info : Advanced Audio Codec
Format profile : LC
Codec ID : A_AAC
Duration : 47 min 50 s
Bit rate : 339 kb/s
Channel(s) : 6 channels
Channel positions : Front: L C R, Side: L R, LFE
Sampling rate : 48.0 kHz
Frame rate : 46.875 FPS (1024 spf)
Compression mode : Lossy
Delay relative to video : 20 ms
Stream size : 116 MiB (15%)
Language : English
Default : Yes
Forced : Yes

Subtitle #1
ID : 3
Format : UTF-8
Codec ID : S_TEXT/UTF8
Codec ID/Info : UTF-8 Plain Text
Duration : 47 min 14 s
Bit rate : 75 b/s
Count of elements : 950
Stream size : 26.3 KiB (0%)
Language : English
Default : No
Forced : No

Subtitle #2
ID : 4
Format : UTF-8
Codec ID : S_TEXT/UTF8
Codec ID/Info : UTF-8 Plain Text
Duration : 47 min 21 s
Bit rate : 80 b/s
Count of elements : 1074
Stream size : 28.1 KiB (0%)
Language : English
Default : No
Forced : No

Screens

Download

Download: Google Drive

3 thoughts on “The Magicians (2015) Season 1-5 (1080p x265 HEVC 10bit AAC 5.1)

  1. Just downloaded Season 1 for all parts, but confused as why there are duplicate files in all parts but vary sizes and couldn’t extract/play the video (got the message – CRC failed)

    1) Was I supposed to merge files with same names or something?
    2) I tried to play those duplicate files but only managed to go through roughly 1/10 and then its just blank like the file is corrupted or not complete

    F.Y.I. those duplicate files from all parts – Episode 4 (in Part1 and Part2) and Episode 9 (in Part 2 and Part 3)

    Really looking forward for your solution 🙂

  2. Hello, just discovered your lovely website and my goodness has everything and more am after but do you take request if so i don’t where i should post this other than probably here.
    Could you perhaps upload these series;
    1. THE LIBARIANS ~ VYNDROS
    2. TERROR [SEASON 2] ~ KIRA [SEV]
    3. WHEN THEY SEE US ~ KIRA [SEV]
    4. THE 100 ~ D0ct0rLew [SEV]
    5. OUTLANDER ~ RCVR [QxR]

    Any will do but just thought you should look into those. Thank you hope you consider uploading those or any which is perfect.

Leave a Reply