The Legend of Korra (2012) Season 1-4 (1080p BluRay x265 HEVC 10bit AAC 5.1 RCVR)

Summary: Taking place 70 years after the events of “Avatar: The Last Airbender,” this story follows the adventures of the Avatar after Aang – a passionate, rebellious, and fearless teenage girl from the Southern Water Tribe named Korra. With three of the four elements under her belt (Earth, Water, and Fire), Korra seeks to master the final element, Air. Her quest leads her to the epicenter of the modern “Avatar” world, Republic City – a metropolis that is fueled by steampunk technology. It is a virtual melting pot where benders and non-benders from all nations live and thrive. However, Korra discovers that Republic City is plagued by crime as well as a growing anti-bending revolution that threatens to rip it apart. Under the tutelage of Aang’s son, Tenzin, Korra begins her airbending training while dealing with the dangers at large.

Season 1

The Legend of Korra (2012) Season 1 S01 (1080p BluRay x265 HEVC 10bit AAC 5.1 RCVR)
The Legend of Korra (2012) - S01E01 - Welcome to Republic City (1080p BluRay x265 RCVR).mkv (423.0 MB)
The Legend of Korra (2012) - S01E02 - A Leaf in the Wind (1080p BluRay x265 RCVR).mkv (416.8 MB)
The Legend of Korra (2012) - S01E03 - The Revelation (1080p BluRay x265 RCVR).mkv (325.1 MB)
The Legend of Korra (2012) - S01E04 - The Voice in the Night (1080p BluRay x265 RCVR).mkv (301.6 MB)
The Legend of Korra (2012) - S01E05 - The Spirit of Competition (1080p BluRay x265 RCVR).mkv (395.1 MB)
The Legend of Korra (2012) - S01E06 - And the Winner Is... (1080p BluRay x265 RCVR).mkv (371.2 MB)
The Legend of Korra (2012) - S01E07 - The Aftermath (1080p BluRay x265 RCVR).mkv (344.9 MB)
The Legend of Korra (2012) - S01E08 - When Extremes Meet (1080p BluRay x265 RCVR).mkv (333.1 MB)
The Legend of Korra (2012) - S01E09 - Out of the Past (1080p BluRay x265 RCVR).mkv (324.4 MB)
The Legend of Korra (2012) - S01E10 - Turning the Tides (1080p BluRay x265 RCVR).mkv (349.9 MB)
The Legend of Korra (2012) - S01E11 - Skeletons in the Closet (1080p BluRay x265 RCVR).mkv (346.5 MB)
The Legend of Korra (2012) - S01E12 - Endgame (1080p BluRay x265 RCVR).mkv (349.5 MB)

Mediainfo

General 
Format : Matroska 
Format version : Version 4 / Version 2 
File size : 423 MiB 
Duration : 24 min 4 s 
Overall bit rate : 2 457 kb/s 
Encoded date : UTC 2018-03-28 11:33:51 
Writing application : mkvmerge v10.0.0 ('To Drown In You') 64bit 
Writing library : libebml v1.3.4 + libmatroska v1.4.5 
Cover : Yes 
Attachments : cover.jpg 

Video 
ID : 1 
Format : HEVC 
Format/Info : High Efficiency Video Coding 
Format profile : Main [email protected]@Main 
Codec ID : V_MPEGH/ISO/HEVC 
Duration : 24 min 4 s 
Bit rate : 1 768 kb/s 
Width : 1 920 pixels 
Height : 1 080 pixels 
Display aspect ratio : 16:9 
Frame rate mode : Constant 
Frame rate : 23.976 (24000/1001) FPS 
Color space : YUV 
Chroma subsampling : 4:2:0 
Bit depth : 10 bits 
Bits/(Pixel*Frame) : 0.036 
Stream size : 304 MiB (72%) 
Writing library : x265 2.7+15-b9f5b5d7bf95:[Windows][MSVC 1900][64 bit] 10bit 
Encoding settings : cpuid=1050111 / frame-threads=2 / numa-pools=4 / wpp / no-pmode / no-pme / no-psnr / no-ssim / log-level=2 / input-csp=1 / input-res=1920x1080 / interlace=0 / total-frames=34623 / level-idc=0 / high-tier=1 / uhd-bd=0 / ref=4 / no-allow-non-conformance / no-repeat-headers / annexb / no-aud / no-hrd / info / hash=0 / no-temporal-layers / open-gop / min-keyint=23 / keyint=250 / gop-lookahead=0 / bframes=8 / b-adapt=2 / b-pyramid / bframe-bias=0 / rc-lookahead=80 / lookahead-slices=4 / scenecut=40 / radl=0 / no-intra-refresh / ctu=64 / min-cu-size=8 / rect / no-amp / max-tu-size=32 / tu-inter-depth=1 / tu-intra-depth=1 / limit-tu=0 / rdoq-level=2 / dynamic-rd=0.00 / no-ssim-rd / signhide / no-tskip / nr-intra=0 / nr-inter=0 / no-constrained-intra / no-strong-intra-smoothing / max-merge=4 / limit-refs=3 / limit-modes / me=3 / subme=5 / merange=57 / temporal-mvp / weightp / weightb / no-analyze-src-pics / deblock=-3:-3 / no-sao / no-sao-non-deblock / rd=5 / no-early-skip / no-rskip / no-fast-intra / no-tskip-fast / no-cu-lossless / no-b-intra / no-splitrd-skip / rdpenalty=0 / psy-rd=1.40 / psy-rdoq=1.80 / no-rd-refine / no-lossless / cbqpoffs=0 / crqpoffs=0 / rc=crf / crf=20.5 / qcomp=0.60 / qpstep=4 / stats-write=0 / stats-read=0 / ipratio=1.40 / pbratio=1.30 / aq-mode=2 / aq-strength=0.70 / cutree / zone-count=0 / no-strict-cbr / qg-size=32 / no-rc-grain / qpmax=69 / qpmin=0 / no-const-vbv / sar=0 / overscan=0 / videoformat=5 / range=0 / colorprim=2 / transfer=2 / colormatrix=2 / chromaloc=0 / display-window=0 / max-cll=0,0 / min-luma=0 / max-luma=1023 / log2-max-poc-lsb=8 / vui-timing-info / vui-hrd-info / slices=1 / no-opt-qp-pps / no-opt-ref-list-length-pps / no-multi-pass-opt-rps / scenecut-bias=0.05 / no-opt-cu-delta-qp / aq-motion / no-hdr / no-hdr-opt / no-dhdr10-opt / no-idr-recovery-sei / analysis-reuse-level=5 / scale-factor=0 / refine-intra=0 / refine-inter=0 / refine-mv=0 / no-limit-sao / ctu-info=0 / no-lowpass-dct / refine-mv-type=0 / copy-pic=1 / max-ausize-factor=1.0 / no-dynamic-refine 
Default : Yes 
Forced : No 

Audio #1 
ID : 4 
Format : AAC 
Format/Info : Advanced Audio Codec 
Format profile : LC 
Codec ID : A_AAC 
Duration : 24 min 4 s 
Bit rate : 418 kb/s 
Channel(s) : 6 channels 
Channel positions : Front: L C R, Side: L R, LFE 
Sampling rate : 48.0 kHz 
Frame rate : 46.875 FPS (1024 spf) 
Compression mode : Lossy 
Delay relative to video : 20 ms 
Stream size : 72.0 MiB (17%) 
Title : English 
Default : Yes 
Forced : No 

Audio #2 
ID : 5 
Format : AAC 
Format/Info : Advanced Audio Codec 
Format profile : HE-AAC / LC 
Codec ID : A_AAC 
Duration : 24 min 4 s 
Bit rate : 80.0 kb/s 
Channel(s) : 2 channels 
Channel positions : Front: L R 
Sampling rate : 48.0 kHz / 24.0 kHz 
Frame rate : 23.438 FPS (1024 spf) 
Compression mode : Lossy 
Delay relative to video : 40 ms 
Stream size : 13.8 MiB (3%) 
Title : French 
Default : No 
Forced : No 

Audio #3 
ID : 6 
Format : AAC 
Format/Info : Advanced Audio Codec 
Format profile : HE-AAC / LC 
Codec ID : A_AAC 
Duration : 24 min 4 s 
Bit rate : 80.0 kb/s 
Channel(s) : 2 channels 
Channel positions : Front: L R 
Sampling rate : 48.0 kHz / 24.0 kHz 
Frame rate : 23.438 FPS (1024 spf) 
Compression mode : Lossy 
Delay relative to video : 40 ms 
Stream size : 13.8 MiB (3%) 
Title : Spanish 
Default : No 
Forced : No 

Audio #4 
ID : 7 
Format : AAC 
Format/Info : Advanced Audio Codec 
Format profile : HE-AAC / LC 
Codec ID : A_AAC 
Duration : 24 min 4 s 
Bit rate : 80.0 kb/s 
Channel(s) : 2 channels 
Channel positions : Front: L R 
Sampling rate : 48.0 kHz / 24.0 kHz 
Frame rate : 23.438 FPS (1024 spf) 
Compression mode : Lossy 
Delay relative to video : 40 ms 
Stream size : 13.8 MiB (3%) 
Title : Commentary 
Default : No 
Forced : No 

Subtitle #1 
ID : 2 
Format : PGS 
Muxing mode : zlib 
Codec ID : S_HDMV/PGS 
Codec ID/Info : Picture based subtitle format used on BDs/HD-DVDs 
Duration : 23 min 13 s 
Bit rate : 12.5 kb/s 
Count of elements : 589 
Stream size : 2.07 MiB (0%) 
Default : Yes 
Forced : No 

Subtitle #2 
ID : 3 
Format : PGS 
Muxing mode : zlib 
Codec ID : S_HDMV/PGS 
Codec ID/Info : Picture based subtitle format used on BDs/HD-DVDs 
Duration : 23 min 13 s 
Bit rate : 14.6 kb/s 
Count of elements : 710 
Stream size : 2.42 MiB (1%) 
Default : No 
Forced : No

Download

Download: Google Drive

Season 2

The Legend of Korra (2012) Season 2 S02 (1080p BluRay x265 HEVC 10bit AAC 5.1 RCVR)
The Legend of Korra (2012) - S02E01 - Rebel Spirit (1080p BluRay x265 RCVR).mkv (372.0 MB)
The Legend of Korra (2012) - S02E02 - The Southern Lights (1080p BluRay x265 RCVR).mkv (413.1 MB)
The Legend of Korra (2012) - S02E03 - Civil Wars (1) (1080p BluRay x265 RCVR).mkv (279.3 MB)
The Legend of Korra (2012) - S02E04 - Civil Wars (2) (1080p BluRay x265 RCVR).mkv (269.2 MB)
The Legend of Korra (2012) - S02E05 - Peacekeepers (1080p BluRay x265 RCVR).mkv (313.3 MB)
The Legend of Korra (2012) - S02E06 - The Sting (1080p BluRay x265 RCVR).mkv (292.4 MB)
The Legend of Korra (2012) - S02E07 - The Beginnings Part 1 (1080p BluRay x265 RCVR).mkv (489.9 MB)
The Legend of Korra (2012) - S02E08 - The Beginnings Part 2 (1080p BluRay x265 RCVR).mkv (574.3 MB)
The Legend of Korra (2012) - S02E09 - The Guide (1080p BluRay x265 RCVR).mkv (322.1 MB)
The Legend of Korra (2012) - S02E10 - A New Spiritual Age (1080p BluRay x265 RCVR).mkv (342.1 MB)
The Legend of Korra (2012) - S02E11 - Night of a Thousand Stars (1080p BluRay x265 RCVR).mkv (333.3 MB)
The Legend of Korra (2012) - S02E12 - Harmonic Convergence (1080p BluRay x265 RCVR).mkv (409.2 MB)
The Legend of Korra (2012) - S02E13 - Darkness Falls (1080p BluRay x265 RCVR).mkv (387.7 MB)
The Legend of Korra (2012) - S02E14 - Light in the Dark (1080p BluRay x265 RCVR).mkv (382.0 MB)

Mediainfo

General 
Format : Matroska 
Format version : Version 4 / Version 2 
File size : 372 MiB 
Duration : 23 min 56 s 
Overall bit rate : 2 173 kb/s 
Movie name : The Legend of Korra: Book Two: Spirits - Disc 1 
Encoded date : UTC 2018-05-22 16:02:22 
Writing application : mkvmerge v10.0.0 ('To Drown In You') 64bit 
Writing library : libebml v1.3.4 + libmatroska v1.4.5 
Cover : Yes 
Attachments : cover.jpg 
Writing frontend : StaxRip v1.7.0.0 

Video 
ID : 1 
Format : HEVC 
Format/Info : High Efficiency Video Coding 
Format profile : Main [email protected]@Main 
Codec ID : V_MPEGH/ISO/HEVC 
Duration : 23 min 56 s 
Bit rate : 1 500 kb/s 
Width : 1 920 pixels 
Height : 1 080 pixels 
Display aspect ratio : 16:9 
Frame rate mode : Constant 
Frame rate : 29.970 (30000/1001) FPS 
Color space : YUV 
Chroma subsampling : 4:2:0 
Bit depth : 10 bits 
Bits/(Pixel*Frame) : 0.024 
Stream size : 257 MiB (69%) 
Writing library : x265 2.7+15-b9f5b5d7bf95:[Windows][MSVC 1900][64 bit] 10bit 
Encoding settings : cpuid=1050111 / frame-threads=2 / numa-pools=4 / wpp / no-pmode / no-pme / no-psnr / no-ssim / log-level=2 / input-csp=1 / input-res=1920x1080 / interlace=0 / total-frames=43038 / level-idc=0 / high-tier=1 / uhd-bd=0 / ref=4 / no-allow-non-conformance / no-repeat-headers / annexb / no-aud / no-hrd / info / hash=0 / no-temporal-layers / open-gop / min-keyint=25 / keyint=250 / gop-lookahead=0 / bframes=8 / b-adapt=2 / b-pyramid / bframe-bias=0 / rc-lookahead=80 / lookahead-slices=4 / scenecut=40 / radl=0 / no-intra-refresh / ctu=64 / min-cu-size=8 / rect / no-amp / max-tu-size=32 / tu-inter-depth=1 / tu-intra-depth=1 / limit-tu=0 / rdoq-level=2 / dynamic-rd=0.00 / no-ssim-rd / signhide / no-tskip / nr-intra=0 / nr-inter=0 / no-constrained-intra / no-strong-intra-smoothing / max-merge=4 / limit-refs=3 / limit-modes / me=3 / subme=5 / merange=57 / temporal-mvp / weightp / weightb / no-analyze-src-pics / deblock=-3:-3 / no-sao / no-sao-non-deblock / rd=5 / no-early-skip / no-rskip / no-fast-intra / no-tskip-fast / no-cu-lossless / no-b-intra / no-splitrd-skip / rdpenalty=0 / psy-rd=1.40 / psy-rdoq=1.80 / no-rd-refine / no-lossless / cbqpoffs=0 / crqpoffs=0 / rc=crf / crf=20.5 / qcomp=0.60 / qpstep=4 / stats-write=0 / stats-read=0 / ipratio=1.40 / pbratio=1.30 / aq-mode=2 / aq-strength=0.70 / cutree / zone-count=0 / no-strict-cbr / qg-size=32 / no-rc-grain / qpmax=69 / qpmin=0 / no-const-vbv / sar=0 / overscan=0 / videoformat=5 / range=0 / colorprim=2 / transfer=2 / colormatrix=2 / chromaloc=0 / display-window=0 / max-cll=0,0 / min-luma=0 / max-luma=1023 / log2-max-poc-lsb=8 / vui-timing-info / vui-hrd-info / slices=1 / no-opt-qp-pps / no-opt-ref-list-length-pps / no-multi-pass-opt-rps / scenecut-bias=0.05 / no-opt-cu-delta-qp / aq-motion / no-hdr / no-hdr-opt / no-dhdr10-opt / no-idr-recovery-sei / analysis-reuse-level=5 / scale-factor=0 / refine-intra=0 / refine-inter=0 / refine-mv=0 / no-limit-sao / ctu-info=0 / no-lowpass-dct / refine-mv-type=0 / copy-pic=1 / max-ausize-factor=1.0 / no-dynamic-refine 
Default : Yes 
Forced : No 

Audio #1 
ID : 2 
Format : AAC 
Format/Info : Advanced Audio Codec 
Format profile : LC 
Codec ID : A_AAC 
Duration : 23 min 56 s 
Bit rate : 456 kb/s 
Channel(s) : 6 channels 
Channel positions : Front: L C R, Side: L R, LFE 
Sampling rate : 48.0 kHz 
Frame rate : 46.875 FPS (1024 spf) 
Compression mode : Lossy 
Delay relative to video : 20 ms 
Stream size : 78.0 MiB (21%) 
Language : English 
Default : Yes 
Forced : No 

Audio #2 
ID : 3 
Format : AAC 
Format/Info : Advanced Audio Codec 
Format profile : HE-AAC / LC 
Codec ID : A_AAC 
Duration : 23 min 56 s 
Bit rate : 80.0 kb/s 
Channel(s) : 2 channels 
Channel positions : Front: L R 
Sampling rate : 48.0 kHz / 24.0 kHz 
Frame rate : 23.438 FPS (1024 spf) 
Compression mode : Lossy 
Delay relative to video : 40 ms 
Stream size : 13.7 MiB (4%) 
Language : Spanish 
Default : No 
Forced : No 

Audio #3 
ID : 4 
Format : AAC 
Format/Info : Advanced Audio Codec 
Format profile : LC 
Codec ID : A_AAC 
Duration : 23 min 56 s 
Bit rate : 112 kb/s 
Channel(s) : 2 channels 
Channel positions : Front: L R 
Sampling rate : 48.0 kHz 
Frame rate : 46.875 FPS (1024 spf) 
Compression mode : Lossy 
Delay relative to video : 20 ms 
Stream size : 19.2 MiB (5%) 
Title : Commentary 
Default : No 
Forced : No 

Subtitle 
ID : 5 
Format : PGS 
Muxing mode : zlib 
Codec ID : S_HDMV/PGS 
Codec ID/Info : Picture based subtitle format used on BDs/HD-DVDs 
Duration : 23 min 23 s 
Bit rate : 19.8 kb/s 
Count of elements : 962 
Stream size : 3.31 MiB (1%) 
Language : English 
Default : No 
Forced : No 

Menu 
00:00:00.000 : en:Chapter 01 
00:08:55.368 : en:Chapter 02 
00:17:53.739 : en:Chapter 03 
00:23:23.068 : en:Chapter 04

Screencaps

Download

Download: Google Drive

Season 3

The Legend of Korra (2012) Season 3 S03 (1080p BluRay x265 HEVC 10bit AAC 5.1 RCVR) REPACK
The Legend of Korra (2012) - S03E01 - A Breath of Fresh Air (1080p BluRay x265 RCVR).mkv (469.1 MB)
The Legend of Korra (2012) - S03E02 - Rebirth (1080p BluRay x265 RCVR).mkv (454.7 MB)
The Legend of Korra (2012) - S03E03 - The Earth Queen (1080p BluRay x265 RCVR).mkv (492.7 MB)
The Legend of Korra (2012) - S03E04 - In Harm's Way (1080p BluRay x265 RCVR).mkv (437.9 MB)
The Legend of Korra (2012) - S03E05 - The Metal Clan (1080p BluRay x265 RCVR).mkv (426.4 MB)
The Legend of Korra (2012) - S03E06 - Old Wounds (1080p BluRay x265 RCVR).mkv (441.0 MB)
The Legend of Korra (2012) - S03E07 - Original Airbenders (1080p BluRay x265 RCVR).mkv (396.7 MB)
The Legend of Korra (2012) - S03E08 - The Terror Within (1080p BluRay x265 RCVR).mkv (398.4 MB)
The Legend of Korra (2012) - S03E09 - The Stakeout (1080p BluRay x265 RCVR).mkv (361.3 MB)
The Legend of Korra (2012) - S03E10 - Long Live the Queen (1080p BluRay x265 RCVR).mkv (340.6 MB)
The Legend of Korra (2012) - S03E11 - The Ultimatum (1080p BluRay x265 RCVR).mkv (424.3 MB)
The Legend of Korra (2012) - S03E12 - Enter the Void (1080p BluRay x265 RCVR).mkv (382.3 MB)
The Legend of Korra (2012) - S03E13 - Venom of the Red Lotus (1080p BluRay x265 RCVR).mkv (450.6 MB)

Mediainfo

General 
Format : Matroska 
Format version : Version 4 / Version 2 
File size : 469 MiB 
Duration : 22 min 55 s 
Overall bit rate : 2 861 kb/s 
Encoded date : UTC 2018-07-20 09:06:19 
Writing application : mkvmerge v20.0.0 ('I Am The Sun') 64-bit 
Writing library : libebml v1.3.5 + libmatroska v1.4.8 
Cover : Yes 
Attachments : cover.jpg 
Writing frontend : StaxRip v1.7.0.6 

Video 
ID : 1 
Format : HEVC 
Format/Info : High Efficiency Video Coding 
Format profile : Main [email protected]@Main 
Codec ID : V_MPEGH/ISO/HEVC 
Duration : 22 min 55 s 
Bit rate : 2 241 kb/s 
Width : 1 920 pixels 
Height : 1 080 pixels 
Display aspect ratio : 16:9 
Frame rate mode : Constant 
Frame rate : 23.976 (24000/1001) FPS 
Color space : YUV 
Chroma subsampling : 4:2:0 
Bit depth : 10 bits 
Bits/(Pixel*Frame) : 0.045 
Stream size : 367 MiB (78%) 
Writing library : x265 2.8+47-e2759ae31c36:[Windows][MSVC 1914][64 bit] 10bit 
Encoding settings : cpuid=1111039 / frame-threads=3 / numa-pools=8 / wpp / no-pmode / no-pme / no-psnr / no-ssim / log-level=2 / input-csp=1 / input-res=1920x1080 / interlace=0 / total-frames=32974 / level-idc=0 / high-tier=1 / uhd-bd=0 / ref=4 / no-allow-non-conformance / no-repeat-headers / annexb / no-aud / no-hrd / info / hash=0 / no-temporal-layers / open-gop / min-keyint=23 / keyint=250 / gop-lookahead=0 / bframes=8 / b-adapt=2 / b-pyramid / bframe-bias=0 / rc-lookahead=80 / lookahead-slices=4 / scenecut=40 / radl=0 / no-intra-refresh / ctu=64 / min-cu-size=8 / rect / no-amp / max-tu-size=32 / tu-inter-depth=1 / tu-intra-depth=1 / limit-tu=0 / rdoq-level=2 / dynamic-rd=0.00 / no-ssim-rd / signhide / no-tskip / nr-intra=0 / nr-inter=0 / no-constrained-intra / no-strong-intra-smoothing / max-merge=4 / limit-refs=3 / limit-modes / me=3 / subme=5 / merange=57 / temporal-mvp / weightp / weightb / no-analyze-src-pics / deblock=-3:-3 / no-sao / no-sao-non-deblock / rd=5 / no-early-skip / no-rskip / no-fast-intra / no-tskip-fast / no-cu-lossless / no-b-intra / no-splitrd-skip / rdpenalty=0 / psy-rd=1.00 / psy-rdoq=1.20 / no-rd-refine / no-lossless / cbqpoffs=0 / crqpoffs=0 / rc=crf / crf=21.5 / qcomp=0.60 / qpstep=4 / stats-write=0 / stats-read=0 / ipratio=1.40 / pbratio=1.30 / aq-mode=3 / aq-strength=1.00 / cutree / zone-count=0 / no-strict-cbr / qg-size=32 / no-rc-grain / qpmax=69 / qpmin=0 / no-const-vbv / sar=0 / overscan=0 / videoformat=5 / range=0 / colorprim=2 / transfer=2 / colormatrix=2 / chromaloc=0 / display-window=0 / max-cll=0,0 / min-luma=0 / max-luma=1023 / log2-max-poc-lsb=8 / vui-timing-info / vui-hrd-info / slices=1 / no-opt-qp-pps / no-opt-ref-list-length-pps / no-multi-pass-opt-rps / scenecut-bias=0.05 / no-opt-cu-delta-qp / no-aq-motion / no-hdr / no-hdr-opt / no-dhdr10-opt / no-idr-recovery-sei / analysis-reuse-level=5 / scale-factor=0 / refine-intra=0 / refine-inter=0 / refine-mv=0 / no-limit-sao / ctu-info=0 / no-lowpass-dct / refine-mv-type=0 / copy-pic=1 / max-ausize-factor=1.0 / no-dynamic-refine / no-single-sei 
Default : Yes 
Forced : No 

Audio #1 
ID : 2 
Format : AAC 
Format/Info : Advanced Audio Codec 
Format profile : LC 
Codec ID : A_AAC 
Duration : 22 min 55 s 
Bit rate : 445 kb/s 
Channel(s) : 6 channels 
Channel positions : Front: L C R, Side: L R, LFE 
Sampling rate : 48.0 kHz 
Frame rate : 46.875 FPS (1024 spf) 
Compression mode : Lossy 
Delay relative to video : 20 ms 
Stream size : 73.0 MiB (16%) 
Language : English 
Default : No 
Forced : No 

Audio #2 
ID : 3 
Format : AAC 
Format/Info : Advanced Audio Codec 
Format profile : HE-AAC / LC 
Codec ID : A_AAC 
Duration : 22 min 55 s 
Bit rate : 80.0 kb/s 
Channel(s) : 2 channels 
Channel positions : Front: L R 
Sampling rate : 48.0 kHz / 24.0 kHz 
Frame rate : 23.438 FPS (1024 spf) 
Compression mode : Lossy 
Delay relative to video : 40 ms 
Stream size : 13.1 MiB (3%) 
Language : Spanish 
Default : No 
Forced : No 

Audio #3 
ID : 4 
Format : AAC 
Format/Info : Advanced Audio Codec 
Format profile : HE-AAC / LC 
Codec ID : A_AAC 
Duration : 22 min 55 s 
Bit rate : 80.0 kb/s 
Channel(s) : 2 channels 
Channel positions : Front: L R 
Sampling rate : 48.0 kHz / 24.0 kHz 
Frame rate : 23.438 FPS (1024 spf) 
Compression mode : Lossy 
Delay relative to video : 40 ms 
Stream size : 13.1 MiB (3%) 
Title : Commentary 
Language : English 
Default : No 
Forced : No 

Subtitle 
ID : 5 
Format : VobSub 
Muxing mode : zlib 
Codec ID : S_VOBSUB 
Codec ID/Info : Picture based subtitle format used on DVDs 
Duration : 22 min 0 s 
Bit rate : 18.3 kb/s 
Count of elements : 465 
Stream size : 2.89 MiB (1%) 
Language : English 
Default : No 
Forced : No 

Menu 
00:00:00.000 : en:Chapter 01 
00:06:30.765 : en:Chapter 02 
00:14:59.565 : en:Chapter 03 
00:22:24.259 : en:Chapter 04

Screencaps

Download

Download: Google Drive

Season 4

The Legend of Korra (2012) Season 4 S04 (1080p BluRay x265 HEVC 10bit AAC 5.1 RCVR)
The Legend of Korra (2012) - S04E01 - After All These Years (1080p BluRay x265 RCVR).mkv (368.4 MB)
The Legend of Korra (2012) - S04E02 - Korra Alone (1080p BluRay x265 RCVR).mkv (293.7 MB)
The Legend of Korra (2012) - S04E03 - The Coronation (1080p BluRay x265 RCVR).mkv (256.8 MB)
The Legend of Korra (2012) - S04E04 - The Calling (1080p BluRay x265 RCVR).mkv (290.1 MB)
The Legend of Korra (2012) - S04E05 - Enemy at the Gates (1080p BluRay x265 RCVR).mkv (317.9 MB)
The Legend of Korra (2012) - S04E06 - The Battle of Zaofu (1080p BluRay x265 RCVR).mkv (314.2 MB)
The Legend of Korra (2012) - S04E07 - Reunion (1080p BluRay x265 RCVR).mkv (368.3 MB)
The Legend of Korra (2012) - S04E08 - Remembrances (1080p BluRay x265 RCVR).mkv (291.1 MB)
The Legend of Korra (2012) - S04E09 - Beyond the Wilds (1080p BluRay x265 RCVR).mkv (290.1 MB)
The Legend of Korra (2012) - S04E10 - Operation Beifong (1080p BluRay x265 RCVR).mkv (328.9 MB)
The Legend of Korra (2012) - S04E11 - Kuvira's Gambit (1080p BluRay x265 RCVR).mkv (282.6 MB)
The Legend of Korra (2012) - S04E12 - Day of the Colossus (1080p BluRay x265 RCVR).mkv (445.4 MB)
The Legend of Korra (2012) - S04E13 - The Last Stand (1080p BluRay x265 RCVR).mkv (457.1 MB)

Mediainfo

General 
Format : Matroska 
Format version : Version 4 / Version 2 
File size : 368 MiB 
Duration : 22 min 50 s 
Overall bit rate : 2 255 kb/s 
Encoded date : UTC 2018-05-30 22:39:34 
Writing application : mkvmerge v15.0.0 ('Duel with the Devil') 64-bit 
Writing library : libebml v1.3.5 + libmatroska v1.4.5 
Cover : Yes 
Attachments : cover.jpg 
Writing frontend : StaxRip v1.7.0.0 

Video 
ID : 1 
Format : HEVC 
Format/Info : High Efficiency Video Coding 
Format profile : Main [email protected]@Main 
Codec ID : V_MPEGH/ISO/HEVC 
Duration : 22 min 50 s 
Bit rate : 1 712 kb/s 
Width : 1 920 pixels 
Height : 1 080 pixels 
Display aspect ratio : 16:9 
Frame rate mode : Constant 
Frame rate : 23.976 (24000/1001) FPS 
Color space : YUV 
Chroma subsampling : 4:2:0 
Bit depth : 10 bits 
Bits/(Pixel*Frame) : 0.034 
Stream size : 280 MiB (76%) 
Writing library : x265 2.7+15-b9f5b5d7bf95:[Windows][MSVC 1900][64 bit] 10bit 
Encoding settings : cpuid=1173503 / frame-threads=2 / numa-pools=4 / wpp / no-pmode / no-pme / no-psnr / no-ssim / log-level=2 / input-csp=1 / input-res=1920x1080 / interlace=0 / total-frames=32857 / level-idc=0 / high-tier=1 / uhd-bd=0 / ref=4 / no-allow-non-conformance / no-repeat-headers / annexb / no-aud / no-hrd / info / hash=0 / no-temporal-layers / open-gop / min-keyint=23 / keyint=250 / gop-lookahead=0 / bframes=8 / b-adapt=2 / b-pyramid / bframe-bias=0 / rc-lookahead=80 / lookahead-slices=4 / scenecut=40 / radl=0 / no-intra-refresh / ctu=64 / min-cu-size=8 / rect / no-amp / max-tu-size=32 / tu-inter-depth=1 / tu-intra-depth=1 / limit-tu=0 / rdoq-level=2 / dynamic-rd=0.00 / no-ssim-rd / signhide / no-tskip / nr-intra=0 / nr-inter=0 / no-constrained-intra / no-strong-intra-smoothing / max-merge=4 / limit-refs=3 / limit-modes / me=3 / subme=5 / merange=57 / temporal-mvp / weightp / weightb / no-analyze-src-pics / deblock=-3:-3 / no-sao / no-sao-non-deblock / rd=5 / no-early-skip / no-rskip / no-fast-intra / no-tskip-fast / no-cu-lossless / no-b-intra / no-splitrd-skip / rdpenalty=0 / psy-rd=1.40 / psy-rdoq=1.80 / no-rd-refine / no-lossless / cbqpoffs=0 / crqpoffs=0 / rc=crf / crf=20.5 / qcomp=0.60 / qpstep=4 / stats-write=0 / stats-read=0 / ipratio=1.40 / pbratio=1.30 / aq-mode=2 / aq-strength=0.70 / cutree / zone-count=0 / no-strict-cbr / qg-size=32 / no-rc-grain / qpmax=69 / qpmin=0 / no-const-vbv / sar=0 / overscan=0 / videoformat=5 / range=0 / colorprim=2 / transfer=2 / colormatrix=2 / chromaloc=0 / display-window=0 / max-cll=0,0 / min-luma=0 / max-luma=1023 / log2-max-poc-lsb=8 / vui-timing-info / vui-hrd-info / slices=1 / no-opt-qp-pps / no-opt-ref-list-length-pps / no-multi-pass-opt-rps / scenecut-bias=0.05 / no-opt-cu-delta-qp / aq-motion / no-hdr / no-hdr-opt / no-dhdr10-opt / no-idr-recovery-sei / analysis-reuse-level=5 / scale-factor=0 / refine-intra=0 / refine-inter=0 / refine-mv=0 / no-limit-sao / ctu-info=0 / no-lowpass-dct / refine-mv-type=0 / copy-pic=1 / max-ausize-factor=1.0 / no-dynamic-refine 
Default : Yes 
Forced : No 

Audio #1 
ID : 2 
Format : AAC 
Format/Info : Advanced Audio Codec 
Format profile : LC 
Codec ID : A_AAC 
Duration : 22 min 50 s 
Bit rate : 443 kb/s 
Channel(s) : 6 channels 
Channel positions : Front: L C R, Side: L R, LFE 
Sampling rate : 48.0 kHz 
Frame rate : 46.875 FPS (1024 spf) 
Compression mode : Lossy 
Delay relative to video : 20 ms 
Stream size : 72.4 MiB (20%) 
Language : English 
Default : Yes 
Forced : No 

Audio #2 
ID : 3 
Format : AAC 
Format/Info : Advanced Audio Codec 
Format profile : HE-AAC / LC 
Codec ID : A_AAC 
Duration : 22 min 50 s 
Bit rate : 80.0 kb/s 
Channel(s) : 2 channels 
Channel positions : Front: L R 
Sampling rate : 48.0 kHz / 24.0 kHz 
Frame rate : 23.438 FPS (1024 spf) 
Compression mode : Lossy 
Delay relative to video : 40 ms 
Stream size : 13.1 MiB (4%) 
Language : English 
Default : No 
Forced : No 

Subtitle 
ID : 4 
Format : PGS 
Muxing mode : zlib 
Codec ID : S_HDMV/PGS 
Codec ID/Info : Picture based subtitle format used on BDs/HD-DVDs 
Duration : 22 min 5 s 
Bit rate : 60.9 kb/s 
Count of elements : 796 
Stream size : 9.63 MiB (3%) 
Language : English 
Default : No 
Forced : No 

Menu 
00:00:00.000 : en:Chapter 01 
00:08:54.450 : en:Chapter 02 
00:14:31.161 : en:Chapter 03 
00:22:19.254 : en:Chapter 04

Screencaps

Download

Download: Google Drive

4 thoughts on “The Legend of Korra (2012) Season 1-4 (1080p BluRay x265 HEVC 10bit AAC 5.1 RCVR)

  1. “Sorry, you cannot view or download this file at this time.Too many users have viewed or downloaded this file recently”.

    So yeah I had this occurring problem – I came back every other day to check if the link works, sadly it isn’t.
    Hoping you can fix this, really appreciate it to me and the future downloaders.

  2. Thank you so much for your hard works!
    and I wanna ask you how to download the bluray remux or ISO version … maybe where?
    I’m learning English so sorry for any mistakes!

Leave a Reply