The Good Place (2016) Season 1-4 (1080p x265 HEVC 10bit AAC 5.1 Joy)

Summary: Eleanor Shellstrop is an ordinary woman who, through an extraordinary string of events, enters the afterlife where she comes to realize that she hasn’t been a very good person. With the help of her wise afterlife mentor, she’s determined to shed her old way of living and discover the awesome (or at least the pretty good) person within.

Season 1

The Good Place (2016) Season 01 S01 (1080p BluRay x265 HEVC 10bit AAC 5.1 Q22 Joy) [UTR]

Files

The Good Place Season 1 [1080p x265 q22 S78 Joy]
The Good Place S01E01 Pilot [1080p x265 q22 Joy].mkv (266.6 MB)
The Good Place S01E02 Flying [1080p x265 q22 Joy].mkv (254.4 MB)
The Good Place S01E03 Tahani Al-Jamil [1080p x265 q22 Joy].mkv (233.7 MB)
The Good Place S01E04 Jason Mendoza [1080p x265 q22 Joy].mkv (195.8 MB)
The Good Place S01E05 Category 55 Emergency Doomsday Crisis [1080p x265 q22 Joy].mkv (257.6 MB)
The Good Place S01E06 What We Owe to Each Other [1080p x265 q22 Joy].mkv (250.7 MB)
The Good Place S01E07 The Eternal Shriek [1080p x265 q22 Joy].mkv (235.8 MB)
The Good Place S01E08 Most Improved Player [1080p x265 q22 Joy].mkv (193.2 MB)
The Good Place S01E09 ...Someone Like Me as a Member [1080p x265 q22 Joy].mkv (210.3 MB)
The Good Place S01E10 Chidi's Choice [1080p x265 q22 Joy].mkv (191.1 MB)
The Good Place S01E11 What's My Motivation [1080p x265 q22 Joy].mkv (221.3 MB)
The Good Place S01E12 Mindy St. Claire [1080p x265 q22 Joy].mkv (208.6 MB)
The Good Place S01E13 Michael's Gambit [1080p x265 q22 Joy].mkv (217.1 MB)

Mediainfo

General
Format : Matroska
Format version : Version 4 / Version 2
File size : 217 MiB
Duration : 26 min 53 s
Overall bit rate : 1 128 kb/s
Movie name : The Good Place S01E13 Michael's Gambit [1080p x265 q22 Joy]
Encoded date : UTC 2019-11-11 16:57:14
Writing application : mkvmerge v34.0.0 ('Sight and Seen') 64-bit
Writing library : libebml v1.3.7 + libmatroska v1.5.0
Writing frontend : StaxRip v2.0.2.0, a JoyBell Encode

Video
ID : 1
Format : HEVC
Format/Info : High Efficiency Video Coding
Format profile : Main [email protected]@Main
Codec ID : V_MPEGH/ISO/HEVC
Duration : 26 min 53 s
Bit rate : 949 kb/s
Width : 1 920 pixels
Height : 1 080 pixels
Display aspect ratio : 16:9
Frame rate mode : Constant
Frame rate : 23.976 (24000/1001) FPS
Color space : YUV
Chroma subsampling : 4:2:0
Bit depth : 10 bits
Bits/(Pixel*Frame) : 0.019
Stream size : 183 MiB (84%)
Writing library : x265 3.2+9-971180b100f8:[Windows][MSVC 1923][64 bit] 10bit
Encoding settings : cpuid=1111039 / frame-threads=3 / numa-pools=8 / wpp / no-pmode / no-pme / no-psnr / ssim / log-level=2 / input-csp=1 / input-res=1920x1080 / interlace=0 / total-frames=38688 / level-idc=0 / high-tier=1 / uhd-bd=0 / ref=4 / no-allow-non-conformance / no-repeat-headers / annexb / no-aud / no-hrd / info / hash=0 / no-temporal-layers / open-gop / min-keyint=23 / keyint=250 / gop-lookahead=0 / bframes=8 / b-adapt=2 / b-pyramid / bframe-bias=40 / rc-lookahead=80 / lookahead-slices=4 / scenecut=40 / radl=0 / no-splice / no-intra-refresh / ctu=64 / min-cu-size=8 / rect / no-amp / max-tu-size=32 / tu-inter-depth=1 / tu-intra-depth=1 / limit-tu=0 / rdoq-level=2 / dynamic-rd=0.00 / ssim-rd / signhide / no-tskip / nr-intra=0 / nr-inter=0 / constrained-intra / strong-intra-smoothing / max-merge=3 / limit-refs=3 / limit-modes / me=3 / subme=3 / merange=57 / temporal-mvp / no-frame-dup / no-hme / weightp / no-weightb / no-analyze-src-pics / deblock=0:0 / sao / no-sao-non-deblock / rd=4 / selective-sao=4 / early-skip / rskip / no-fast-intra / no-tskip-fast / no-cu-lossless / no-b-intra / no-splitrd-skip / rdpenalty=0 / psy-rd=0.00 / psy-rdoq=0.80 / no-rd-refine / no-lossless / cbqpoffs=0 / crqpoffs=0 / rc=crf / crf=22.0 / qcomp=0.60 / qpstep=4 / stats-write=0 / stats-read=0 / ipratio=1.40 / pbratio=1.30 / aq-mode=1 / aq-strength=1.00 / cutree / zone-count=0 / no-strict-cbr / qg-size=32 / no-rc-grain / qpmax=69 / qpmin=0 / no-const-vbv / sar=0 / overscan=0 / videoformat=5 / range=0 / colorprim=2 / transfer=2 / colormatrix=2 / chromaloc=0 / display-window=0 / cll=0,0 / min-luma=0 / max-luma=1023 / log2-max-poc-lsb=8 / vui-timing-info / vui-hrd-info / slices=1 / no-opt-qp-pps / no-opt-ref-list-length-pps / no-multi-pass-opt-rps / scenecut-bias=0.05 / no-opt-cu-delta-qp / no-aq-motion / no-hdr / no-hdr-opt / no-dhdr10-opt / no-idr-recovery-sei / analysis-reuse-level=5 / scale-factor=0 / refine-intra=0 / refine-inter=0 / refine-mv=1 / refine-ctu-distortion=0 / no-limit-sao / ctu-info=0 / no-lowpass-dct / refine-analysis-type=0 / copy-pic=1 / max-ausize-factor=1.0 / no-dynamic-refine / no-single-sei / hevc-aq / no-svt / no-field / qp-adaptation-range=1.00
Default : Yes
Forced : No

Audio
ID : 2
Format : AAC
Format/Info : Advanced Audio Codec
Format profile : HE-AAC / LC
Codec ID : A_AAC
Duration : 26 min 53 s
Bit rate : 177 kb/s
Channel(s) : 6 channels
Channel positions : Front: L C R, Side: L R, LFE
Sampling rate : 48.0 kHz / 24.0 kHz
Frame rate : 23.438 FPS (1024 spf)
Compression mode : Lossy
Delay relative to video : 31 ms
Stream size : 34.0 MiB (16%)
Language : English
Default : No
Forced : No

Subtitle #1
ID : 3
Format : UTF-8
Codec ID : S_TEXT/UTF8
Codec ID/Info : UTF-8 Plain Text
Duration : 25 min 46 s
Bit rate : 97 b/s
Count of elements : 521
Stream size : 18.4 KiB (0%)
Language : English
Default : No
Forced : No

Subtitle #2
ID : 4
Format : UTF-8
Codec ID : S_TEXT/UTF8
Codec ID/Info : UTF-8 Plain Text
Duration : 25 min 46 s
Bit rate : 99 b/s
Count of elements : 537
Stream size : 18.8 KiB (0%)
Language : English
Default : No
Forced : No

Menu
00:00:00.000 : en:00:00:00.000
00:07:06.259 : en:00:07:06.259
00:13:08.162 : en:00:13:08.162
00:22:50.202 : en:00:22:50.202

Screens

Download

Download: Google Drive

Season 2

The Good Place (2016) Season 02 S02 (1080p BluRay x265 HEVC 10bit AAC 5.1 Q22 Joy) [UTR]

Files

The Good Place Season 2 [1080p x265 q22 S73 Joy]
The Good Place S02E01 Everything Is Great! [1080p x265 q22 Joy].mkv (457.7 MB)
The Good Place S02E02 Dance Dance Resolution [1080p x265 q22 Joy].mkv (244.4 MB)
The Good Place S02E03 Team Cockroach [1080p x265 q22 Joy].mkv (236.3 MB)
The Good Place S02E04 Existential Crisis [1080p x265 q22 Joy].mkv (255.6 MB)
The Good Place S02E05 The Trolley Problem [1080p x265 q22 Joy].mkv (241.4 MB)
The Good Place S02E06 Janet and Michael [1080p x265 q22 Joy].mkv (211.7 MB)
The Good Place S02E07 Derek [1080p x265 q22 Joy].mkv (301.0 MB)
The Good Place S02E08 Leap to Faith [1080p x265 q22 Joy].mkv (236.9 MB)
The Good Place S02E09 Best Self [1080p x265 q22 Joy].mkv (256.8 MB)
The Good Place S02E10 Rhonda, Diana, Jake, and Trent [1080p x265 q22 Joy].mkv (192.9 MB)
The Good Place S02E11 The Burrito [1080p x265 q22 Joy].mkv (206.5 MB)
The Good Place S02E12 Somewhere Else [1080p x265 q22 Joy].mkv (242.2 MB)

Mediainfo

General
Format : Matroska
Format version : Version 4 / Version 2
File size : 458 MiB
Duration : 42 min 41 s
Overall bit rate : 1 499 kb/s
Movie name : The Good Place S02E01 Everything Is Great! [1080p x265 q22 Joy]
Encoded date : UTC 2019-11-11 19:19:30
Writing application : mkvmerge v34.0.0 ('Sight and Seen') 64-bit
Writing library : libebml v1.3.7 + libmatroska v1.5.0
Writing frontend : StaxRip v2.0.2.0, a JoyBell Encode

Video
ID : 1
Format : HEVC
Format/Info : High Efficiency Video Coding
Format profile : Main [email protected]@Main
Codec ID : V_MPEGH/ISO/HEVC
Duration : 42 min 40 s
Bit rate : 1 313 kb/s
Width : 1 920 pixels
Height : 1 080 pixels
Display aspect ratio : 16:9
Frame rate mode : Constant
Frame rate : 23.976 (24000/1001) FPS
Color space : YUV
Chroma subsampling : 4:2:0
Bit depth : 10 bits
Bits/(Pixel*Frame) : 0.026
Stream size : 401 MiB (88%)
Writing library : x265 3.2+9-971180b100f8:[Windows][MSVC 1923][64 bit] 10bit
Encoding settings : cpuid=1111039 / frame-threads=3 / numa-pools=8 / wpp / no-pmode / no-pme / no-psnr / ssim / log-level=2 / input-csp=1 / input-res=1920x1080 / interlace=0 / total-frames=61399 / level-idc=0 / high-tier=1 / uhd-bd=0 / ref=4 / no-allow-non-conformance / no-repeat-headers / annexb / no-aud / no-hrd / info / hash=0 / no-temporal-layers / open-gop / min-keyint=23 / keyint=250 / gop-lookahead=0 / bframes=8 / b-adapt=2 / b-pyramid / bframe-bias=40 / rc-lookahead=80 / lookahead-slices=4 / scenecut=40 / radl=0 / no-splice / no-intra-refresh / ctu=64 / min-cu-size=8 / rect / no-amp / max-tu-size=32 / tu-inter-depth=1 / tu-intra-depth=1 / limit-tu=0 / rdoq-level=2 / dynamic-rd=0.00 / ssim-rd / signhide / no-tskip / nr-intra=0 / nr-inter=0 / constrained-intra / strong-intra-smoothing / max-merge=3 / limit-refs=3 / limit-modes / me=3 / subme=3 / merange=57 / temporal-mvp / no-frame-dup / no-hme / weightp / no-weightb / no-analyze-src-pics / deblock=0:0 / sao / no-sao-non-deblock / rd=4 / selective-sao=4 / early-skip / rskip / no-fast-intra / no-tskip-fast / no-cu-lossless / no-b-intra / no-splitrd-skip / rdpenalty=0 / psy-rd=0.00 / psy-rdoq=0.80 / no-rd-refine / no-lossless / cbqpoffs=0 / crqpoffs=0 / rc=crf / crf=22.0 / qcomp=0.60 / qpstep=4 / stats-write=0 / stats-read=0 / ipratio=1.40 / pbratio=1.30 / aq-mode=1 / aq-strength=1.00 / cutree / zone-count=0 / no-strict-cbr / qg-size=32 / no-rc-grain / qpmax=69 / qpmin=0 / no-const-vbv / sar=0 / overscan=0 / videoformat=5 / range=0 / colorprim=2 / transfer=2 / colormatrix=2 / chromaloc=0 / display-window=0 / cll=0,0 / min-luma=0 / max-luma=1023 / log2-max-poc-lsb=8 / vui-timing-info / vui-hrd-info / slices=1 / no-opt-qp-pps / no-opt-ref-list-length-pps / no-multi-pass-opt-rps / scenecut-bias=0.05 / no-opt-cu-delta-qp / no-aq-motion / no-hdr / no-hdr-opt / no-dhdr10-opt / no-idr-recovery-sei / analysis-reuse-level=5 / scale-factor=0 / refine-intra=0 / refine-inter=0 / refine-mv=1 / refine-ctu-distortion=0 / no-limit-sao / ctu-info=0 / no-lowpass-dct / refine-analysis-type=0 / copy-pic=1 / max-ausize-factor=1.0 / no-dynamic-refine / no-single-sei / hevc-aq / no-svt / no-field / qp-adaptation-range=1.00
Default : Yes
Forced : No

Audio
ID : 2
Format : AAC
Format/Info : Advanced Audio Codec
Format profile : HE-AAC / LC
Codec ID : A_AAC
Duration : 42 min 41 s
Bit rate : 184 kb/s
Channel(s) : 6 channels
Channel positions : Front: L C R, Side: L R, LFE
Sampling rate : 48.0 kHz / 24.0 kHz
Frame rate : 23.438 FPS (1024 spf)
Compression mode : Lossy
Delay relative to video : 31 ms
Stream size : 56.3 MiB (12%)
Language : English
Default : No
Forced : No

Subtitle #1
ID : 3
Format : UTF-8
Codec ID : S_TEXT/UTF8
Codec ID/Info : UTF-8 Plain Text
Duration : 42 min 32 s
Bit rate : 100 b/s
Count of elements : 861
Stream size : 31.2 KiB (0%)
Language : English
Default : No
Forced : No

Subtitle #2
ID : 4
Format : UTF-8
Codec ID : S_TEXT/UTF8
Codec ID/Info : UTF-8 Plain Text
Duration : 42 min 32 s
Bit rate : 105 b/s
Count of elements : 895
Stream size : 32.7 KiB (0%)
Language : English
Default : No
Forced : No

Menu
00:00:00.000 : en:Chapter 01
00:10:39.222 : en:Chapter 02
00:20:12.628 : en:Chapter 03
00:29:59.715 : en:Chapter 04

Screens

Download

Download: Google Drive

Season 3

The Good Place (2016) Season 03 S03 (1080p AMZN WEB-DL x265 HEVC 10bit AAC 5.1 Q22 Joy) [UTR]

Files

The Good Place Season 3 [1080p x265 q22 S90 Joy]
The Good Place S03E01 Everything Is Bonzer [1080p x265 q22 Joy].mkv (476.1 MB)
The Good Place S03E02 The Brainy Bunch [1080p x265 q22 Joy].mkv (221.8 MB)
The Good Place S03E03 The Snowplow [1080p x265 q22 Joy].mkv (192.8 MB)
The Good Place S03E04 Jeremy Bearimy [1080p x265 q22 Joy].mkv (216.7 MB)
The Good Place S03E05 The Ballad of Donkey Doug [1080p x265 q22 Joy].mkv (228.9 MB)
The Good Place S03E06 A Fractured Inheritance [1080p x265 q22 Joy].mkv (232.4 MB)
The Good Place S03E07 The Worst Possible Use of Free Will [1080p x265 q22 Joy].mkv (236.7 MB)
The Good Place S03E08 Don't Let The Good Life Pass You By [1080p x265 q22 Joy].mkv (271.2 MB)
The Good Place S03E09 Janet(s) [1080p x265 q22 Joy].mkv (234.5 MB)
The Good Place S03E10 The Book of Dougs [1080p x265 q22 Joy].mkv (223.1 MB)
The Good Place S03E11 Chidi Sees the Time-Knife [1080p x265 q22 Joy].mkv (240.0 MB)
The Good Place S03E12 Pandemonium [1080p x265 q22 Joy].mkv (221.7 MB)

Mediainfo

General
Format : Matroska
Format version : Version 4 / Version 2
File size : 476 MiB
Duration : 43 min 7 s
Overall bit rate : 1 544 kb/s
Movie name : The Good Place S03E01 Everything Is Bonzer [1080p x265 q22 Joy]
Encoded date : UTC 2019-11-13 05:10:24
Writing application : mkvmerge v34.0.0 ('Sight and Seen') 64-bit
Writing library : libebml v1.3.7 + libmatroska v1.5.0
Writing frontend : StaxRip v2.0.2.0, a JoyBell Encode

Video
ID : 1
Format : HEVC
Format/Info : High Efficiency Video Coding
Format profile : Main [email protected]@Main
Codec ID : V_MPEGH/ISO/HEVC
Duration : 43 min 7 s
Bit rate : 1 365 kb/s
Width : 1 920 pixels
Height : 1 080 pixels
Display aspect ratio : 16:9
Frame rate mode : Constant
Frame rate : 23.976 (24000/1001) FPS
Color space : YUV
Chroma subsampling : 4:2:0
Bit depth : 10 bits
Bits/(Pixel*Frame) : 0.027
Stream size : 421 MiB (88%)
Writing library : x265 3.2+9-971180b100f8:[Windows][MSVC 1923][64 bit] 10bit
Encoding settings : cpuid=1111039 / frame-threads=3 / numa-pools=8 / wpp / no-pmode / no-pme / no-psnr / ssim / log-level=2 / input-csp=1 / input-res=1920x1080 / interlace=0 / total-frames=62033 / level-idc=0 / high-tier=1 / uhd-bd=0 / ref=4 / no-allow-non-conformance / no-repeat-headers / annexb / no-aud / no-hrd / info / hash=0 / no-temporal-layers / open-gop / min-keyint=23 / keyint=250 / gop-lookahead=0 / bframes=8 / b-adapt=2 / b-pyramid / bframe-bias=40 / rc-lookahead=80 / lookahead-slices=4 / scenecut=40 / radl=0 / no-splice / no-intra-refresh / ctu=64 / min-cu-size=8 / rect / no-amp / max-tu-size=32 / tu-inter-depth=1 / tu-intra-depth=1 / limit-tu=0 / rdoq-level=2 / dynamic-rd=0.00 / ssim-rd / signhide / no-tskip / nr-intra=0 / nr-inter=0 / constrained-intra / strong-intra-smoothing / max-merge=3 / limit-refs=3 / limit-modes / me=3 / subme=3 / merange=57 / temporal-mvp / no-frame-dup / no-hme / weightp / no-weightb / no-analyze-src-pics / deblock=0:0 / sao / no-sao-non-deblock / rd=4 / selective-sao=4 / early-skip / rskip / no-fast-intra / no-tskip-fast / no-cu-lossless / no-b-intra / no-splitrd-skip / rdpenalty=0 / psy-rd=0.00 / psy-rdoq=0.80 / no-rd-refine / no-lossless / cbqpoffs=0 / crqpoffs=0 / rc=crf / crf=22.0 / qcomp=0.60 / qpstep=4 / stats-write=0 / stats-read=0 / ipratio=1.40 / pbratio=1.30 / aq-mode=1 / aq-strength=1.00 / cutree / zone-count=0 / no-strict-cbr / qg-size=32 / no-rc-grain / qpmax=69 / qpmin=0 / no-const-vbv / sar=0 / overscan=0 / videoformat=5 / range=0 / colorprim=2 / transfer=2 / colormatrix=2 / chromaloc=0 / display-window=0 / cll=0,0 / min-luma=0 / max-luma=1023 / log2-max-poc-lsb=8 / vui-timing-info / vui-hrd-info / slices=1 / no-opt-qp-pps / no-opt-ref-list-length-pps / no-multi-pass-opt-rps / scenecut-bias=0.05 / no-opt-cu-delta-qp / no-aq-motion / no-hdr / no-hdr-opt / no-dhdr10-opt / no-idr-recovery-sei / analysis-reuse-level=5 / scale-factor=0 / refine-intra=0 / refine-inter=0 / refine-mv=1 / refine-ctu-distortion=0 / no-limit-sao / ctu-info=0 / no-lowpass-dct / refine-analysis-type=0 / copy-pic=1 / max-ausize-factor=1.0 / no-dynamic-refine / no-single-sei / hevc-aq / no-svt / no-field / qp-adaptation-range=1.00
Default : Yes
Forced : No

Audio
ID : 2
Format : AAC
Format/Info : Advanced Audio Codec
Format profile : HE-AAC / LC
Codec ID : A_AAC
Duration : 43 min 7 s
Bit rate : 177 kb/s
Channel(s) : 6 channels
Channel positions : Front: L C R, Side: L R, LFE
Sampling rate : 48.0 kHz / 24.0 kHz
Frame rate : 23.438 FPS (1024 spf)
Compression mode : Lossy
Delay relative to video : 31 ms
Stream size : 54.5 MiB (11%)
Language : English
Default : No
Forced : No

Subtitle
ID : 3
Format : UTF-8
Codec ID : S_TEXT/UTF8
Codec ID/Info : UTF-8 Plain Text
Duration : 42 min 56 s
Bit rate : 111 b/s
Count of elements : 1042
Stream size : 35.2 KiB (0%)
Language : English
Default : No
Forced : No

Screens

Download

Download: Google Drive

Season 4

The Good Place (2016) Season 04 S04 (1080p AMZN WEB-DL x265 HEVC 10bit AAC 5.1 Q22 Joy) [UTR]

Files

The Good Place Season 4 [1080p x265 q22 Joy]
The Good Place S04E00 Series Finale Aftershow.mkv (101.1 MB)
The Good Place S04E01 A Girl from Arizona part 1 [1080p x265 q22 S87 Joy].mkv (246.1 MB)
The Good Place S04E02 A Girl from Arizona part 2 [1080p x265 q22 S86 Joy].mkv (237.9 MB)
The Good Place S04E03 Chillaxing [1080p x265 q22 S87 Joy].mkv (250.9 MB)
The Good Place S04E04 Tinker Tailor Demon Spy [1080p x265 q22 S90 Joy].mkv (187.0 MB)
The Good Place S04E05 Employee of the Bearimy [1080p x265 q22 S88 Joy].mkv (238.8 MB)
The Good Place S04E06 A Chip Driver Mystery [1080p x265 q22 S89 Joy].mkv (252.4 MB)
The Good Place S04E07 Help is Other People (1080p x265 q22 S88 Joy).mkv (238.6 MB)
The Good Place S04E08 The Funerals To End All Funerals [1080p x265 q22 S89 Joy].mkv (257.1 MB)
The Good Place S04E09 The Answer [1080p x265 q22 S88 Joy].mkv (234.8 MB)
The Good Place S04E10 You've Changed Man [1080p x265 q22 FS97 Joy].mkv (277.9 MB)
The Good Place S04E11 Mondays Am I Right [1080p x265 q22 FS91 Joy].mkv (224.6 MB)
The Good Place S04E12 Patty [1080p x265 10bit FS91 Joy].mkv (336.0 MB)
The Good Place S04E13 Whenever You're Ready [1080p x265 q22 FS89 Joy].mkv (803.8 MB)

Mediainfo

General
Format                                   : Matroska
Format version                           : Version 4 / Version 2
File size                                : 804 MiB
Duration                                 : 54 min 7 s
Overall bit rate                         : 2 076 kb/s
Movie name                               : The Good Place S04E13 Whenever You're Ready  [1080p x265 q22 Joy]
Encoded date                             : UTC 2020-02-01 18:08:16
Writing application                      : mkvmerge v34.0.0 ('Sight and Seen') 64-bit
Writing library                          : libebml v1.3.7 + libmatroska v1.5.0
Writing frontend                         : StaxRip v2.0.2.0, a JoyBell Encode

Video
ID                                       : 1
Format                                   : HEVC
Format/Info                              : High Efficiency Video Coding
Format profile                           : Main [email protected]@Main
Codec ID                                 : V_MPEGH/ISO/HEVC
Duration                                 : 54 min 7 s
Bit rate                                 : 1 888 kb/s
Width                                    : 1 920 pixels
Height                                   : 1 080 pixels
Display aspect ratio                     : 16:9
Frame rate mode                          : Constant
Frame rate                               : 23.976 (24000/1001) FPS
Color space                              : YUV
Chroma subsampling                       : 4:2:0
Bit depth                                : 10 bits
Bits/(Pixel*Frame)                       : 0.038
Stream size                              : 731 MiB (91%)
Writing library                          : x265 3.2+9-971180b100f8:[Windows][MSVC 1923][64 bit] 10bit
Encoding settings                        : cpuid=1111039 / frame-threads=3 / numa-pools=8 / wpp / no-pmode / no-pme / no-psnr / ssim / log-level=2 / input-csp=1 / input-res=1920x1080 / interlace=0 / total-frames=77862 / level-idc=0 / high-tier=1 / uhd-bd=0 / ref=4 / no-allow-non-conformance / no-repeat-headers / annexb / no-aud / no-hrd / info / hash=0 / no-temporal-layers / open-gop / min-keyint=23 / keyint=250 / gop-lookahead=0 / bframes=8 / b-adapt=2 / b-pyramid / bframe-bias=40 / rc-lookahead=80 / lookahead-slices=4 / scenecut=40 / radl=0 / no-splice / no-intra-refresh / ctu=64 / min-cu-size=8 / rect / no-amp / max-tu-size=32 / tu-inter-depth=1 / tu-intra-depth=1 / limit-tu=0 / rdoq-level=2 / dynamic-rd=0.00 / ssim-rd / signhide / no-tskip / nr-intra=0 / nr-inter=0 / constrained-intra / strong-intra-smoothing / max-merge=5 / limit-refs=3 / limit-modes / me=3 / subme=5 / merange=57 / temporal-mvp / no-frame-dup / no-hme / weightp / no-weightb / no-analyze-src-pics / deblock=1:1 / sao / no-sao-non-deblock / rd=4 / selective-sao=4 / early-skip / rskip / no-fast-intra / no-tskip-fast / no-cu-lossless / no-b-intra / no-splitrd-skip / rdpenalty=0 / psy-rd=2.40 / psy-rdoq=1.40 / no-rd-refine / no-lossless / cbqpoffs=0 / crqpoffs=0 / rc=crf / crf=21.5 / qcomp=0.60 / qpstep=4 / stats-write=0 / stats-read=0 / ipratio=1.40 / pbratio=1.30 / aq-mode=1 / aq-strength=1.00 / cutree / zone-count=0 / no-strict-cbr / qg-size=32 / no-rc-grain / qpmax=69 / qpmin=0 / no-const-vbv / sar=0 / overscan=0 / videoformat=5 / range=0 / colorprim=2 / transfer=2 / colormatrix=2 / chromaloc=0 / display-window=0 / cll=0,0 / min-luma=0 / max-luma=1023 / log2-max-poc-lsb=8 / vui-timing-info / vui-hrd-info / slices=1 / no-opt-qp-pps / no-opt-ref-list-length-pps / no-multi-pass-opt-rps / scenecut-bias=0.05 / no-opt-cu-delta-qp / no-aq-motion / no-hdr / no-hdr-opt / no-dhdr10-opt / no-idr-recovery-sei / analysis-reuse-level=5 / scale-factor=0 / refine-intra=0 / refine-inter=0 / refine-mv=1 / refine-ctu-distortion=0 / no-limit-sao / ctu-info=0 / no-lowpass-dct / refine-analysis-type=0 / copy-pic=1 / max-ausize-factor=1.0 / no-dynamic-refine / no-single-sei / hevc-aq / no-svt / no-field / qp-adaptation-range=1.00
Default                                  : Yes
Forced                                   : No

Audio
ID                                       : 2
Format                                   : AAC
Format/Info                              : Advanced Audio Codec
Format profile                           : HE-AAC / LC
Codec ID                                 : A_AAC
Duration                                 : 54 min 7 s
Bit rate                                 : 181 kb/s
Channel(s)                               : 6 channels
Channel positions                        : Front: L C R, Side: L R, LFE
Sampling rate                            : 48.0 kHz / 24.0 kHz
Frame rate                               : 23.438 FPS (1024 spf)
Compression mode                         : Lossy
Delay relative to video                  : 31 ms
Stream size                              : 69.9 MiB (9%)
Language                                 : English
Default                                  : No
Forced                                   : No

Subtitle #1
ID                                       : 3
Format                                   : UTF-8
Codec ID                                 : S_TEXT/UTF8
Codec ID/Info                            : UTF-8 Plain Text
Duration                                 : 53 min 9 s
Bit rate                                 : 85 b/s
Count of elements                        : 914
Stream size                              : 33.4 KiB (0%)
Language                                 : English
Default                                  : No
Forced                                   : No

Subtitle #2
ID                                       : 4
Format                                   : UTF-8
Codec ID                                 : S_TEXT/UTF8
Codec ID/Info                            : UTF-8 Plain Text
Duration                                 : 53 min 9 s
Bit rate                                 : 90 b/s
Count of elements                        : 958
Stream size                              : 35.1 KiB (0%)
Language                                 : English
Default                                  : No
Forced                                   : No

Subtitle #3
ID                                       : 5
Format                                   : UTF-8
Codec ID                                 : S_TEXT/UTF8
Codec ID/Info                            : UTF-8 Plain Text
Duration                                 : 53 min 16 s
Bit rate                                 : 130 b/s
Count of elements                        : 887
Stream size                              : 51.0 KiB (0%)
Language                                 : Arabic
Default                                  : No
Forced                                   : No

Subtitle #4
ID                                       : 6
Format                                   : UTF-8
Codec ID                                 : S_TEXT/UTF8
Codec ID/Info                            : UTF-8 Plain Text
Duration                                 : 53 min 16 s
Bit rate                                 : 72 b/s
Count of elements                        : 888
Stream size                              : 28.3 KiB (0%)
Language                                 : Czech
Default                                  : No
Forced                                   : No

Subtitle #5
ID                                       : 7
Format                                   : UTF-8
Codec ID                                 : S_TEXT/UTF8
Codec ID/Info                            : UTF-8 Plain Text
Duration                                 : 53 min 16 s
Bit rate                                 : 67 b/s
Count of elements                        : 887
Stream size                              : 26.4 KiB (0%)
Language                                 : Danish
Default                                  : No
Forced                                   : No

Subtitle #6
ID                                       : 8
Format                                   : UTF-8
Codec ID                                 : S_TEXT/UTF8
Codec ID/Info                            : UTF-8 Plain Text
Duration                                 : 53 min 16 s
Bit rate                                 : 135 b/s
Count of elements                        : 887
Stream size                              : 52.9 KiB (0%)
Language                                 : Greek
Default                                  : No
Forced                                   : No

Subtitle #7
ID                                       : 9
Format                                   : UTF-8
Codec ID                                 : S_TEXT/UTF8
Codec ID/Info                            : UTF-8 Plain Text
Duration                                 : 53 min 16 s
Bit rate                                 : 77 b/s
Count of elements                        : 887
Stream size                              : 30.3 KiB (0%)
Language                                 : Spanish
Default                                  : No
Forced                                   : No

Subtitle #8
ID                                       : 10
Format                                   : UTF-8
Codec ID                                 : S_TEXT/UTF8
Codec ID/Info                            : UTF-8 Plain Text
Duration                                 : 52 min 28 s
Bit rate                                 : 77 b/s
Count of elements                        : 886
Stream size                              : 29.9 KiB (0%)
Language                                 : Spanish
Default                                  : No
Forced                                   : No

Subtitle #9
ID                                       : 11
Format                                   : UTF-8
Codec ID                                 : S_TEXT/UTF8
Codec ID/Info                            : UTF-8 Plain Text
Duration                                 : 53 min 16 s
Bit rate                                 : 71 b/s
Count of elements                        : 886
Stream size                              : 27.8 KiB (0%)
Language                                 : Finnish
Default                                  : No
Forced                                   : No

Subtitle #10
ID                                       : 12
Format                                   : UTF-8
Codec ID                                 : S_TEXT/UTF8
Codec ID/Info                            : UTF-8 Plain Text
Duration                                 : 53 min 16 s
Bit rate                                 : 78 b/s
Count of elements                        : 885
Stream size                              : 30.8 KiB (0%)
Language                                 : French
Default                                  : No
Forced                                   : No

Subtitle #11
ID                                       : 13
Format                                   : UTF-8
Codec ID                                 : S_TEXT/UTF8
Codec ID/Info                            : UTF-8 Plain Text
Duration                                 : 53 min 16 s
Bit rate                                 : 120 b/s
Count of elements                        : 887
Stream size                              : 46.9 KiB (0%)
Language                                 : Hebrew
Default                                  : No
Forced                                   : No

Subtitle #12
ID                                       : 14
Format                                   : UTF-8
Codec ID                                 : S_TEXT/UTF8
Codec ID/Info                            : UTF-8 Plain Text
Duration                                 : 53 min 16 s
Bit rate                                 : 215 b/s
Count of elements                        : 887
Stream size                              : 84.0 KiB (0%)
Language                                 : Hindi
Default                                  : No
Forced                                   : No

Subtitle #13
ID                                       : 15
Format                                   : UTF-8
Codec ID                                 : S_TEXT/UTF8
Codec ID/Info                            : UTF-8 Plain Text
Duration                                 : 53 min 16 s
Bit rate                                 : 76 b/s
Count of elements                        : 887
Stream size                              : 30.0 KiB (0%)
Language                                 : Hungarian
Default                                  : No
Forced                                   : No

Subtitle #14
ID                                       : 16
Format                                   : UTF-8
Codec ID                                 : S_TEXT/UTF8
Codec ID/Info                            : UTF-8 Plain Text
Duration                                 : 53 min 16 s
Bit rate                                 : 75 b/s
Count of elements                        : 887
Stream size                              : 29.3 KiB (0%)
Language                                 : Indonesian
Default                                  : No
Forced                                   : No

Subtitle #15
ID                                       : 17
Format                                   : UTF-8
Codec ID                                 : S_TEXT/UTF8
Codec ID/Info                            : UTF-8 Plain Text
Duration                                 : 53 min 16 s
Bit rate                                 : 93 b/s
Count of elements                        : 886
Stream size                              : 36.5 KiB (0%)
Language                                 : Icelandic
Default                                  : No
Forced                                   : No

Subtitle #16
ID                                       : 18
Format                                   : UTF-8
Codec ID                                 : S_TEXT/UTF8
Codec ID/Info                            : UTF-8 Plain Text
Duration                                 : 53 min 16 s
Bit rate                                 : 78 b/s
Count of elements                        : 887
Stream size                              : 30.6 KiB (0%)
Language                                 : Italian
Default                                  : No
Forced                                   : No

Subtitle #17
ID                                       : 19
Format                                   : UTF-8
Codec ID                                 : S_TEXT/UTF8
Codec ID/Info                            : UTF-8 Plain Text
Duration                                 : 53 min 16 s
Bit rate                                 : 78 b/s
Count of elements                        : 905
Stream size                              : 30.7 KiB (0%)
Language                                 : Japanese
Default                                  : No
Forced                                   : No

Subtitle #18
ID                                       : 20
Format                                   : UTF-8
Codec ID                                 : S_TEXT/UTF8
Codec ID/Info                            : UTF-8 Plain Text
Duration                                 : 53 min 16 s
Bit rate                                 : 100 b/s
Count of elements                        : 886
Stream size                              : 39.0 KiB (0%)
Language                                 : Korean
Default                                  : No
Forced                                   : No

Subtitle #19
ID                                       : 21
Format                                   : UTF-8
Codec ID                                 : S_TEXT/UTF8
Codec ID/Info                            : UTF-8 Plain Text
Duration                                 : 53 min 16 s
Bit rate                                 : 77 b/s
Count of elements                        : 886
Stream size                              : 30.4 KiB (0%)
Language                                 : Malay
Default                                  : No
Forced                                   : No

Subtitle #20
ID                                       : 22
Format                                   : UTF-8
Codec ID                                 : S_TEXT/UTF8
Codec ID/Info                            : UTF-8 Plain Text
Duration                                 : 53 min 16 s
Bit rate                                 : 78 b/s
Count of elements                        : 891
Stream size                              : 30.6 KiB (0%)
Language                                 : Norwegian Bokmal
Default                                  : No
Forced                                   : No

Subtitle #21
ID                                       : 23
Format                                   : UTF-8
Codec ID                                 : S_TEXT/UTF8
Codec ID/Info                            : UTF-8 Plain Text
Duration                                 : 53 min 16 s
Bit rate                                 : 71 b/s
Count of elements                        : 854
Stream size                              : 27.9 KiB (0%)
Language                                 : Dutch
Default                                  : No
Forced                                   : No

Subtitle #22
ID                                       : 24
Format                                   : UTF-8
Codec ID                                 : S_TEXT/UTF8
Codec ID/Info                            : UTF-8 Plain Text
Duration                                 : 53 min 16 s
Bit rate                                 : 74 b/s
Count of elements                        : 881
Stream size                              : 28.9 KiB (0%)
Language                                 : Polish
Default                                  : No
Forced                                   : No

Subtitle #23
ID                                       : 25
Format                                   : UTF-8
Codec ID                                 : S_TEXT/UTF8
Codec ID/Info                            : UTF-8 Plain Text
Duration                                 : 53 min 16 s
Bit rate                                 : 79 b/s
Count of elements                        : 887
Stream size                              : 30.9 KiB (0%)
Language                                 : Portuguese
Default                                  : No
Forced                                   : No

Subtitle #24
ID                                       : 26
Format                                   : UTF-8
Codec ID                                 : S_TEXT/UTF8
Codec ID/Info                            : UTF-8 Plain Text
Duration                                 : 53 min 16 s
Bit rate                                 : 81 b/s
Count of elements                        : 887
Stream size                              : 31.9 KiB (0%)
Language                                 : Portuguese
Default                                  : No
Forced                                   : No

Subtitle #25
ID                                       : 27
Format                                   : UTF-8
Codec ID                                 : S_TEXT/UTF8
Codec ID/Info                            : UTF-8 Plain Text
Duration                                 : 53 min 16 s
Bit rate                                 : 85 b/s
Count of elements                        : 886
Stream size                              : 33.2 KiB (0%)
Language                                 : Romanian
Default                                  : No
Forced                                   : No

Subtitle #26
ID                                       : 28
Format                                   : UTF-8
Codec ID                                 : S_TEXT/UTF8
Codec ID/Info                            : UTF-8 Plain Text
Duration                                 : 53 min 16 s
Bit rate                                 : 122 b/s
Count of elements                        : 887
Stream size                              : 47.6 KiB (0%)
Language                                 : Russian
Default                                  : No
Forced                                   : No

Subtitle #27
ID                                       : 29
Format                                   : UTF-8
Codec ID                                 : S_TEXT/UTF8
Codec ID/Info                            : UTF-8 Plain Text
Duration                                 : 53 min 16 s
Bit rate                                 : 77 b/s
Count of elements                        : 887
Stream size                              : 30.3 KiB (0%)
Language                                 : Swedish
Default                                  : No
Forced                                   : No

Subtitle #28
ID                                       : 30
Format                                   : UTF-8
Codec ID                                 : S_TEXT/UTF8
Codec ID/Info                            : UTF-8 Plain Text
Duration                                 : 53 min 16 s
Bit rate                                 : 220 b/s
Count of elements                        : 891
Stream size                              : 86.2 KiB (0%)
Language                                 : Thai
Default                                  : No
Forced                                   : No

Subtitle #29
ID                                       : 31
Format                                   : UTF-8
Codec ID                                 : S_TEXT/UTF8
Codec ID/Info                            : UTF-8 Plain Text
Duration                                 : 53 min 16 s
Bit rate                                 : 80 b/s
Count of elements                        : 887
Stream size                              : 31.3 KiB (0%)
Language                                 : Turkish
Default                                  : No
Forced                                   : No

Subtitle #30
ID                                       : 32
Format                                   : UTF-8
Codec ID                                 : S_TEXT/UTF8
Codec ID/Info                            : UTF-8 Plain Text
Duration                                 : 53 min 16 s
Bit rate                                 : 131 b/s
Count of elements                        : 887
Stream size                              : 51.4 KiB (0%)
Language                                 : Ukrainian
Default                                  : No
Forced                                   : No

Subtitle #31
ID                                       : 33
Format                                   : UTF-8
Codec ID                                 : S_TEXT/UTF8
Codec ID/Info                            : UTF-8 Plain Text
Duration                                 : 53 min 16 s
Bit rate                                 : 111 b/s
Count of elements                        : 887
Stream size                              : 43.5 KiB (0%)
Language                                 : Vietnamese
Default                                  : No
Forced                                   : No

Subtitle #32
ID                                       : 34
Format                                   : UTF-8
Codec ID                                 : S_TEXT/UTF8
Codec ID/Info                            : UTF-8 Plain Text
Duration                                 : 53 min 16 s
Bit rate                                 : 83 b/s
Count of elements                        : 887
Stream size                              : 32.6 KiB (0%)
Language                                 : Chinese
Default                                  : No
Forced                                   : No

Subtitle #33
ID                                       : 35
Format                                   : UTF-8
Codec ID                                 : S_TEXT/UTF8
Codec ID/Info                            : UTF-8 Plain Text
Duration                                 : 53 min 16 s
Bit rate                                 : 82 b/s
Count of elements                        : 887
Stream size                              : 32.2 KiB (0%)
Language                                 : Chinese
Default                                  : No
Forced                                   : No

Screens

Download

Download: Google Drive

2 thoughts on “The Good Place (2016) Season 1-4 (1080p x265 HEVC 10bit AAC 5.1 Joy)

  1. I love Joy’s uploads.. affordable size and Good Quality..

    Can you upload Joy’s release OITNB..

    “Orange Is the New Black (2013) Season 01-07 S01-S07 (1080p WEB-DL x265 HEVC 10bit AAC 5.1 Joy) [UTR] 45.5GB

Leave a Reply