The Good Doctor (2017) Season 1-3 (1080p AMZN WEB-DL x265 HEVC 10bit AAC 5.1 Vyndros)

Summary: Shaun Murphy (Freddie Highmore), a young surgeon with autism and savant syndrome, relocates from a quiet country life to join a prestigious hospital’s surgical unit. Alone in the world and unable to personally connect with those around him, Shaun uses his extraordinary medical gifts to save lives and challenge the skepticism of his colleagues.

Season 1

The Good Doctor (2017) Season 1 S01 (1080p AMZN WEB-DL x265 HEVC 10bit AAC 5.1 Vyndros)

Files

The Good Doctor (2017) Season 1 S01 (1080p AMZN WEB-DL x265 HEVC 10bit AAC 5.1 Vyndros)
The.Good.Doctor.S01E01.Burnt.Food.1080p.10bit.AMZN.WEB-DL.AAC5.1.HEVC-Vyndros.mkv (753.8 MB)
The.Good.Doctor.S01E02.Mount.Rushmore.1080p.10bit.AMZN.WEB-DL.AAC5.1.HEVC-Vyndros.mkv (696.7 MB)
The.Good.Doctor.S01E03.Oliver.1080p.10bit.AMZN.WEB-DL.AAC5.1.HEVC-Vyndros.mkv (595.3 MB)
The.Good.Doctor.S01E04.Pipes.1080p.10bit.AMZN.WEB-DL.AAC5.1.HEVC-Vyndros.mkv (542.5 MB)
The.Good.Doctor.S01E05.Point.Three.Percent.1080p.10bit.AMZN.WEB-DL.AAC5.1.HEVC-Vyndros.mkv (519.3 MB)
The.Good.Doctor.S01E06.Not.Fake.1080p.10bit.AMZN.WEB-DL.AAC5.1.HEVC-Vyndros.mkv (521.2 MB)
The.Good.Doctor.S01E07.22.Steps.1080p.10bit.AMZN.WEB-DL.AAC5.1.HEVC-Vyndros.mkv (464.9 MB)
The.Good.Doctor.S01E08.Apple.1080p.10bit.AMZN.WEB-DL.AAC5.1.HEVC-Vyndros.mkv (550.9 MB)
The.Good.Doctor.S01E09.Intangibles.1080p.10bit.AMZN.WEB-DL.AAC5.1.HEVC-Vyndros.mkv (555.0 MB)
The.Good.Doctor.S01E10.Sacrifice.1080p.10bit.AMZN.WEB-DL.AAC5.1.HEVC-Vyndros.mkv (524.3 MB)
The.Good.Doctor.S01E11.Islands.Part.One.1080p.10bit.AMZN.WEB-DL.AAC5.1.HEVC-Vyndros.mkv (534.9 MB)
The.Good.Doctor.S01E12.Islands.Part.Two.1080p.10bit.AMZN.WEB-DL.AAC5.1.HEVC-Vyndros.mkv (492.3 MB)
The.Good.Doctor.S01E13.Seven.Reasons.1080p.10bit.AMZN.WEB-DL.AAC5.1.HEVC-Vyndros.mkv (522.5 MB)
The.Good.Doctor.S01E14.She.1080p.10bit.AMZN.WEB-DL.AAC5.1.HEVC-Vyndros.mkv (561.9 MB)
The.Good.Doctor.S01E15.Heartfelt.1080p.10bit.AMZN.WEB-DL.AAC5.1.HEVC-Vyndros.mkv (608.5 MB)
The.Good.Doctor.S01E16.Pain.1080p.10bit.AMZN.WEB-DL.AAC5.1.HEVC-Vyndros.mkv (550.5 MB)
The.Good.Doctor.S01E17.Smile.1080p.10bit.AMZN.WEB-DL.AAC5.1.HEVC-Vyndros.mkv (553.6 MB)
The.Good.Doctor.S01E18.More.1080p.10bit.AMZN.WEB-DL.AAC5.1.HEVC-Vyndros.mkv (623.6 MB)

Mediainfo

General 
Format : Matroska 
Format version : Version 4 / Version 2 
File size : 624 MiB 
Duration : 43 min 11 s 
Overall bit rate : 2 019 kb/s 
Encoded date : UTC 2018-03-29 07:46:09 
Writing application : mkvmerge v9.6.0 ('Slave To Your Mind') 64bit 
Writing library : libebml v1.3.4 + libmatroska v1.4.5 
Writing frontend : StaxRip v1.7.0.6 

Video 
ID : 1 
Format : HEVC 
Format/Info : High Efficiency Video Coding 
Format profile : Main [email protected]@Main 
Codec ID : V_MPEGH/ISO/HEVC 
Duration : 43 min 11 s 
Bit rate : 1 568 kb/s 
Width : 1 920 pixels 
Height : 1 080 pixels 
Display aspect ratio : 16:9 
Frame rate mode : Constant 
Frame rate : 23.976 (24000/1001) FPS 
Color space : YUV 
Chroma subsampling : 4:2:0 
Bit depth : 10 bits 
Bits/(Pixel*Frame) : 0.032 
Stream size : 484 MiB (78%) 
Writing library : x265 2.7+12-98e48e8dd6ab:[Windows][GCC 7.3.0][64 bit] 10bit 
Encoding settings : cpuid=1173503 / frame-threads=3 / numa-pools=12 / wpp / no-pmode / no-pme / no-psnr / ssim / log-level=2 / input-csp=1 / input-res=1920x1080 / interlace=0 / total-frames=62122 / level-idc=0 / high-tier=1 / uhd-bd=0 / ref=3 / no-allow-non-conformance / no-repeat-headers / annexb / no-aud / no-hrd / info / hash=0 / no-temporal-layers / open-gop / min-keyint=23 / keyint=250 / gop-lookahead=0 / bframes=8 / b-adapt=2 / b-pyramid / bframe-bias=0 / rc-lookahead=50 / lookahead-slices=6 / scenecut=40 / radl=0 / no-intra-refresh / ctu=64 / min-cu-size=8 / no-rect / no-amp / max-tu-size=32 / tu-inter-depth=1 / tu-intra-depth=1 / limit-tu=0 / rdoq-level=0 / dynamic-rd=0.00 / no-ssim-rd / signhide / no-tskip / nr-intra=0 / nr-inter=0 / no-constrained-intra / no-strong-intra-smoothing / max-merge=3 / limit-refs=3 / no-limit-modes / me=3 / subme=3 / merange=57 / temporal-mvp / weightp / no-weightb / no-analyze-src-pics / deblock=0:0 / sao / no-sao-non-deblock / rd=3 / no-early-skip / no-rskip / no-fast-intra / no-tskip-fast / no-cu-lossless / no-b-intra / no-splitrd-skip / rdpenalty=0 / psy-rd=1.50 / psy-rdoq=0.00 / no-rd-refine / no-lossless / cbqpoffs=0 / crqpoffs=0 / rc=crf / crf=21.0 / qcomp=0.60 / qpstep=4 / stats-write=0 / stats-read=0 / ipratio=1.40 / pbratio=1.30 / aq-mode=3 / aq-strength=0.80 / cutree / zone-count=0 / no-strict-cbr / qg-size=32 / no-rc-grain / qpmax=69 / qpmin=0 / no-const-vbv / sar=0 / overscan=0 / videoformat=5 / range=0 / colorprim=2 / transfer=2 / colormatrix=2 / chromaloc=0 / display-window=0 / max-cll=0,0 / min-luma=0 / max-luma=1023 / log2-max-poc-lsb=8 / vui-timing-info / vui-hrd-info / slices=1 / no-opt-qp-pps / no-opt-ref-list-length-pps / no-multi-pass-opt-rps / scenecut-bias=0.05 / no-opt-cu-delta-qp / no-aq-motion / no-hdr / no-hdr-opt / no-dhdr10-opt / no-idr-recovery-sei / analysis-reuse-level=5 / scale-factor=0 / refine-intra=0 / refine-inter=0 / refine-mv=0 / no-limit-sao / ctu-info=0 / no-lowpass-dct / refine-mv-type=0 / copy-pic=1 / max-ausize-factor=1.0 / no-dynamic-refine 
Default : Yes 
Forced : No 

Audio 
ID : 3 
Format : AAC 
Format/Info : Advanced Audio Codec 
Format profile : LC 
Codec ID : A_AAC 
Duration : 43 min 10 s 
Bit rate : 448 kb/s 
Channel(s) : 6 channels 
Channel positions : Front: L C R, Side: L R, LFE 
Sampling rate : 48.0 kHz 
Frame rate : 46.875 FPS (1024 spf) 
Compression mode : Lossy 
Stream size : 138 MiB (22%) 
Language : English 
Default : Yes 
Forced : Yes 

Subtitle 
ID : 2 
Format : UTF-8 
Codec ID : S_TEXT/UTF8 
Codec ID/Info : UTF-8 Plain Text 
Duration : 42 min 21 s 
Bit rate : 79 b/s 
Count of elements : 890 
Stream size : 24.7 KiB (0%) 
Default : Yes 
Forced : No

Screencaps

Download

Download: Google Drive

Season 2

The Good Doctor (2017) Season 2 S02 (1080p AMZN WEB-DL x265 HEVC 10bit AAC 5.1 Vyndros)

Files

The Good Doctor (2017) Season 2 S02 (1080p AMZN WEB-DL x265 HEVC 10bit AAC 5.1 Vyndros)
The.Good.Doctor.S02E01.Hello.1080p.10bit.AMZN.WEB-DL.AAC5.1.HEVC-Vyndros.mkv (865.1 MB)
The.Good.Doctor.S02E02.Middle.Ground.1080p.10bit.AMZN.WEB-DL.AAC5.1.HEVC-Vyndros.mkv (862.1 MB)
The.Good.Doctor.S02E03.36.Hours.1080p.10bit.AMZN.WEB-DL.AAC5.1.HEVC-Vyndros.mkv (875.5 MB)
The.Good.Doctor.S02E04.Tough.Titmouse.1080p.10bit.AMZN.WEB-DL.AAC5.1.HEVC-Vyndros.mkv (792.0 MB)
The.Good.Doctor.S02E05.Carrots.1080p.10bit.AMZN.WEB-DL.AAC5.1.HEVC-Vyndros.mkv (742.7 MB)
The.Good.Doctor.S02E06.Two-Ply.(or.Not.Two-Ply).1080p.10bit.AMZN.WEB-DL.AAC5.1.HEVC-Vyndros.mkv (716.0 MB)
The.Good.Doctor.S02E07.Hubert.1080p.10bit.AMZN.WEB-DL.AAC5.1.HEVC-Vyndros.mkv (776.8 MB)
The.Good.Doctor.S02E08.Stories.1080p.10bit.AMZN.WEB-DL.AAC5.1.HEVC-Vyndros.mkv (670.9 MB)
The.Good.Doctor.S02E09.Empathy.1080p.10bit.AMZN.WEB-DL.AAC5.1.HEVC-Vyndros.mkv (885.7 MB)
The.Good.Doctor.S02E10.Quarantine.1080p.10bit.AMZN.WEB-DL.AAC5.1.HEVC-Vyndros.mkv (888.8 MB)
The.Good.Doctor.S02E11.The.Quarantine.P2.1080p.10bit.AMZN.WEB-DL.AAC5.1.HEVC-Vyndros.mkv (811.1 MB)
The.Good.Doctor.S02E12.Aftermath.1080p.10bit.AMZN.WEB-DL.AAC5.1.HEVC-Vyndros.mkv (966.5 MB)
The.Good.Doctor.S02E13.Xin.1080p.10bit.AMZN.WEB-DL.AAC5.1.HEVC-Vyndros.mkv (724.9 MB)
The.Good.Doctor.S02E14.Faces.1080p.10bit.AMZN.WEB-DL.AAC5.1.HEVC-Vyndros.mkv (808.8 MB)
The.Good.Doctor.S02E15.Risk.and.Reward.1080p.10bit.AMZN.WEB-DL.AAC5.1.HEVC-Vyndros.mkv (741.4 MB)
The.Good.Doctor.S02E16.Believe.1080p.10bit.AMZN.WEB-DL.AAC5.1.HEVC-Vyndros.mkv (690.1 MB)
The.Good.Doctor.S02E17.Breakdown.1080p.10bit.AMZN.WEB-DL.AAC5.1.HEVC-Vyndros.mkv (725.2 MB)
The.Good.Doctor.S02E18.Trampoline.1080p.10bit.AMZN.WEB-DL.AAC5.1.HEVC-Vyndros.mkv (725.0 MB)

Mediainfo

General
Format : Matroska
Format version : Version 4 / Version 2
File size : 725 MiB
Duration : 43 min 20 s
Overall bit rate : 2 339 kb/s
Encoded date : UTC 2019-03-13 05:17:20
Writing application : mkvmerge v20.0.0 ('I Am The Sun') 64-bit
Writing library : libebml v1.3.5 + libmatroska v1.4.8
Writing frontend : StaxRip v1.7.0.6

Video
ID : 1
Format : HEVC
Format/Info : High Efficiency Video Coding
Format profile : Main [email protected]@Main
Codec ID : V_MPEGH/ISO/HEVC
Duration : 43 min 20 s
Bit rate : 1 888 kb/s
Width : 1 920 pixels
Height : 1 080 pixels
Display aspect ratio : 16:9
Frame rate mode : Constant
Frame rate : 23.976 (24000/1001) FPS
Color space : YUV
Chroma subsampling : 4:2:0
Bit depth : 10 bits
Bits/(Pixel*Frame) : 0.038
Stream size : 585 MiB (81%)
Writing library : x265 3.0_Au+8-31ab7e09a3b5:[Windows][GCC 8.3.0][64 bit] 10bit
Encoding settings : cpuid=1111039 / frame-threads=3 / numa-pools=12 / wpp / no-pmode / no-pme / no-psnr / ssim / log-level=2 / input-csp=1 / input-res=1920x1080 / interlace=0 / total-frames=62339 / level-idc=0 / high-tier=1 / uhd-bd=0 / ref=3 / no-allow-non-conformance / no-repeat-headers / annexb / no-aud / no-hrd / info / hash=0 / no-temporal-layers / open-gop / min-keyint=23 / keyint=250 / gop-lookahead=0 / bframes=8 / b-adapt=2 / b-pyramid / bframe-bias=0 / rc-lookahead=50 / lookahead-slices=6 / scenecut=40 / radl=0 / no-splice / no-intra-refresh / ctu=64 / min-cu-size=8 / no-rect / no-amp / max-tu-size=32 / tu-inter-depth=1 / tu-intra-depth=1 / limit-tu=0 / rdoq-level=0 / dynamic-rd=0.00 / no-ssim-rd / signhide / no-tskip / nr-intra=0 / nr-inter=0 / no-constrained-intra / no-strong-intra-smoothing / max-merge=3 / limit-refs=3 / no-limit-modes / me=3 / subme=3 / merange=57 / temporal-mvp / weightp / no-weightb / no-analyze-src-pics / deblock=0:0 / sao / no-sao-non-deblock / rd=3 / no-early-skip / no-rskip / no-fast-intra / no-tskip-fast / no-cu-lossless / no-b-intra / no-splitrd-skip / rdpenalty=0 / psy-rd=2.00 / psy-rdoq=0.00 / no-rd-refine / no-lossless / cbqpoffs=0 / crqpoffs=0 / rc=crf / crf=20.0 / qcomp=0.60 / qpstep=4 / stats-write=0 / stats-read=0 / ipratio=1.40 / pbratio=1.30 / aq-mode=3 / aq-strength=0.80 / cutree / zone-count=0 / no-strict-cbr / qg-size=32 / no-rc-grain / qpmax=69 / qpmin=0 / no-const-vbv / sar=0 / overscan=0 / videoformat=5 / range=0 / colorprim=2 / transfer=2 / colormatrix=2 / chromaloc=0 / display-window=0 / max-cll=0,0 / min-luma=0 / max-luma=1023 / log2-max-poc-lsb=8 / vui-timing-info / vui-hrd-info / slices=1 / no-opt-qp-pps / no-opt-ref-list-length-pps / no-multi-pass-opt-rps / scenecut-bias=0.05 / no-opt-cu-delta-qp / no-aq-motion / no-hdr / no-hdr-opt / no-dhdr10-opt / no-idr-recovery-sei / analysis-reuse-level=5 / scale-factor=0 / refine-intra=0 / refine-inter=0 / refine-mv=0 / refine-ctu-distortion=0 / no-limit-sao / ctu-info=0 / no-lowpass-dct / refine-analysis-type=0 / copy-pic=1 / max-ausize-factor=1.0 / no-dynamic-refine / no-single-sei / no-hevc-aq / no-svt / qp-adaptation-range=1.00
Default : Yes
Forced : No

Audio
ID : 2
Format : AAC
Format/Info : Advanced Audio Codec
Format profile : LC
Codec ID : A_AAC
Duration : 43 min 20 s
Bit rate : 448 kb/s
Channel(s) : 6 channels
Channel positions : Front: L C R, Side: L R, LFE
Sampling rate : 48.0 kHz
Frame rate : 46.875 FPS (1024 spf)
Compression mode : Lossy
Stream size : 139 MiB (19%)
Language : English
Default : Yes
Forced : Yes

Subtitle
ID : 3
Format : UTF-8
Codec ID : S_TEXT/UTF8
Codec ID/Info : UTF-8 Plain Text
Duration : 42 min 42 s
Bit rate : 61 b/s
Count of elements : 695
Stream size : 19.1 KiB (0%)
Language : English
Default : No
Forced : No

Screens

Download

Download: Google Drive

Season 3

The Good Doctor (2017) Season 3 S03 (1080p AMZN WEB-DL x265 HEVC 10bit AAC 5.1 Vyndros)

Files

The Good Doctor (2017) Season 3 S03 (1080p AMZN WEB-DL x265 HEVC 10bit AAC 5.1 Vyndros)
The.Good.Doctor.S03E01.Disaster.1080p.10bit.AMZN.WEB-DL.AAC5.1.HEVC-Vyndros.mkv (656.9 MB)
The.Good.Doctor.S03E02.Debts.1080p.10bit.AMZN.WEB-DL.AAC5.1.HEVC-Vyndros.mkv (683.2 MB)
The.Good.Doctor.S03E03.Claire.1080p.10bit.AMZN.WEB-DL.AAC5.1.HEVC-Vyndros.mkv (793.3 MB)
The.Good.Doctor.S03E04.Take.My.Hand.1080p.10bit.AMZN.WEB-DL.AAC5.1.HEVC-Vyndros.mkv (663.7 MB)
The.Good.Doctor.S03E05.First.Case,.Second.Base.1080p.10bit.AMZN.WEB-DL.AAC5.1.HEVC-Vyndros.mkv (669.5 MB)
The.Good.Doctor.S03E06.45-Degree.Angle.1080p.10bit.AMZN.WEB-DL.AAC5.1.HEVC-Vyndros.mkv (716.1 MB)
The.Good.Doctor.S03E07.SFAD.1080p.10bit.AMZN.WEB-DL.AAC5.1.HEVC-Vyndros.mkv (693.5 MB)
The.Good.Doctor.S03E08.Moonshot.1080p.10bit.AMZN.WEB-DL.AAC5.1.HEVC-Vyndros.mkv (599.7 MB)
The.Good.Doctor.S03E09.Incomplete.1080p.10bit.AMZN.WEB-DL.AAC5.1.HEVC-Vyndros.mkv (610.8 MB)
The.Good.Doctor.S03E10.Friends.and.Family.1080p.10bit.AMZN.WEB-DL.AAC5.1.HEVC-Vyndros.mkv (674.9 MB)
The.Good.Doctor.S03E11.Fractured.1080p.10bit.AMZN.WEB-DL.AAC5.1.HEVC-Vyndros.mkv (609.4 MB)
The.Good.Doctor.S03E12.Mutations.1080p.10bit.AMZN.WEB-DL.AAC5.1.HEVC-Vyndros.mkv (680.4 MB)
The.Good.Doctor.S03E13.Sex.and.Death.1080p.10bit.AMZN.WEB-DL.AAC5.1.HEVC-Vyndros.mkv (661.1 MB)
The.Good.Doctor.S03E14.Influence.1080p.10bit.AMZN.WEB-DL.AAC5.1.HEVC-Vyndros.mkv (733.7 MB)
The.Good.Doctor.S03E15.Unsaid.1080p.10bit.AMZN.WEB-DL.AAC5.1.HEVC-Vyndros.mkv (643.6 MB)
The.Good.Doctor.S03E16.Autopsy.1080p.10bit.AMZN.WEB-DL.AAC5.1.HEVC-Vyndros.mkv (598.1 MB)
The.Good.Doctor.S03E17.Fixation.1080p.10bit.AMZN.WEB-DL.AAC5.1.HEVC-Vyndros.mkv (657.9 MB)
The.Good.Doctor.S03E18.Heartbreak.1080p.10bit.AMZN.WEB-DL.AAC5.1.HEVC-Vyndros.mkv (657.4 MB)
The.Good.Doctor.S03E19.Hurt.1080p.10bit.AMZN.WEB-DL.AAC5.1.HEVC-Vyndros.mkv (635.7 MB)
The.Good.Doctor.S03E20.I.Love.You.1080p.10bit.AMZN.WEB-DL.AAC5.1.HEVC-Vyndros.mkv (568.2 MB)

Mediainfo

General
Format : Matroska
Format version : Version 4 / Version 2
File size : 568 MiB
Duration : 43 min 10 s
Overall bit rate : 1 840 kb/s
Encoded date : UTC 2020-03-31 20:01:56
Writing application : mkvmerge v20.0.0 ('I Am The Sun') 64-bit
Writing library : libebml v1.3.5 + libmatroska v1.4.8
Writing frontend : StaxRip v1.7.0.6

Video
ID : 1
Format : HEVC
Format/Info : High Efficiency Video Coding
Format profile : Main [email protected]@Main
Codec ID : V_MPEGH/ISO/HEVC
Duration : 43 min 10 s
Bit rate : 1 381 kb/s
Width : 1 920 pixels
Height : 1 080 pixels
Display aspect ratio : 16:9
Frame rate mode : Constant
Frame rate : 23.976 (24000/1001) FPS
Color space : YUV
Chroma subsampling : 4:2:0
Bit depth : 10 bits
Bits/(Pixel*Frame) : 0.028
Stream size : 427 MiB (75%)
Writing library : x265 3.3+1-g554c887ac:[Windows][MSVC 1924][64 bit] 10bit
Encoding settings : cpuid=1111039 / frame-threads=3 / numa-pools=12 / wpp / no-pmode / no-pme / no-psnr / ssim / log-level=2 / input-csp=1 / input-res=1920x1080 / interlace=0 / total-frames=62118 / level-idc=0 / high-tier=1 / uhd-bd=0 / ref=3 / no-allow-non-conformance / no-repeat-headers / annexb / no-aud / no-hrd / info / hash=0 / no-temporal-layers / open-gop / min-keyint=23 / keyint=250 / gop-lookahead=0 / bframes=8 / b-adapt=2 / b-pyramid / bframe-bias=0 / rc-lookahead=80 / lookahead-slices=6 / scenecut=40 / hist-scenecut=0 / radl=0 / no-splice / no-intra-refresh / ctu=64 / min-cu-size=8 / no-rect / no-amp / max-tu-size=32 / tu-inter-depth=1 / tu-intra-depth=1 / limit-tu=0 / rdoq-level=0 / dynamic-rd=0.00 / no-ssim-rd / signhide / no-tskip / nr-intra=0 / nr-inter=0 / no-constrained-intra / no-strong-intra-smoothing / max-merge=3 / limit-refs=1 / no-limit-modes / me=3 / subme=5 / merange=57 / temporal-mvp / no-frame-dup / no-hme / weightp / no-weightb / no-analyze-src-pics / deblock=0:0 / sao / no-sao-non-deblock / rd=3 / selective-sao=4 / early-skip / no-rskip / no-fast-intra / no-tskip-fast / no-cu-lossless / b-intra / no-splitrd-skip / rdpenalty=0 / psy-rd=2.00 / psy-rdoq=0.00 / no-rd-refine / no-lossless / cbqpoffs=0 / crqpoffs=0 / rc=crf / crf=20.0 / qcomp=0.60 / qpstep=4 / stats-write=0 / stats-read=0 / ipratio=1.40 / pbratio=1.30 / aq-mode=3 / aq-strength=0.80 / cutree / zone-count=0 / no-strict-cbr / qg-size=32 / no-rc-grain / qpmax=69 / qpmin=0 / no-const-vbv / sar=0 / overscan=0 / videoformat=5 / range=0 / colorprim=2 / transfer=2 / colormatrix=2 / chromaloc=0 / display-window=0 / cll=0,0 / min-luma=0 / max-luma=1023 / log2-max-poc-lsb=8 / vui-timing-info / vui-hrd-info / slices=1 / no-opt-qp-pps / no-opt-ref-list-length-pps / no-multi-pass-opt-rps / scenecut-bias=0.05 / hist-threshold=0.01 / no-opt-cu-delta-qp / no-aq-motion / no-hdr10 / no-hdr10-opt / no-dhdr10-opt / no-idr-recovery-sei / analysis-reuse-level=0 / analysis-save-reuse-level=0 / analysis-load-reuse-level=0 / scale-factor=0 / refine-intra=0 / refine-inter=0 / refine-mv=1 / refine-ctu-distortion=0 / no-limit-sao / ctu-info=0 / no-lowpass-dct / refine-analysis-type=0 / copy-pic=1 / max-ausize-factor=1.0 / no-dynamic-refine / no-single-sei / no-hevc-aq / no-svt / no-field / qp-adaptation-range=1.00 / no-scenecut-aware-qpconformance-window-offsets / right=0 / bottom=0
Default : Yes
Forced : No

Audio
ID : 2
Format : AAC
Format/Info : Advanced Audio Codec
Format profile : LC
Codec ID : A_AAC
Duration : 43 min 10 s
Bit rate : 456 kb/s
Channel(s) : 6 channels
Channel positions : Front: L C R, Side: L R, LFE
Sampling rate : 48.0 kHz
Frame rate : 46.875 FPS (1024 spf)
Compression mode : Lossy
Delay relative to video : 20 ms
Stream size : 141 MiB (25%)
Language : English
Default : Yes
Forced : Yes

Subtitle
ID : 3
Format : UTF-8
Codec ID : S_TEXT/UTF8
Codec ID/Info : UTF-8 Plain Text
Duration : 42 min 54 s
Bit rate : 58 b/s
Count of elements : 797
Stream size : 18.4 KiB (0%)
Language : English
Default : No
Forced : No

Screens

Download

Download: Google Drive

4 thoughts on “The Good Doctor (2017) Season 1-3 (1080p AMZN WEB-DL x265 HEVC 10bit AAC 5.1 Vyndros)

Leave a Reply