The Flash (2014) Season 1-6 (1080p Mixed x265 HEVC 10bit AAC 5.1 Vyndros)

Plot: After being struck by lightning, Barry Allen wakes up from his coma to discover he’s been given the power of super speed, becoming the Flash, fighting crime in Central City.

Season 1

The Flash (2014) Season 1 S01 (1080p BluRay x265 HEVC 10bit AAC 5.1 Vyndros)

Files

  • The.Flash.S01E01.Pilot.1080p.10bit.BluRay.AAC5.1.HEVC-Vyndros.mkv (1.1 GB)
  • The.Flash.S01E02.Fastest.Man.Alive.1080p.10bit.BluRay.AAC5.1.HEVC-Vyndros.mkv (936.3 MB)
  • The.Flash.S01E03.Things.You.Can’t.Outrun.1080p.10bit.BluRay.AAC5.1.HEVC-Vyndros.mkv (915.3 MB)
  • The.Flash.S01E04.Going.Rogue.1080p.10bit.BluRay.AAC5.1.HEVC-Vyndros.mkv (1.1 GB)
  • The.Flash.S01E05.Plastique.1080p.10bit.BluRay.AAC5.1.HEVC-Vyndros.mkv (905.4 MB)
  • The.Flash.S01E06.The.Flash.Is.Born.1080p.10bit.BluRay.AAC5.1.HEVC-Vyndros.mkv (928.0 MB)
  • The.Flash.S01E07.Power.Outage.1080p.10bit.BluRay.AAC5.1.HEVC-Vyndros.mkv (857.6 MB)
  • The.Flash.S01E08.Flash.vs.Arrow.(1).1080p.10bit.BluRay.AAC5.1.HEVC-Vyndros.mkv (1.1 GB)
  • The.Flash.S01E09.The.Man.in.the.Yellow.Suit.1080p.10bit.BluRay.AAC5.1.HEVC-Vyndros.mkv (982.6 MB)
  • The.Flash.S01E10.Revenge.of.the.Rogues.1080p.10bit.BluRay.AAC5.1.HEVC-Vyndros.mkv (1,002.8 MB)
  • The.Flash.S01E11.The.Sound.and.the.Fury.1080p.10bit.BluRay.AAC5.1.HEVC-Vyndros.mkv (936.3 MB)
  • The.Flash.S01E12.Crazy.for.You.1080p.10bit.BluRay.AAC5.1.HEVC-Vyndros.mkv (957.3 MB)
  • The.Flash.S01E13.The.Nuclear.Man.1080p.10bit.BluRay.AAC5.1.HEVC-Vyndros.mkv (1.0 GB)
  • The.Flash.S01E14.Fallout.1080p.10bit.BluRay.AAC5.1.HEVC-Vyndros.mkv (977.9 MB)
  • The.Flash.S01E15.Out.of.Time.1080p.10bit.BluRay.AAC5.1.HEVC-Vyndros.mkv (980.2 MB)
  • The.Flash.S01E16.Rogue.Time.1080p.10bit.BluRay.AAC5.1.HEVC-Vyndros.mkv (861.1 MB)
  • The.Flash.S01E17.Tricksters.1080p.10bit.BluRay.AAC5.1.HEVC-Vyndros.mkv (898.0 MB)
  • The.Flash.S01E18.All-Star.Team-Up.1080p.10bit.BluRay.AAC5.1.HEVC-Vyndros.mkv (991.8 MB)
  • The.Flash.S01E19.Who.Is.Harrison.Wells.1080p.10bit.BluRay.AAC5.1.HEVC-Vyndros.mkv (976.9 MB)
  • The.Flash.S01E20.The.Trap.1080p.10bit.BluRay.AAC5.1.HEVC-Vyndros.mkv (1.2 GB)
  • The.Flash.S01E21.Grodd.Lives.1080p.10bit.BluRay.AAC5.1.HEVC-Vyndros.mkv (812.8 MB)
  • The.Flash.S01E22.Rogue.Air.1080p.10bit.BluRay.AAC5.1.HEVC-Vyndros.mkv (958.6 MB)
  • The.Flash.S01E23.Fast.Enough.1080p.10bit.BluRay.AAC5.1.HEVC-Vyndros.mkv (935.7 MB)

Mediainfo

General
Format : Matroska
Format version : Version 4 / Version 2
File size : 936 MiB
Duration : 44 min 33 s
Overall bit rate : 2 936 kb/s
Movie name : The.Flash.S01E23.Fast.Enough.1080p.BluRay.Remux.AVC.DTS.HD-MA.5.1-BMF
Encoded date : UTC 2018-07-12 13:28:33
Writing application : mkvmerge v20.0.0 ('I Am The Sun') 64-bit
Writing library : libebml v1.3.5 + libmatroska v1.4.8
Writing frontend : StaxRip v1.7.0.6

Video
ID : 1
Format : HEVC
Format/Info : High Efficiency Video Coding
Format profile : Main [email protected]@Main
Codec ID : V_MPEGH/ISO/HEVC
Duration : 44 min 32 s
Bit rate : 2 471 kb/s
Width : 1 920 pixels
Height : 1 080 pixels
Display aspect ratio : 16:9
Frame rate mode : Constant
Frame rate : 23.976 (24000/1001) FPS
Color space : YUV
Chroma subsampling : 4:2:0
Bit depth : 10 bits
Bits/(Pixel*Frame) : 0.050
Stream size : 787 MiB (84%)
Writing library : x265 2.8+19-bcdc610cf5f0:[Windows][GCC 7.3.0][64 bit] 10bit
Encoding settings : cpuid=1111039 / frame-threads=2 / numa-pools=4 / wpp / no-pmode / no-pme / no-psnr / ssim / log-level=2 / input-csp=1 / input-res=1920x1080 / interlace=0 / total-frames=64080 / level-idc=0 / high-tier=1 / uhd-bd=0 / ref=3 / no-allow-non-conformance / no-repeat-headers / annexb / no-aud / no-hrd / info / hash=0 / no-temporal-layers / open-gop / min-keyint=23 / keyint=250 / gop-lookahead=0 / bframes=8 / b-adapt=2 / b-pyramid / bframe-bias=0 / rc-lookahead=50 / lookahead-slices=6 / scenecut=40 / radl=0 / no-intra-refresh / ctu=64 / min-cu-size=8 / no-rect / no-amp / max-tu-size=32 / tu-inter-depth=1 / tu-intra-depth=1 / limit-tu=0 / rdoq-level=0 / dynamic-rd=0.00 / no-ssim-rd / signhide / no-tskip / nr-intra=0 / nr-inter=0 / no-constrained-intra / no-strong-intra-smoothing / max-merge=3 / limit-refs=3 / no-limit-modes / me=3 / subme=3 / merange=57 / temporal-mvp / weightp / no-weightb / no-analyze-src-pics / deblock=0:0 / sao / no-sao-non-deblock / rd=3 / no-early-skip / no-rskip / no-fast-intra / no-tskip-fast / no-cu-lossless / no-b-intra / no-splitrd-skip / rdpenalty=0 / psy-rd=2.00 / psy-rdoq=0.00 / no-rd-refine / no-lossless / cbqpoffs=0 / crqpoffs=0 / rc=crf / crf=20.0 / qcomp=0.60 / qpstep=4 / stats-write=0 / stats-read=0 / ipratio=1.40 / pbratio=1.30 / aq-mode=3 / aq-strength=1.00 / cutree / zone-count=0 / no-strict-cbr / qg-size=32 / no-rc-grain / qpmax=69 / qpmin=0 / no-const-vbv / sar=0 / overscan=0 / videoformat=5 / range=0 / colorprim=2 / transfer=2 / colormatrix=2 / chromaloc=0 / display-window=0 / max-cll=0,0 / min-luma=0 / max-luma=1023 / log2-max-poc-lsb=8 / vui-timing-info / vui-hrd-info / slices=1 / no-opt-qp-pps / no-opt-ref-list-length-pps / no-multi-pass-opt-rps / scenecut-bias=0.05 / no-opt-cu-delta-qp / no-aq-motion / no-hdr / no-hdr-opt / no-dhdr10-opt / no-idr-recovery-sei / analysis-reuse-level=5 / scale-factor=0 / refine-intra=0 / refine-inter=0 / refine-mv=0 / no-limit-sao / ctu-info=0 / no-lowpass-dct / refine-mv-type=0 / copy-pic=1 / max-ausize-factor=1.0 / no-dynamic-refine / no-single-sei
Default : Yes
Forced : No

Audio
ID : 2
Format : AAC
Format/Info : Advanced Audio Codec
Format profile : LC
Codec ID : A_AAC
Duration : 44 min 33 s
Bit rate : 446 kb/s
Channel(s) : 6 channels
Channel positions : Front: L C R, Side: L R, LFE
Sampling rate : 48.0 kHz
Frame rate : 46.875 FPS (1024 spf)
Compression mode : Lossy
Stream size : 142 MiB (15%)
Language : English
Default : Yes
Forced : No

Subtitle
ID : 3
Format : PGS
Muxing mode : zlib
Codec ID : S_HDMV/PGS
Codec ID/Info : Picture based subtitle format used on BDs/HD-DVDs
Duration : 44 min 23 s
Bit rate : 38.5 kb/s
Count of elements : 1272
Stream size : 12.2 MiB (1%)
Language : English
Default : No
Forced : No

Download

Download: Google Drive

Season 2

The Flash (2014) Season 2 S02 (1080p BluRay x265 HEVC 10bit AAC 5.1 Vyndros)

Files

  • The.Flash.S02E01.The.Man.Who.Saved.Central.City.1080p.10bit.BluRay.AAC5.1.HEVC-Vyndros.mkv (1,009.5 MB)
  • The.Flash.S02E02.Flash.of.Two.Worlds.1080p.10bit.BluRay.AAC5.1.HEVC-Vyndros.mkv (900.8 MB)
  • The.Flash.S02E03.Family.of.Rogues.1080p.10bit.BluRay.AAC5.1.HEVC-Vyndros.mkv (914.6 MB)
  • The.Flash.S02E04.The.Fury.of.Firestorm.1080p.10bit.BluRay.AAC5.1.HEVC-Vyndros.mkv (989.4 MB)
  • The.Flash.S02E05.The.Darkness.and.the.Light.1080p.10bit.BluRay.AAC5.1.HEVC-Vyndros.mkv (917.1 MB)
  • The.Flash.S02E06.Enter.Zoom.1080p.10bit.BluRay.AAC5.1.HEVC-Vyndros.mkv (806.3 MB)
  • The.Flash.S02E07.Gorilla.Warfare.1080p.10bit.BluRay.AAC5.1.HEVC-Vyndros.mkv (852.0 MB)
  • The.Flash.S02E08.Legends.of.Today.(1).1080p.10bit.BluRay.AAC5.1.HEVC-Vyndros.mkv (930.4 MB)
  • The.Flash.S02E09.Running.to.Stand.Still.1080p.10bit.BluRay.AAC5.1.HEVC-Vyndros.mkv (975.9 MB)
  • The.Flash.S02E10.Potential.Energy.1080p.10bit.BluRay.AAC5.1.HEVC-Vyndros.mkv (834.7 MB)
  • The.Flash.S02E11.The.Reverse-Flash.Returns.1080p.10bit.BluRay.AAC5.1.HEVC-Vyndros.mkv (890.7 MB)
  • The.Flash.S02E12.Fast.Lane.1080p.10bit.BluRay.AAC5.1.HEVC-Vyndros.mkv (834.4 MB)
  • The.Flash.S02E13.Welcome.to.Earth-2.1080p.10bit.BluRay.AAC5.1.HEVC-Vyndros.mkv (918.3 MB)
  • The.Flash.S02E14.Escape.from.Earth-2.1080p.10bit.BluRay.AAC5.1.HEVC-Vyndros.mkv (889.5 MB)
  • The.Flash.S02E15.King.Shark.1080p.10bit.BluRay.AAC5.1.HEVC-Vyndros.mkv (877.3 MB)
  • The.Flash.S02E16.Trajectory.1080p.10bit.BluRay.AAC5.1.HEVC-Vyndros.mkv (1.1 GB)
  • The.Flash.S02E17.Flash.Back.1080p.10bit.BluRay.AAC5.1.HEVC-Vyndros.mkv (948.9 MB)
  • The.Flash.S02E18.Versus.Zoom.1080p.10bit.BluRay.AAC5.1.HEVC-Vyndros.mkv (871.9 MB)
  • The.Flash.S02E19.Back.to.Normal.1080p.10bit.BluRay.AAC5.1.HEVC-Vyndros.mkv (850.4 MB)
  • The.Flash.S02E20.Rupture.1080p.10bit.BluRay.AAC5.1.HEVC-Vyndros.mkv (995.4 MB)
  • The.Flash.S02E21.The.Runaway.Dinosaur.1080p.10bit.BluRay.AAC5.1.HEVC-Vyndros.mkv (906.3 MB)
  • The.Flash.S02E22.Invincible.1080p.10bit.BluRay.AAC5.1.HEVC-Vyndros.mkv (995.7 MB)
  • The.Flash.S02E23.The.Race.of.His.Life.1080p.10bit.BluRay.AAC5.1.HEVC-Vyndros.mkv (931.9 MB)

Mediainfo

General
Format : Matroska
Format version : Version 4 / Version 2
File size : 996 MiB
Duration : 42 min 32 s
Overall bit rate : 3 273 kb/s
Movie name : The Flash S02E22 Invincible 1080p Blu-ray Remux AVC DTS-HD MA 5.1 - KRaLiMaRKo
Encoded date : UTC 2018-07-18 07:38:21
Writing application : mkvmerge v20.0.0 ('I Am The Sun') 64-bit
Writing library : libebml v1.3.5 + libmatroska v1.4.8
Writing frontend : StaxRip v1.7.0.6

Video
ID : 1
Format : HEVC
Format/Info : High Efficiency Video Coding
Format profile : Main [email protected]@Main
Codec ID : V_MPEGH/ISO/HEVC
Duration : 42 min 32 s
Bit rate : 2 807 kb/s
Width : 1 920 pixels
Height : 1 080 pixels
Display aspect ratio : 16:9
Frame rate mode : Constant
Frame rate : 23.976 (24000/1001) FPS
Color space : YUV
Chroma subsampling : 4:2:0
Bit depth : 10 bits
Bits/(Pixel*Frame) : 0.056
Stream size : 854 MiB (86%)
Writing library : x265 2.8+19-bcdc610cf5f0:[Windows][GCC 7.3.0][64 bit] 10bit
Encoding settings : cpuid=1111039 / frame-threads=2 / numa-pools=4 / wpp / no-pmode / no-pme / no-psnr / ssim / log-level=2 / input-csp=1 / input-res=1920x1080 / interlace=0 / total-frames=61191 / level-idc=0 / high-tier=1 / uhd-bd=0 / ref=3 / no-allow-non-conformance / no-repeat-headers / annexb / no-aud / no-hrd / info / hash=0 / no-temporal-layers / open-gop / min-keyint=23 / keyint=250 / gop-lookahead=0 / bframes=8 / b-adapt=2 / b-pyramid / bframe-bias=0 / rc-lookahead=50 / lookahead-slices=6 / scenecut=40 / radl=0 / no-intra-refresh / ctu=64 / min-cu-size=8 / no-rect / no-amp / max-tu-size=32 / tu-inter-depth=1 / tu-intra-depth=1 / limit-tu=0 / rdoq-level=0 / dynamic-rd=0.00 / no-ssim-rd / signhide / no-tskip / nr-intra=0 / nr-inter=0 / no-constrained-intra / no-strong-intra-smoothing / max-merge=3 / limit-refs=3 / no-limit-modes / me=3 / subme=3 / merange=57 / temporal-mvp / weightp / no-weightb / no-analyze-src-pics / deblock=0:0 / sao / no-sao-non-deblock / rd=3 / no-early-skip / no-rskip / no-fast-intra / no-tskip-fast / no-cu-lossless / no-b-intra / no-splitrd-skip / rdpenalty=0 / psy-rd=2.00 / psy-rdoq=0.00 / no-rd-refine / no-lossless / cbqpoffs=0 / crqpoffs=0 / rc=crf / crf=20.0 / qcomp=0.60 / qpstep=4 / stats-write=0 / stats-read=0 / ipratio=1.40 / pbratio=1.30 / aq-mode=3 / aq-strength=1.00 / cutree / zone-count=0 / no-strict-cbr / qg-size=32 / no-rc-grain / qpmax=69 / qpmin=0 / no-const-vbv / sar=0 / overscan=0 / videoformat=5 / range=0 / colorprim=2 / transfer=2 / colormatrix=2 / chromaloc=0 / display-window=0 / max-cll=0,0 / min-luma=0 / max-luma=1023 / log2-max-poc-lsb=8 / vui-timing-info / vui-hrd-info / slices=1 / no-opt-qp-pps / no-opt-ref-list-length-pps / no-multi-pass-opt-rps / scenecut-bias=0.05 / no-opt-cu-delta-qp / no-aq-motion / no-hdr / no-hdr-opt / no-dhdr10-opt / no-idr-recovery-sei / analysis-reuse-level=5 / scale-factor=0 / refine-intra=0 / refine-inter=0 / refine-mv=0 / no-limit-sao / ctu-info=0 / no-lowpass-dct / refine-mv-type=0 / copy-pic=1 / max-ausize-factor=1.0 / no-dynamic-refine / no-single-sei
Default : Yes
Forced : No

Audio
ID : 2
Format : AAC
Format/Info : Advanced Audio Codec
Format profile : LC
Codec ID : A_AAC
Duration : 42 min 32 s
Bit rate : 449 kb/s
Channel(s) : 6 channels
Channel positions : Front: L C R, Side: L R, LFE
Sampling rate : 48.0 kHz
Frame rate : 46.875 FPS (1024 spf)
Compression mode : Lossy
Stream size : 137 MiB (14%)
Language : English
Default : Yes
Forced : No

Subtitle
ID : 3
Format : PGS
Muxing mode : zlib
Codec ID : S_HDMV/PGS
Codec ID/Info : Picture based subtitle format used on BDs/HD-DVDs
Duration : 42 min 27 s
Bit rate : 49.7 kb/s
Count of elements : 1438
Stream size : 15.1 MiB (2%)
Language : English
Default : No
Forced : No

Download

Download: Google Drive

Season 3

The Flash (2014) Season 3 S03 (1080p BluRay x265 HEVC 10bit AAC 5.1 Vyndros)

Files

  • The.Flash.S03E01.Flashpoint.1080p.10bit.BluRay.AAC5.1.HEVC-Vyndros.mkv (940.9 MB)
  • The.Flash.S03E02.Paradox.1080p.10bit.BluRay.AAC5.1.HEVC-Vyndros.mkv (918.8 MB)
  • The.Flash.S03E03.Magenta.1080p.10bit.BluRay.AAC5.1.HEVC-Vyndros.mkv (826.3 MB)
  • The.Flash.S03E04.The.New.Rogues.1080p.10bit.BluRay.AAC5.1.HEVC-Vyndros.mkv (931.0 MB)
  • The.Flash.S03E05.Monster.1080p.10bit.BluRay.AAC5.1.HEVC-Vyndros.mkv (909.5 MB)
  • The.Flash.S03E06.Shade.1080p.10bit.BluRay.AAC5.1.HEVC-Vyndros.mkv (849.5 MB)
  • The.Flash.S03E07.Killer.Frost.1080p.10bit.BluRay.AAC5.1.HEVC-Vyndros.mkv (759.0 MB)
  • The.Flash.S03E08.Invasion!.(2).1080p.10bit.BluRay.AAC5.1.HEVC-Vyndros.mkv (1,017.8 MB)
  • The.Flash.S03E09.The.Present.1080p.10bit.BluRay.AAC5.1.HEVC-Vyndros.mkv (917.9 MB)
  • The.Flash.S03E10.Borrowing.Problems.from.the.Future.1080p.10bit.BluRay.AAC5.1.HEVC-Vyndros.mkv (971.7 MB)
  • The.Flash.S03E11.Dead.or.Alive.1080p.10bit.BluRay.AAC5.1.HEVC-Vyndros.mkv (994.9 MB)
  • The.Flash.S03E12.Untouchable.1080p.10bit.BluRay.AAC5.1.HEVC-Vyndros.mkv (896.9 MB)
  • The.Flash.S03E13.Attack.on.Gorilla.City.(1).1080p.10bit.BluRay.AAC5.1.HEVC-Vyndros.mkv (1.0 GB)
  • The.Flash.S03E14.Attack.on.Central.City.(2).1080p.10bit.BluRay.AAC5.1.HEVC-Vyndros.mkv (952.4 MB)
  • The.Flash.S03E15.The.Wrath.of.Savitar.1080p.10bit.BluRay.AAC5.1.HEVC-Vyndros.mkv (923.9 MB)
  • The.Flash.S03E16.Into.the.Speed.Force.1080p.10bit.BluRay.AAC5.1.HEVC-Vyndros.mkv (851.6 MB)
  • The.Flash.S03E17.Duet.(2).1080p.10bit.BluRay.AAC5.1.HEVC-Vyndros.mkv (971.3 MB)
  • The.Flash.S03E18.Abra.Kadabra.1080p.10bit.BluRay.AAC5.1.HEVC-Vyndros.mkv (918.3 MB)
  • The.Flash.S03E19.The.Once.and.Future.Flash.1080p.10bit.BluRay.AAC5.1.HEVC-Vyndros.mkv (811.3 MB)
  • The.Flash.S03E20.I.Know.Who.You.Are.1080p.10bit.BluRay.AAC5.1.HEVC-Vyndros.mkv (865.1 MB)
  • The.Flash.S03E21.Cause.and.Effect.1080p.10bit.BluRay.AAC5.1.HEVC-Vyndros.mkv (932.2 MB)
  • The.Flash.S03E22.Infantino.Street.1080p.10bit.BluRay.AAC5.1.HEVC-Vyndros.mkv (848.1 MB)
  • The.Flash.S03E23.Finish.Line.1080p.10bit.BluRay.AAC5.1.HEVC-Vyndros.mkv (799.5 MB)

Mediainfo

General
Format : Matroska
Format version : Version 4 / Version 2
File size : 811 MiB
Duration : 42 min 32 s
Overall bit rate : 2 666 kb/s
Encoded date : UTC 2018-07-24 15:00:53
Writing application : mkvmerge v25.0.0 ('Prog Noir') 64-bit
Writing library : libebml v1.3.6 + libmatroska v1.4.9
Writing frontend : StaxRip v1.7.0.6

Video
ID : 1
Format : HEVC
Format/Info : High Efficiency Video Coding
Format profile : Main [email protected]@Main
Codec ID : V_MPEGH/ISO/HEVC
Duration : 42 min 32 s
Bit rate : 2 204 kb/s
Width : 1 920 pixels
Height : 1 080 pixels
Display aspect ratio : 16:9
Frame rate mode : Constant
Frame rate : 23.976 (24000/1001) FPS
Color space : YUV
Chroma subsampling : 4:2:0
Bit depth : 10 bits
Bits/(Pixel*Frame) : 0.044
Stream size : 671 MiB (83%)
Writing library : x265 2.8+19-bcdc610cf5f0:[Windows][GCC 7.3.0][64 bit] 10bit
Encoding settings : cpuid=1111039 / frame-threads=2 / numa-pools=4 / wpp / no-pmode / no-pme / no-psnr / ssim / log-level=2 / input-csp=1 / input-res=1920x1080 / interlace=0 / total-frames=61203 / level-idc=0 / high-tier=1 / uhd-bd=0 / ref=3 / no-allow-non-conformance / no-repeat-headers / annexb / no-aud / no-hrd / info / hash=0 / no-temporal-layers / open-gop / min-keyint=23 / keyint=250 / gop-lookahead=0 / bframes=8 / b-adapt=2 / b-pyramid / bframe-bias=0 / rc-lookahead=50 / lookahead-slices=6 / scenecut=40 / radl=0 / no-intra-refresh / ctu=64 / min-cu-size=8 / no-rect / no-amp / max-tu-size=32 / tu-inter-depth=1 / tu-intra-depth=1 / limit-tu=0 / rdoq-level=0 / dynamic-rd=0.00 / no-ssim-rd / signhide / no-tskip / nr-intra=0 / nr-inter=0 / no-constrained-intra / no-strong-intra-smoothing / max-merge=3 / limit-refs=3 / no-limit-modes / me=3 / subme=3 / merange=57 / temporal-mvp / weightp / no-weightb / no-analyze-src-pics / deblock=0:0 / sao / no-sao-non-deblock / rd=3 / no-early-skip / no-rskip / no-fast-intra / no-tskip-fast / no-cu-lossless / no-b-intra / no-splitrd-skip / rdpenalty=0 / psy-rd=2.00 / psy-rdoq=0.00 / no-rd-refine / no-lossless / cbqpoffs=0 / crqpoffs=0 / rc=crf / crf=20.0 / qcomp=0.60 / qpstep=4 / stats-write=0 / stats-read=0 / ipratio=1.40 / pbratio=1.30 / aq-mode=3 / aq-strength=1.00 / cutree / zone-count=0 / no-strict-cbr / qg-size=32 / no-rc-grain / qpmax=69 / qpmin=0 / no-const-vbv / sar=0 / overscan=0 / videoformat=5 / range=0 / colorprim=2 / transfer=2 / colormatrix=2 / chromaloc=0 / display-window=0 / max-cll=0,0 / min-luma=0 / max-luma=1023 / log2-max-poc-lsb=8 / vui-timing-info / vui-hrd-info / slices=1 / no-opt-qp-pps / no-opt-ref-list-length-pps / no-multi-pass-opt-rps / scenecut-bias=0.05 / no-opt-cu-delta-qp / no-aq-motion / no-hdr / no-hdr-opt / no-dhdr10-opt / no-idr-recovery-sei / analysis-reuse-level=5 / scale-factor=0 / refine-intra=0 / refine-inter=0 / refine-mv=0 / no-limit-sao / ctu-info=0 / no-lowpass-dct / refine-mv-type=0 / copy-pic=1 / max-ausize-factor=1.0 / no-dynamic-refine / no-single-sei
Default : Yes
Forced : No

Audio
ID : 2
Format : AAC
Format/Info : Advanced Audio Codec
Format profile : LC
Codec ID : A_AAC
Duration : 42 min 32 s
Bit rate : 448 kb/s
Channel(s) : 6 channels
Channel positions : Front: L C R, Side: L R, LFE
Sampling rate : 48.0 kHz
Frame rate : 46.875 FPS (1024 spf)
Compression mode : Lossy
Stream size : 136 MiB (17%)
Title : DTS-HD Master Audio _ 5.1 _ 48 kHz _ 2261 kbps _ 16-bit
Language : English
Default : Yes
Forced : No

Subtitle
ID : 3
Format : PGS
Muxing mode : zlib
Codec ID : S_HDMV/PGS
Codec ID/Info : Picture based subtitle format used on BDs/HD-DVDs
Duration : 42 min 28 s
Bit rate : 38.0 kb/s
Count of elements : 1292
Stream size : 11.5 MiB (1%)
Language : English
Default : No
Forced : No

Download

Download: Google Drive

Season 4

The Flash (2014) Season 4 S04 (1080p BluRay x265 HEVC 10bit AAC 5.1 Vyndros)

Files

  • The.Flash.S04E01.The.Flash.Reborn.1080p.10bit.BluRay.AAC5.1.HEVC-Vyndros.mkv (1.1 GB)
  • The.Flash.S04E02.Mixed.Signals.1080p.10bit.BluRay.AAC5.1.HEVC-Vyndros.mkv (1.0 GB)
  • The.Flash.S04E03.Luck.Be.a.Lady.1080p.10bit.BluRay.AAC5.1.HEVC-Vyndros.mkv (1.0 GB)
  • The.Flash.S04E04.Elongated.Journey.Into.Night.1080p.10bit.BluRay.AAC5.1.HEVC-Vyndros.mkv (929.0 MB)
  • The.Flash.S04E05.Girls.Night.Out.1080p.10bit.BluRay.AAC5.1.HEVC-Vyndros.mkv (996.5 MB)
  • The.Flash.S04E06.When.Harry.Met.Harry….1080p.10bit.BluRay.AAC5.1.HEVC-Vyndros.mkv (1,014.4 MB)
  • The.Flash.S04E07.Therefore.I.Am.1080p.10bit.BluRay.AAC5.1.HEVC-Vyndros.mkv (990.1 MB)
  • The.Flash.S04E08.Crisis.on.Earth-X.(3).1080p.10bit.BluRay.AAC5.1.HEVC-Vyndros.mkv (996.6 MB)
  • The.Flash.S04E09.Don’t.Run.1080p.10bit.BluRay.AAC5.1.HEVC-Vyndros.mkv (1.1 GB)
  • The.Flash.S04E10.The.Trial.of.The.Flash.1080p.10bit.BluRay.AAC5.1.HEVC-Vyndros.mkv (948.5 MB)
  • The.Flash.S04E11.The.Elongated.Knight.Rises.1080p.10bit.BluRay.AAC5.1.HEVC-Vyndros.mkv (1.1 GB)
  • The.Flash.S04E12.Honey,.I.Shrunk.Team.Flash.1080p.10bit.BluRay.AAC5.1.HEVC-Vyndros.mkv (937.1 MB)
  • The.Flash.S04E13.True.Colors.1080p.10bit.BluRay.AAC5.1.HEVC-Vyndros.mkv (958.9 MB)
  • The.Flash.S04E14.Subject.9.1080p.10bit.BluRay.AAC5.1.HEVC-Vyndros.mkv (909.5 MB)
  • The.Flash.S04E15.Enter.Flashtime.1080p.10bit.BluRay.AAC5.1.HEVC-Vyndros.mkv (997.0 MB)
  • The.Flash.S04E16.Run,.Iris,.Run.1080p.10bit.BluRay.AAC5.1.HEVC-Vyndros.mkv (961.4 MB)
  • The.Flash.S04E17.Null.and.Annoyed.1080p.10bit.BluRay.AAC5.1.HEVC-Vyndros.mkv (1.0 GB)
  • The.Flash.S04E18.Lose.Yourself.1080p.10bit.BluRay.AAC5.1.HEVC-Vyndros.mkv (1.0 GB)
  • The.Flash.S04E19.Fury.Rogue.1080p.10bit.BluRay.AAC5.1.HEVC-Vyndros.mkv (1.0 GB)
  • The.Flash.S04E20.Therefore.She.Is.1080p.10bit.BluRay.AAC5.1.HEVC-Vyndros.mkv (982.6 MB)
  • The.Flash.S04E21.Harry.and.the.Harrisons.1080p.10bit.BluRay.AAC5.1.HEVC-Vyndros.mkv (967.7 MB)
  • The.Flash.S04E22.Think.Fast.1080p.10bit.BluRay.AAC5.1.HEVC-Vyndros.mkv (948.6 MB)
  • The.Flash.S04E23.We.Are.The.Flash.1080p.10bit.BluRay.AAC5.1.HEVC-Vyndros.mkv (1.2 GB)

Mediainfo

General
Format : Matroska
Format version : Version 4 / Version 2
File size : 949 MiB
Duration : 42 min 8 s
Overall bit rate : 3 148 kb/s
Encoded date : UTC 2018-09-19 16:16:24
Writing application : mkvmerge v20.0.0 ('I Am The Sun') 64-bit
Writing library : libebml v1.3.5 + libmatroska v1.4.8
Writing frontend : StaxRip v1.7.0.6

Video
ID : 1
Format : HEVC
Format/Info : High Efficiency Video Coding
Format profile : Main [email protected]@Main
Codec ID : V_MPEGH/ISO/HEVC
Duration : 42 min 8 s
Bit rate : 2 675 kb/s
Width : 1 920 pixels
Height : 1 080 pixels
Display aspect ratio : 16:9
Frame rate mode : Constant
Frame rate : 23.976 (24000/1001) FPS
Color space : YUV
Chroma subsampling : 4:2:0
Bit depth : 10 bits
Bits/(Pixel*Frame) : 0.054
Stream size : 806 MiB (85%)
Writing library : x265 2.8+57-eea92165b035:[Windows][GCC 7.3.0][64 bit] 10bit
Encoding settings : cpuid=1111039 / frame-threads=2 / numa-pools=4 / wpp / no-pmode / no-pme / no-psnr / ssim / log-level=2 / input-csp=1 / input-res=1920x1080 / interlace=0 / total-frames=60612 / level-idc=0 / high-tier=1 / uhd-bd=0 / ref=3 / no-allow-non-conformance / no-repeat-headers / annexb / no-aud / no-hrd / info / hash=0 / no-temporal-layers / open-gop / min-keyint=23 / keyint=250 / gop-lookahead=0 / bframes=8 / b-adapt=2 / b-pyramid / bframe-bias=0 / rc-lookahead=50 / lookahead-slices=6 / scenecut=40 / radl=0 / no-intra-refresh / ctu=64 / min-cu-size=8 / no-rect / no-amp / max-tu-size=32 / tu-inter-depth=1 / tu-intra-depth=1 / limit-tu=0 / rdoq-level=0 / dynamic-rd=0.00 / no-ssim-rd / signhide / no-tskip / nr-intra=0 / nr-inter=0 / no-constrained-intra / no-strong-intra-smoothing / max-merge=3 / limit-refs=3 / no-limit-modes / me=3 / subme=5 / merange=57 / temporal-mvp / weightp / no-weightb / no-analyze-src-pics / deblock=0:0 / sao / no-sao-non-deblock / rd=3 / no-early-skip / no-rskip / no-fast-intra / no-tskip-fast / no-cu-lossless / no-b-intra / no-splitrd-skip / rdpenalty=0 / psy-rd=2.00 / psy-rdoq=0.00 / no-rd-refine / no-lossless / cbqpoffs=0 / crqpoffs=0 / rc=crf / crf=20.0 / qcomp=0.60 / qpstep=4 / stats-write=0 / stats-read=0 / ipratio=1.40 / pbratio=1.30 / aq-mode=3 / aq-strength=1.00 / cutree / zone-count=0 / no-strict-cbr / qg-size=32 / no-rc-grain / qpmax=69 / qpmin=0 / no-const-vbv / sar=0 / overscan=0 / videoformat=5 / range=0 / colorprim=2 / transfer=2 / colormatrix=2 / chromaloc=0 / display-window=0 / max-cll=0,0 / min-luma=0 / max-luma=1023 / log2-max-poc-lsb=8 / vui-timing-info / vui-hrd-info / slices=1 / no-opt-qp-pps / no-opt-ref-list-length-pps / no-multi-pass-opt-rps / scenecut-bias=0.05 / no-opt-cu-delta-qp / no-aq-motion / no-hdr / no-hdr-opt / no-dhdr10-opt / no-idr-recovery-sei / analysis-reuse-level=5 / scale-factor=0 / refine-intra=0 / refine-inter=0 / refine-mv=0 / no-limit-sao / ctu-info=0 / no-lowpass-dct / refine-mv-type=0 / copy-pic=1 / max-ausize-factor=1.0 / no-dynamic-refine / no-single-sei
Default : Yes
Forced : No

Audio
ID : 2
Format : AAC
Format/Info : Advanced Audio Codec
Format profile : LC
Codec ID : A_AAC
Duration : 42 min 8 s
Bit rate : 447 kb/s
Channel(s) : 6 channels
Channel positions : Front: L C R, Side: L R, LFE
Sampling rate : 48.0 kHz
Frame rate : 46.875 FPS (1024 spf)
Compression mode : Lossy
Stream size : 135 MiB (14%)
Language : English
Default : Yes
Forced : No

Subtitle
ID : 3
Format : PGS
Muxing mode : zlib
Codec ID : S_HDMV/PGS
Codec ID/Info : Picture based subtitle format used on BDs/HD-DVDs
Duration : 41 min 57 s
Bit rate : 59.7 kb/s
Count of elements : 1734
Stream size : 17.9 MiB (2%)
Language : English
Default : No
Forced : No

Download

Download: Google Drive

Season 5

The Flash (2014) Season 5 S05 (1080p BluRay x265 HEVC 10bit AAC 5.1 Vyndros)

Files

  • The.Flash.S05E01.Nora.1080p.10bit.BluRay.AAC5.1.HEVC-Vyndros.mkv (1.1 GB)
  • The.Flash.S05E02.Blocked.1080p.10bit.BluRay.AAC5.1.HEVC-Vyndros.mkv (838.1 MB)
  • The.Flash.S05E03.The.Death.of.Vibe.1080p.10bit.BluRay.AAC5.1.HEVC-Vyndros.mkv (780.9 MB)
  • The.Flash.S05E04.News.Flash.1080p.10bit.BluRay.AAC5.1.HEVC-Vyndros.mkv (1.1 GB)
  • The.Flash.S05E05.All.Doll’d.Up.1080p.10bit.BluRay.AAC5.1.HEVC-Vyndros.mkv (788.3 MB)
  • The.Flash.S05E06.The.Icicle.Cometh.1080p.10bit.BluRay.AAC5.1.HEVC-Vyndros.mkv (935.6 MB)
  • The.Flash.S05E07.O.Come,.All.Ye.Thankful.1080p.10bit.BluRay.AAC5.1.HEVC-Vyndros.mkv (947.7 MB)
  • The.Flash.S05E08.What’s.Past.Is.Prologue.1080p.10bit.BluRay.AAC5.1.HEVC-Vyndros.mkv (810.0 MB)
  • The.Flash.S05E09.Elseworlds.(1).1080p.10bit.BluRay.AAC5.1.HEVC-Vyndros.mkv (1.0 GB)
  • The.Flash.S05E10.The.Flash.&.the.Furious.1080p.10bit.BluRay.AAC5.1.HEVC-Vyndros.mkv (824.2 MB)
  • The.Flash.S05E11.Seeing.Red.1080p.10bit.BluRay.AAC5.1.HEVC-Vyndros.mkv (804.8 MB)
  • The.Flash.S05E12.Memorabilia.1080p.10bit.BluRay.AAC5.1.HEVC-Vyndros.mkv (848.3 MB)
  • The.Flash.S05E13.Goldfaced.1080p.10bit.BluRay.AAC5.1.HEVC-Vyndros.mkv (839.0 MB)
  • The.Flash.S05E14.Cause.and.XS.1080p.10bit.BluRay.AAC5.1.HEVC-Vyndros.mkv (761.7 MB)
  • The.Flash.S05E15.King.Shark.vs.Gorilla.Grodd.1080p.10bit.BluRay.AAC5.1.HEVC-Vyndros.mkv (1,017.8 MB)
  • The.Flash.S05E16.Failure.Is.an.Orphan.1080p.10bit.BluRay.AAC5.1.HEVC-Vyndros.mkv (762.5 MB)
  • The.Flash.S05E17.Time.Bomb.1080p.10bit.BluRay.AAC5.1.HEVC-Vyndros.mkv (855.0 MB)
  • The.Flash.S05E18.Godspeed.1080p.10bit.BluRay.AAC5.1.HEVC-Vyndros.mkv (807.0 MB)
  • The.Flash.S05E19.Snow.Pack.1080p.10bit.BluRay.AAC5.1.HEVC-Vyndros.mkv (750.4 MB)
  • The.Flash.S05E20.Gone.Rogue.1080p.10bit.BluRay.AAC5.1.HEVC-Vyndros.mkv (821.7 MB)
  • The.Flash.S05E21.The.Girl.with.the.Red.Lightning.1080p.10bit.BluRay.AAC5.1.HEVC-Vyndros.mkv (984.8 MB)
  • The.Flash.S05E22.Legacy.1080p.10bit.BluRay.AAC5.1.HEVC-Vyndros.mkv (829.2 MB)

Mediainfo

General
Format : Matroska
Format version : Version 4 / Version 2
File size : 750 MiB
Duration : 42 min 9 s
Overall bit rate : 2 488 kb/s
Movie name : The Flash (2014) - S05E19 - Snow Pack
Encoded date : UTC 2019-09-16 11:44:58
Writing application : mkvmerge v20.0.0 ('I Am The Sun') 64-bit
Writing library : libebml v1.3.5 + libmatroska v1.4.8
Writing frontend : StaxRip v1.7.0.6

Video
ID : 1
Format : HEVC
Format/Info : High Efficiency Video Coding
Format profile : Main [email protected]@Main
Codec ID : V_MPEGH/ISO/HEVC
Duration : 42 min 9 s
Bit rate : 2 017 kb/s
Width : 1 920 pixels
Height : 1 080 pixels
Display aspect ratio : 16:9
Frame rate mode : Constant
Frame rate : 23.976 (24000/1001) FPS
Color space : YUV
Chroma subsampling : 4:2:0
Bit depth : 10 bits
Bits/(Pixel*Frame) : 0.041
Stream size : 608 MiB (81%)
Writing library : x265 3.1+5-9c5c9cef2a86:[Windows][MSVC 1921][64 bit] 10bit
Encoding settings : cpuid=1111039 / frame-threads=2 / numa-pools=4 / wpp / no-pmode / no-pme / no-psnr / ssim / log-level=2 / input-csp=1 / input-res=1920x1080 / interlace=0 / total-frames=60657 / level-idc=0 / high-tier=1 / uhd-bd=0 / ref=3 / no-allow-non-conformance / no-repeat-headers / annexb / no-aud / no-hrd / info / hash=0 / no-temporal-layers / open-gop / min-keyint=23 / keyint=250 / gop-lookahead=0 / bframes=8 / b-adapt=2 / b-pyramid / bframe-bias=0 / rc-lookahead=80 / lookahead-slices=6 / scenecut=40 / radl=0 / no-splice / no-intra-refresh / ctu=64 / min-cu-size=8 / no-rect / no-amp / max-tu-size=32 / tu-inter-depth=1 / tu-intra-depth=1 / limit-tu=0 / rdoq-level=0 / dynamic-rd=0.00 / no-ssim-rd / signhide / no-tskip / nr-intra=0 / nr-inter=0 / no-constrained-intra / no-strong-intra-smoothing / max-merge=3 / limit-refs=1 / no-limit-modes / me=3 / subme=5 / merange=57 / temporal-mvp / weightp / no-weightb / no-analyze-src-pics / deblock=0:0 / sao / no-sao-non-deblock / rd=3 / early-skip / no-rskip / no-fast-intra / no-tskip-fast / no-cu-lossless / b-intra / no-splitrd-skip / rdpenalty=0 / psy-rd=2.00 / psy-rdoq=0.00 / no-rd-refine / no-lossless / cbqpoffs=0 / crqpoffs=0 / rc=crf / crf=20.0 / qcomp=0.60 / qpstep=4 / stats-write=0 / stats-read=0 / ipratio=1.40 / pbratio=1.30 / aq-mode=3 / aq-strength=1.00 / cutree / zone-count=0 / no-strict-cbr / qg-size=32 / no-rc-grain / qpmax=69 / qpmin=0 / no-const-vbv / sar=0 / overscan=0 / videoformat=5 / range=0 / colorprim=2 / transfer=2 / colormatrix=2 / chromaloc=0 / display-window=0cll=0,0 / min-luma=0 / max-luma=1023 / log2-max-poc-lsb=8 / vui-timing-info / vui-hrd-info / slices=1 / no-opt-qp-pps / no-opt-ref-list-length-pps / no-multi-pass-opt-rps / scenecut-bias=0.05 / no-opt-cu-delta-qp / no-aq-motion / no-hdr / no-hdr-opt / no-dhdr10-opt / no-idr-recovery-sei / analysis-reuse-level=5 / scale-factor=0 / refine-intra=0 / refine-inter=0 / refine-mv=0 / refine-ctu-distortion=0 / no-limit-sao / ctu-info=0 / no-lowpass-dct / refine-analysis-type=0 / copy-pic=1 / max-ausize-factor=1.0 / no-dynamic-refine / no-single-sei / no-hevc-aq / no-svt / no-field / qp-adaptation-range=1.00
Default : Yes
Forced : No

Audio
ID : 2
Format : AAC
Format/Info : Advanced Audio Codec
Format profile : LC
Codec ID : A_AAC
Duration : 42 min 9 s
Bit rate : 447 kb/s
Channel(s) : 6 channels
Channel positions : Front: L C R, Side: L R, LFE
Sampling rate : 48.0 kHz
Frame rate : 46.875 FPS (1024 spf)
Compression mode : Lossy
Stream size : 135 MiB (18%)
Language : English
Default : Yes
Forced : No

Subtitle
ID : 3
Format : PGS
Muxing mode : zlib
Codec ID : S_HDMV/PGS
Codec ID/Info : Picture based subtitle format used on BDs/HD-DVDs
Duration : 42 min 1 s
Bit rate : 43.4 kb/s
Count of elements : 1650
Stream size : 13.1 MiB (2%)
Language : English
Default : No
Forced : No

Screens

Download

Download: Google Drive

Season 6

The Flash (2014) Season 6 S06 (1080p AMZN WEB-DL x265 HEVC 10bit AAC 5.1 Vyndros)

Files

  • The.Flash.S06E01.Into.the.Void.1080p.10bit.AMZN.WEB-DL.AAC5.1.HEVC-Vyndros.mkv (951.9 MB)
  • The.Flash.S06E02.A.Flash.of.the.Lightning.1080p.10bit.AMZN.WEB-DL.AAC5.1.HEVC-Vyndros.mkv (727.0 MB)
  • The.Flash.S06E03.Dead.Man.Running.1080p.10bit.AMZN.WEB-DL.AAC5.1.HEVC-Vyndros.mkv (757.3 MB)
  • The.Flash.S06E04.There.Will.Be.Blood.1080p.10bit.AMZN.WEB-DL.AAC5.1.HEVC-Vyndros.mkv (631.1 MB)
  • The.Flash.S06E05.Kiss.Kiss.Breach.Breach.1080p.10bit.AMZN.WEB-DL.AAC5.1.HEVC-Vyndros.mkv (615.8 MB)
  • The.Flash.S06E06.License.To.Elongate.1080p.10bit.AMZN.WEB-DL.AAC5.1.HEVC-Vyndros.mkv (680.5 MB)
  • The.Flash.S06E07.The.Last.Temptation.of.Barry.Allen.(1).1080p.10bit.AMZN.WEB-DL.AAC5.1.HEVC-Vyndros.mkv (723.4 MB)
  • The.Flash.S06E08.The.Last.Temptation.of.Barry.Allen.(2).1080p.10bit.AMZN.WEB-DL.AAC5.1.HEVC-Vyndros.mkv (662.2 MB)
  • The.Flash.S06E09.Crisis.on.Infinite.Earths.(3).1080p.10bit.AMZN.WEB-DL.AAC5.1.HEVC-Vyndros.mkv (807.9 MB)
  • The.Flash.S06E10.Marathon.1080p.10bit.AMZN.WEB-DL.AAC5.1.HEVC-Vyndros.mkv (732.2 MB)
  • The.Flash.S06E11.Love.Is.a.Battlefield.1080p.10bit.AMZN.WEB-DL.AAC5.1.HEVC-Vyndros.mkv (768.3 MB)
  • The.Flash.S06E12.A.Girl.Named.Sue.1080p.10bit.AMZN.WEB-DL.AAC5.1.HEVC-Vyndros.mkv (680.3 MB)
  • The.Flash.S06E13.Grodd.Friended.Me.1080p.10bit.AMZN.WEB-DL.AAC5.1.HEVC-Vyndros.mkv (1.1 GB)
  • The.Flash.S06E14.Death.of.the.Speed.Force.1080p.10bit.AMZN.WEB-DL.AAC5.1.HEVC-Vyndros.mkv (711.7 MB)
  • The.Flash.S06E15.The.Exorcism.of.Nash.Wells.1080p.10bit.AMZN.WEB-DL.AAC5.1.HEVC-Vyndros.mkv (770.5 MB)
  • The.Flash.S06E16.So.Long.and.Goodnight.1080p.10bit.AMZN.WEB-DL.AAC5.1.HEVC-Vyndros.mkv (632.1 MB)
  • The.Flash.S06E17.Liberation.1080p.10bit.AMZN.WEB-DL.AAC5.1.HEVC-Vyndros.mkv (684.9 MB)
  • The.Flash.S06E18.Pay.the.Piper.1080p.10bit.AMZN.WEB-DL.AAC5.1.HEVC-Vyndros.mkv (697.8 MB)
  • The.Flash.S06E19.Success.Is.Assured.1080p.10bit.AMZN.WEB-DL.AAC5.1.HEVC-Vyndros.mkv (739.7 MB)

Mediainfo

General
Format : Matroska
Format version : Version 4 / Version 2
File size : 740 MiB
Duration : 42 min 23 s
Overall bit rate : 2 440 kb/s
Encoded date : UTC 2020-05-13 23:44:03
Writing application : mkvmerge v20.0.0 ('I Am The Sun') 64-bit
Writing library : libebml v1.3.5 + libmatroska v1.4.8
Writing frontend : StaxRip v1.7.0.6

Video
ID : 1
Format : HEVC
Format/Info : High Efficiency Video Coding
Format profile : Main [email protected]@Main
Codec ID : V_MPEGH/ISO/HEVC
Duration : 42 min 23 s
Bit rate : 1 989 kb/s
Width : 1 920 pixels
Height : 1 080 pixels
Display aspect ratio : 16:9
Frame rate mode : Constant
Frame rate : 23.976 (24000/1001) FPS
Color space : YUV
Chroma subsampling : 4:2:0
Bit depth : 10 bits
Bits/(Pixel*Frame) : 0.040
Stream size : 603 MiB (82%)
Writing library : x265 3.3+1-g554c887ac:[Windows][MSVC 1924][64 bit] 10bit
Encoding settings : cpuid=1111039 / frame-threads=3 / numa-pools=12 / wpp / no-pmode / no-pme / no-psnr / ssim / log-level=2 / input-csp=1 / input-res=1920x1080 / interlace=0 / total-frames=60972 / level-idc=0 / high-tier=1 / uhd-bd=0 / ref=3 / no-allow-non-conformance / no-repeat-headers / annexb / no-aud / no-hrd / info / hash=0 / no-temporal-layers / open-gop / min-keyint=23 / keyint=250 / gop-lookahead=0 / bframes=8 / b-adapt=2 / b-pyramid / bframe-bias=0 / rc-lookahead=80 / lookahead-slices=6 / scenecut=40 / hist-scenecut=0 / radl=0 / no-splice / no-intra-refresh / ctu=64 / min-cu-size=8 / no-rect / no-amp / max-tu-size=32 / tu-inter-depth=1 / tu-intra-depth=1 / limit-tu=0 / rdoq-level=0 / dynamic-rd=0.00 / no-ssim-rd / signhide / no-tskip / nr-intra=0 / nr-inter=0 / no-constrained-intra / no-strong-intra-smoothing / max-merge=3 / limit-refs=1 / no-limit-modes / me=3 / subme=5 / merange=57 / temporal-mvp / no-frame-dup / no-hme / weightp / no-weightb / no-analyze-src-pics / deblock=0:0 / sao / no-sao-non-deblock / rd=3 / selective-sao=4 / early-skip / no-rskip / no-fast-intra / no-tskip-fast / no-cu-lossless / b-intra / no-splitrd-skip / rdpenalty=0 / psy-rd=2.00 / psy-rdoq=0.00 / no-rd-refine / no-lossless / cbqpoffs=0 / crqpoffs=0 / rc=crf / crf=20.0 / qcomp=0.60 / qpstep=4 / stats-write=0 / stats-read=0 / ipratio=1.40 / pbratio=1.30 / aq-mode=3 / aq-strength=0.80 / cutree / zone-count=0 / no-strict-cbr / qg-size=32 / no-rc-grain / qpmax=69 / qpmin=0 / no-const-vbv / sar=0 / overscan=0 / videoformat=5 / range=0 / colorprim=2 / transfer=2 / colormatrix=2 / chromaloc=0 / display-window=0 / cll=0,0 / min-luma=0 / max-luma=1023 / log2-max-poc-lsb=8 / vui-timing-info / vui-hrd-info / slices=1 / no-opt-qp-pps / no-opt-ref-list-length-pps / no-multi-pass-opt-rps / scenecut-bias=0.05 / hist-threshold=0.01 / no-opt-cu-delta-qp / no-aq-motion / no-hdr10 / no-hdr10-opt / no-dhdr10-opt / no-idr-recovery-sei / analysis-reuse-level=0 / analysis-save-reuse-level=0 / analysis-load-reuse-level=0 / scale-factor=0 / refine-intra=0 / refine-inter=0 / refine-mv=1 / refine-ctu-distortion=0 / no-limit-sao / ctu-info=0 / no-lowpass-dct / refine-analysis-type=0 / copy-pic=1 / max-ausize-factor=1.0 / no-dynamic-refine / no-single-sei / no-hevc-aq / no-svt / no-field / qp-adaptation-range=1.00 / no-scenecut-aware-qpconformance-window-offsets / right=0 / bottom=0
Default : Yes
Forced : No

Audio
ID : 2
Format : AAC
Format/Info : Advanced Audio Codec
Format profile : LC
Codec ID : A_AAC
Duration : 42 min 23 s
Bit rate : 449 kb/s
Channel(s) : 6 channels
Channel positions : Front: L C R, Side: L R, LFE
Sampling rate : 48.0 kHz
Frame rate : 46.875 FPS (1024 spf)
Compression mode : Lossy
Delay relative to video : 20 ms
Stream size : 136 MiB (18%)
Language : English
Default : Yes
Forced : Yes

Subtitle #1
ID : 3
Format : UTF-8
Codec ID : S_TEXT/UTF8
Codec ID/Info : UTF-8 Plain Text
Duration : 42 min 14 s
Bit rate : 68 b/s
Count of elements : 742
Stream size : 21.1 KiB (0%)
Language : English
Default : No
Forced : No

Subtitle #2
ID : 4
Format : UTF-8
Codec ID : S_TEXT/UTF8
Codec ID/Info : UTF-8 Plain Text
Duration : 42 min 14 s
Bit rate : 77 b/s
Count of elements : 937
Stream size : 24.0 KiB (0%)
Language : English
Default : No
Forced : No

Screens

Download

Download: Google Drive

7 thoughts on “The Flash (2014) Season 1-6 (1080p Mixed x265 HEVC 10bit AAC 5.1 Vyndros)

  1. Vyndros has released BluRay of Season 06 bro… Can you update Season 06?????? Also Supergirl’s Season 05 BluRay release by Vyndros too.. Will you do it bro??? You seem off

        1. Google has quite a suitable format when you search for episodes.
          Eg the flash season 6 episodes will show on Google’s page itself the episode names, etc.

Leave a Reply