The Expanse (2015) Season 1-4 (1080p Mixed x265 HEVC 10bit AAC 5.1 Vyndros)

Summary: Two hundred years in the future, in a fully colonized solar system, police detective Josephus Miller is given the assignment to find a missing young woman, Julie Mao. Joining his task is James Holden, former first officer of an ice freighter who is involved in an incident caused by the tense relationship between Earth, Mars and the Belt. Far from their struggles in space, United Nations executive Chrisjen Avasarala works to prevent war between Earth and Mars. Soon the three find out that the missing woman is connected to a vast conspiracy that threatens all humanity.

Season 01

The Expanse (2015) Season 1 S01 (1080p BluRay x265 HEVC 10bit AAC 5.1 Vyndros)

Files

The Expanse (2015) Season 1 S01 (1080p BluRay x265 HEVC 10bit AAC 5.1 Vyndros)
The.Expanse.S01E01.Dulcinea.1080p.10bit.BluRay.AAC5.1.HEVC-Vyndros.mkv (898.6 MB)
The.Expanse.S01E02.The.Big.Empty.1080p.10bit.BluRay.AAC5.1.HEVC-Vyndros.mkv (892.1 MB)
The.Expanse.S01E03.Remember.the.Cant.1080p.10bit.BluRay.AAC5.1.HEVC-Vyndros.mkv (750.5 MB)
The.Expanse.S01E04.CQB.1080p.10bit.BluRay.AAC5.1.HEVC-Vyndros.mkv (812.6 MB)
The.Expanse.S01E05.Back.to.the.Butcher.1080p.10bit.BluRay.AAC5.1.HEVC-Vyndros.mkv (1,023.6 MB)
The.Expanse.S01E06.Rock.Bottom.1080p.10bit.BluRay.AAC5.1.HEVC-Vyndros.mkv (852.4 MB)
The.Expanse.S01E07.Windmills.1080p.10bit.BluRay.AAC5.1.HEVC-Vyndros.mkv (790.4 MB)
The.Expanse.S01E08.Salvage.1080p.10bit.BluRay.AAC5.1.HEVC-Vyndros.mkv (820.9 MB)
The.Expanse.S01E09-E10.Critical.Mass.&.Leviathan.Wakes.1080p.10bit.BluRay.AAC5.1.HEVC-Vyndros.mkv (1.4 GB)

Mediainfo

General 
Format : Matroska 
Format version : Version 4 / Version 2 
File size : 899 MiB 
Duration : 44 min 46 s 
Overall bit rate : 2 806 kb/s 
Movie name : The Expanse S01E01 
Encoded date : UTC 2018-01-29 22:08:13 
Writing application : mkvmerge v15.0.0 ('Duel with the Devil') 64-bit 
Writing library : libebml v1.3.5 + libmatroska v1.4.5 
Writing frontend : StaxRip v1.7.0.0 

Video 
ID : 1 
Format : HEVC 
Format/Info : High Efficiency Video Coding 
Format profile : Main [email protected]@Main 
Codec ID : V_MPEGH/ISO/HEVC 
Duration : 44 min 46 s 
Bit rate : 2 341 kb/s 
Width : 1 920 pixels 
Height : 1 080 pixels 
Display aspect ratio : 16:9 
Frame rate mode : Constant 
Frame rate : 23.976 (24000/1001) FPS 
Color space : YUV 
Chroma subsampling : 4:2:0 
Bit depth : 10 bits 
Bits/(Pixel*Frame) : 0.047 
Stream size : 750 MiB (83%) 
Writing library : x265 2.6+31-3712d13c09bf:[Windows][GCC 7.2.0][64 bit] 10bit 
Encoding settings : cpuid=1173503 / frame-threads=2 / numa-pools=4 / wpp / no-pmode / no-pme / no-psnr / ssim / log-level=2 / input-csp=1 / input-res=1920x1080 / interlace=0 / total-frames=64416 / level-idc=0 / high-tier=1 / uhd-bd=0 / ref=3 / no-allow-non-conformance / no-repeat-headers / annexb / no-aud / no-hrd / info / hash=0 / no-temporal-layers / open-gop / min-keyint=23 / keyint=250 / gop-lookahead=0 / bframes=8 / b-adapt=2 / b-pyramid / bframe-bias=0 / rc-lookahead=50 / lookahead-slices=6 / scenecut=40 / radl=0 / no-intra-refresh / ctu=64 / min-cu-size=8 / no-rect / no-amp / max-tu-size=32 / tu-inter-depth=1 / tu-intra-depth=1 / limit-tu=0 / rdoq-level=2 / dynamic-rd=0.00 / no-ssim-rd / signhide / no-tskip / nr-intra=0 / nr-inter=0 / no-constrained-intra / no-strong-intra-smoothing / max-merge=3 / limit-refs=3 / no-limit-modes / me=3 / subme=3 / merange=57 / temporal-mvp / weightp / no-weightb / no-analyze-src-pics / deblock=0:0 / sao / no-sao-non-deblock / rd=3 / no-early-skip / no-rskip / no-fast-intra / no-tskip-fast / no-cu-lossless / no-b-intra / no-splitrd-skip / rdpenalty=0 / psy-rd=2.00 / psy-rdoq=1.00 / no-rd-refine / no-lossless / cbqpoffs=0 / crqpoffs=0 / rc=crf / crf=21.0 / qcomp=0.60 / qpstep=4 / stats-write=0 / stats-read=0 / ipratio=1.40 / pbratio=1.30 / aq-mode=3 / aq-strength=1.00 / cutree / zone-count=0 / no-strict-cbr / qg-size=32 / no-rc-grain / qpmax=69 / qpmin=0 / no-const-vbv / sar=0 / overscan=0 / videoformat=5 / range=0 / colorprim=2 / transfer=2 / colormatrix=2 / chromaloc=0 / display-window=0 / max-cll=0,0 / min-luma=0 / max-luma=1023 / log2-max-poc-lsb=8 / vui-timing-info / vui-hrd-info / slices=1 / no-opt-qp-pps / no-opt-ref-list-length-pps / no-multi-pass-opt-rps / scenecut-bias=0.05 / no-opt-cu-delta-qp / no-aq-motion / no-hdr / no-hdr-opt / no-dhdr10-opt / analysis-reuse-level=5 / scale-factor=0 / refine-intra=0 / refine-inter=0 / refine-mv=0 / no-limit-sao / ctu-info=0 / no-lowpass-dct / refine-mv-type=0 / copy-pic=1 
Default : Yes 
Forced : No 

Audio 
ID : 2 
Format : AAC 
Format/Info : Advanced Audio Codec 
Format profile : LC 
Codec ID : A_AAC 
Duration : 44 min 46 s 
Bit rate : 448 kb/s 
Channel(s) : 6 channels 
Channel positions : Front: L C R, Side: L R, LFE 
Sampling rate : 48.0 kHz 
Frame rate : 46.875 FPS (1024 spf) 
Compression mode : Lossy 
Stream size : 144 MiB (16%) 
Language : English 
Default : Yes 
Forced : No 

Subtitle 
ID : 3 
Format : PGS 
Muxing mode : zlib 
Codec ID : S_HDMV/PGS 
Codec ID/Info : Picture based subtitle format used on BDs/HD-DVDs 
Duration : 44 min 5 s 
Bit rate : 45.7 kb/s 
Count of elements : 1354 
Stream size : 14.4 MiB (2%) 
Language : English 
Default : No 
Forced : No 

Menu 
00:00:00.000 : en:Chapter 01 
00:04:28.810 : en:Chapter 02 
00:20:38.528 : en:Chapter 03 
00:35:37.260 : en:Chapter 04

Screencaps

Download

Download: Google Drive

Season 02

The Expanse (2015) Season 2 S02 (1080p BluRay x265 HEVC 10bit AAC 5.1 Vyndros)

Files

The Expanse (2015) Season 2 S02 (1080p BluRay x265 HEVC 10bit AAC 5.1 Vyndros)
The.Expanse.S02E01.Safe.1080p.10bit.BluRay.AAC5.1.HEVC-Vyndros.mkv (963.4 MB)
The.Expanse.S02E02.Doors.&.Corners.1080p.10bit.BluRay.AAC5.1.HEVC-Vyndros.mkv (860.9 MB)
The.Expanse.S02E03.Static.1080p.10bit.BluRay.AAC5.1.HEVC-Vyndros.mkv (793.1 MB)
The.Expanse.S02E04.Godspeed.1080p.10bit.BluRay.AAC5.1.HEVC-Vyndros.mkv (878.7 MB)
The.Expanse.S02E05.Home.1080p.10bit.BluRay.AAC5.1.HEVC-Vyndros.mkv (1.0 GB)
The.Expanse.S02E06.Paradigm.Shift.1080p.10bit.BluRay.AAC5.1.HEVC-Vyndros.mkv (791.5 MB)
The.Expanse.S02E07.The.Seventh.Man.1080p.10bit.BluRay.AAC5.1.HEVC-Vyndros.mkv (795.7 MB)
The.Expanse.S02E08.Pyre.1080p.10bit.BluRay.AAC5.1.HEVC-Vyndros.mkv (839.9 MB)
The.Expanse.S02E09.The.Weeping.Somnambulist.1080p.10bit.BluRay.AAC5.1.HEVC-Vyndros.mkv (709.0 MB)
The.Expanse.S02E10.Cascade.1080p.10bit.BluRay.AAC5.1.HEVC-Vyndros.mkv (784.0 MB)
The.Expanse.S02E11.Here.There.Be.Dragons.1080p.10bit.BluRay.AAC5.1.HEVC-Vyndros.mkv (812.3 MB)
The.Expanse.S02E12.The.Monster.and.the.Rocket.1080p.10bit.BluRay.AAC5.1.HEVC-Vyndros.mkv (712.3 MB)
The.Expanse.S02E13.Caliban's.War.1080p.10bit.BluRay.AAC5.1.HEVC-Vyndros.mkv (841.2 MB)

Mediainfo

General 
Format : Matroska 
Format version : Version 4 / Version 2 
File size : 963 MiB 
Duration : 46 min 32 s 
Overall bit rate : 2 894 kb/s 
Encoded date : UTC 2018-02-02 04:26:41 
Writing application : mkvmerge v15.0.0 ('Duel with the Devil') 64-bit 
Writing library : libebml v1.3.5 + libmatroska v1.4.5 
Writing frontend : StaxRip v1.7.0.0 

Video 
ID : 1 
Format : HEVC 
Format/Info : High Efficiency Video Coding 
Format profile : Main [email protected]@Main 
Codec ID : V_MPEGH/ISO/HEVC 
Duration : 46 min 32 s 
Bit rate : 2 427 kb/s 
Width : 1 920 pixels 
Height : 1 080 pixels 
Display aspect ratio : 16:9 
Frame rate mode : Constant 
Frame rate : 23.976 (24000/1001) FPS 
Color space : YUV 
Chroma subsampling : 4:2:0 
Bit depth : 10 bits 
Bits/(Pixel*Frame) : 0.049 
Stream size : 808 MiB (84%) 
Writing library : x265 2.6+31-3712d13c09bf:[Windows][GCC 7.2.0][64 bit] 10bit 
Encoding settings : cpuid=1173503 / frame-threads=2 / numa-pools=4 / wpp / no-pmode / no-pme / no-psnr / ssim / log-level=2 / input-csp=1 / input-res=1920x1080 / interlace=0 / total-frames=66957 / level-idc=0 / high-tier=1 / uhd-bd=0 / ref=3 / no-allow-non-conformance / no-repeat-headers / annexb / no-aud / no-hrd / info / hash=0 / no-temporal-layers / open-gop / min-keyint=23 / keyint=250 / gop-lookahead=0 / bframes=8 / b-adapt=2 / b-pyramid / bframe-bias=0 / rc-lookahead=50 / lookahead-slices=6 / scenecut=40 / radl=0 / no-intra-refresh / ctu=64 / min-cu-size=8 / no-rect / no-amp / max-tu-size=32 / tu-inter-depth=1 / tu-intra-depth=1 / limit-tu=0 / rdoq-level=2 / dynamic-rd=0.00 / no-ssim-rd / signhide / no-tskip / nr-intra=0 / nr-inter=0 / no-constrained-intra / no-strong-intra-smoothing / max-merge=3 / limit-refs=3 / no-limit-modes / me=3 / subme=3 / merange=57 / temporal-mvp / weightp / no-weightb / no-analyze-src-pics / deblock=0:0 / sao / no-sao-non-deblock / rd=3 / no-early-skip / no-rskip / no-fast-intra / no-tskip-fast / no-cu-lossless / no-b-intra / no-splitrd-skip / rdpenalty=0 / psy-rd=2.00 / psy-rdoq=1.00 / no-rd-refine / no-lossless / cbqpoffs=0 / crqpoffs=0 / rc=crf / crf=21.0 / qcomp=0.60 / qpstep=4 / stats-write=0 / stats-read=0 / ipratio=1.40 / pbratio=1.30 / aq-mode=3 / aq-strength=1.00 / cutree / zone-count=0 / no-strict-cbr / qg-size=32 / no-rc-grain / qpmax=69 / qpmin=0 / no-const-vbv / sar=0 / overscan=0 / videoformat=5 / range=0 / colorprim=2 / transfer=2 / colormatrix=2 / chromaloc=0 / display-window=0 / max-cll=0,0 / min-luma=0 / max-luma=1023 / log2-max-poc-lsb=8 / vui-timing-info / vui-hrd-info / slices=1 / no-opt-qp-pps / no-opt-ref-list-length-pps / no-multi-pass-opt-rps / scenecut-bias=0.05 / no-opt-cu-delta-qp / no-aq-motion / no-hdr / no-hdr-opt / no-dhdr10-opt / analysis-reuse-level=5 / scale-factor=0 / refine-intra=0 / refine-inter=0 / refine-mv=0 / no-limit-sao / ctu-info=0 / no-lowpass-dct / refine-mv-type=0 / copy-pic=1 
Default : Yes 
Forced : No 

Audio 
ID : 2 
Format : AAC 
Format/Info : Advanced Audio Codec 
Format profile : LC 
Codec ID : A_AAC 
Duration : 46 min 32 s 
Bit rate : 448 kb/s 
Channel(s) : 6 channels 
Channel positions : Front: L C R, Side: L R, LFE 
Sampling rate : 48.0 kHz 
Frame rate : 46.875 FPS (1024 spf) 
Compression mode : Lossy 
Stream size : 149 MiB (15%) 
Language : English 
Default : Yes 
Forced : No 

Subtitle 
ID : 3 
Format : PGS 
Muxing mode : zlib 
Codec ID : S_HDMV/PGS 
Codec ID/Info : Picture based subtitle format used on BDs/HD-DVDs 
Duration : 44 min 52 s 
Bit rate : 54.8 kb/s 
Count of elements : 1750 
Stream size : 17.6 MiB (2%) 
Language : English 
Default : No 
Forced : No 

Menu 
00:00:00.000 : en:Chapter 1 
00:04:47.496 : en:Chapter 2 
00:19:07.813 : en:Chapter 3 
00:36:58.842 : en:Chapter 4

Screencaps

Download

Download: Google Drive

Season 03

The Expanse (2015) Season 3 S03 (1080p BluRay x265 HEVC 10bit AAC 5.1 Vyndros)

Files

The Expanse (2015) Season 3 S03 (1080p BluRay x265 HEVC 10bit AAC 5.1 Vyndros)
The.Expanse.S03E01.Fight.or.Flight.1080p.10bit.BluRay.AAC5.1.HEVC-Vyndros.mkv (789.8 MB)
The.Expanse.S03E02.IFF.1080p.10bit.BluRay.AAC5.1.HEVC-Vyndros.mkv (890.0 MB)
The.Expanse.S03E03.Assured.Destruction.1080p.10bit.BluRay.AAC5.1.HEVC-Vyndros.mkv (873.7 MB)
The.Expanse.S03E04.Reload.1080p.10bit.BluRay.AAC5.1.HEVC-Vyndros.mkv (820.3 MB)
The.Expanse.S03E05.Triple.Point.1080p.10bit.BluRay.AAC5.1.HEVC-Vyndros.mkv (758.6 MB)
The.Expanse.S03E06.Immolation.1080p.10bit.BluRay.AAC5.1.HEVC-Vyndros.mkv (773.3 MB)
The.Expanse.S03E07.Delta-V.1080p.10bit.BluRay.AAC5.1.HEVC-Vyndros.mkv (835.0 MB)
The.Expanse.S03E08.It.Reaches.Out.1080p.10bit.BluRay.AAC5.1.HEVC-Vyndros.mkv (777.1 MB)
The.Expanse.S03E09.Intransigence.1080p.10bit.BluRay.AAC5.1.HEVC-Vyndros.mkv (744.5 MB)
The.Expanse.S03E10.Dandelion.Sky.1080p.10bit.BluRay.AAC5.1.HEVC-Vyndros.mkv (823.3 MB)
The.Expanse.S03E11.Fallen.World.1080p.10bit.BluRay.AAC5.1.HEVC-Vyndros.mkv (881.4 MB)
The.Expanse.S03E12.Congregation.1080p.10bit.BluRay.AAC5.1.HEVC-Vyndros.mkv (783.4 MB)
The.Expanse.S03E13.Abaddon's.Gate.1080p.10bit.BluRay.AAC5.1.HEVC-Vyndros.mkv (948.6 MB)

Mediainfo

General 
Format : Matroska 
Format version : Version 4 / Version 2 
File size : 949 MiB 
Duration : 41 min 35 s 
Overall bit rate : 3 189 kb/s 
Encoded date : UTC 2018-07-28 07:35:06 
Writing application : mkvmerge v20.0.0 ('I Am The Sun') 64-bit 
Writing library : libebml v1.3.5 + libmatroska v1.4.8 
Writing frontend : StaxRip v1.7.0.6 

Video 
ID : 1 
Format : HEVC 
Format/Info : High Efficiency Video Coding 
Format profile : Main [email protected]@Main 
Codec ID : V_MPEGH/ISO/HEVC 
Duration : 41 min 35 s 
Bit rate : 2 725 kb/s 
Width : 1 920 pixels 
Height : 1 080 pixels 
Display aspect ratio : 16:9 
Frame rate mode : Constant 
Frame rate : 23.976 (24000/1001) FPS 
Color space : YUV 
Chroma subsampling : 4:2:0 
Bit depth : 10 bits 
Bits/(Pixel*Frame) : 0.055 
Stream size : 811 MiB (85%) 
Writing library : x265 2.8+19-bcdc610cf5f0:[Windows][GCC 7.3.0][64 bit] 10bit 
Encoding settings : cpuid=1111039 / frame-threads=2 / numa-pools=4 / wpp / no-pmode / no-pme / no-psnr / ssim / log-level=2 / input-csp=1 / input-res=1920x1080 / interlace=0 / total-frames=59828 / level-idc=0 / high-tier=1 / uhd-bd=0 / ref=3 / no-allow-non-conformance / no-repeat-headers / annexb / no-aud / no-hrd / info / hash=0 / no-temporal-layers / open-gop / min-keyint=23 / keyint=250 / gop-lookahead=0 / bframes=8 / b-adapt=2 / b-pyramid / bframe-bias=0 / rc-lookahead=50 / lookahead-slices=6 / scenecut=40 / radl=0 / no-intra-refresh / ctu=64 / min-cu-size=8 / no-rect / no-amp / max-tu-size=32 / tu-inter-depth=1 / tu-intra-depth=1 / limit-tu=0 / rdoq-level=0 / dynamic-rd=0.00 / no-ssim-rd / signhide / no-tskip / nr-intra=0 / nr-inter=0 / no-constrained-intra / no-strong-intra-smoothing / max-merge=3 / limit-refs=3 / no-limit-modes / me=3 / subme=3 / merange=57 / temporal-mvp / weightp / no-weightb / no-analyze-src-pics / deblock=0:0 / sao / no-sao-non-deblock / rd=3 / no-early-skip / no-rskip / no-fast-intra / no-tskip-fast / no-cu-lossless / no-b-intra / no-splitrd-skip / rdpenalty=0 / psy-rd=2.00 / psy-rdoq=0.00 / no-rd-refine / no-lossless / cbqpoffs=0 / crqpoffs=0 / rc=crf / crf=20.0 / qcomp=0.60 / qpstep=4 / stats-write=0 / stats-read=0 / ipratio=1.40 / pbratio=1.30 / aq-mode=3 / aq-strength=1.00 / cutree / zone-count=0 / no-strict-cbr / qg-size=32 / no-rc-grain / qpmax=69 / qpmin=0 / no-const-vbv / sar=0 / overscan=0 / videoformat=5 / range=0 / colorprim=2 / transfer=2 / colormatrix=2 / chromaloc=0 / display-window=0 / max-cll=0,0 / min-luma=0 / max-luma=1023 / log2-max-poc-lsb=8 / vui-timing-info / vui-hrd-info / slices=1 / no-opt-qp-pps / no-opt-ref-list-length-pps / no-multi-pass-opt-rps / scenecut-bias=0.05 / no-opt-cu-delta-qp / no-aq-motion / no-hdr / no-hdr-opt / no-dhdr10-opt / no-idr-recovery-sei / analysis-reuse-level=5 / scale-factor=0 / refine-intra=0 / refine-inter=0 / refine-mv=0 / no-limit-sao / ctu-info=0 / no-lowpass-dct / refine-mv-type=0 / copy-pic=1 / max-ausize-factor=1.0 / no-dynamic-refine / no-single-sei 
Default : Yes 
Forced : No 

Audio 
ID : 2 
Format : AAC 
Format/Info : Advanced Audio Codec 
Format profile : LC 
Codec ID : A_AAC 
Duration : 41 min 35 s 
Bit rate : 448 kb/s 
Channel(s) : 6 channels 
Channel positions : Front: L C R, Side: L R, LFE 
Sampling rate : 48.0 kHz 
Frame rate : 46.875 FPS (1024 spf) 
Compression mode : Lossy 
Stream size : 133 MiB (14%) 
Language : English 
Default : Yes 
Forced : No 

Subtitle 
ID : 3 
Format : PGS 
Muxing mode : zlib 
Codec ID : S_HDMV/PGS 
Codec ID/Info : Picture based subtitle format used on BDs/HD-DVDs 
Duration : 39 min 58 s 
Bit rate : 43.3 kb/s 
Count of elements : 1316 
Stream size : 12.4 MiB (1%) 
Language : English 
Default : No 
Forced : No

Screencaps

Download

Download: Google Drive

Season 04

The Expanse (2015) Season 4 S04 (1080p AMZN WEB-DL x265 HEVC 10bit DDP 5.1 Vyndros)

Files

  • The.Expanse.S04E01.New.Terra.1080p.10bit.AMZN.WEB-DL.DDP5.1.HEVC-Vyndros.mkv (1.0 GB)
  • The.Expanse.S04E02.Jetsam.1080p.10bit.AMZN.WEB-DL.DDP5.1.HEVC-Vyndros.mkv (946.4 MB)
  • The.Expanse.S04E03.Subduction.1080p.10bit.AMZN.WEB-DL.DDP5.1.HEVC-Vyndros.mkv (784.2 MB)
  • The.Expanse.S04E04.Retrograde.1080p.10bit.AMZN.WEB-DL.DDP5.1.HEVC-Vyndros.mkv (746.5 MB)
  • The.Expanse.S04E05.Oppressor.1080p.10bit.AMZN.WEB-DL.DDP5.1.HEVC-Vyndros.mkv (843.2 MB)
  • The.Expanse.S04E06.Displacement.1080p.10bit.AMZN.WEB-DL.DDP5.1.HEVC-Vyndros.mkv (881.0 MB)
  • The.Expanse.S04E07.A.Shot.in.the.Dark.1080p.10bit.AMZN.WEB-DL.DDP5.1.HEVC-Vyndros.mkv (796.3 MB)
  • The.Expanse.S04E08.The.One-Eyed.Man.1080p.10bit.AMZN.WEB-DL.DDP5.1.HEVC-Vyndros.mkv (910.8 MB)
  • The.Expanse.S04E09.Saeculum.1080p.10bit.AMZN.WEB-DL.DDP5.1.HEVC-Vyndros.mkv (817.0 MB)
  • The.Expanse.S04E10.Cibola.Burn.1080p.10bit.AMZN.WEB-DL.DDP5.1.HEVC-Vyndros.mkv (925.0 MB)

Mediainfo

General
Format : Matroska
Format version : Version 4 / Version 2
File size : 843 MiB
Duration : 45 min 28 s
Overall bit rate : 2 592 kb/s
Encoded date : UTC 2019-12-15 02:58:12
Writing application : mkvmerge v20.0.0 ('I Am The Sun') 64-bit
Writing library : libebml v1.3.5 + libmatroska v1.4.8
Writing frontend : StaxRip v1.7.0.6

Video
ID : 1
Format : HEVC
Format/Info : High Efficiency Video Coding
Format profile : Main [email protected]@Main
Codec ID : V_MPEGH/ISO/HEVC
Duration : 45 min 28 s
Bit rate : 1 950 kb/s
Width : 1 920 pixels
Height : 1 080 pixels
Display aspect ratio : 16:9
Frame rate mode : Constant
Frame rate : 23.976 (24000/1001) FPS
Color space : YUV
Chroma subsampling : 4:2:0
Bit depth : 10 bits
Bits/(Pixel*Frame) : 0.039
Stream size : 634 MiB (75%)
Writing library : x265 3.2+5-354901970679:[Windows][GCC 9.2.0][64 bit] 10bit
Encoding settings : cpuid=1111039 / frame-threads=3 / numa-pools=12 / wpp / no-pmode / no-pme / no-psnr / ssim / log-level=2 / input-csp=1 / input-res=1920x1080 / interlace=0 / total-frames=65419 / level-idc=0 / high-tier=1 / uhd-bd=0 / ref=3 / no-allow-non-conformance / no-repeat-headers / annexb / no-aud / no-hrd / info / hash=0 / no-temporal-layers / open-gop / min-keyint=23 / keyint=250 / gop-lookahead=0 / bframes=8 / b-adapt=2 / b-pyramid / bframe-bias=0 / rc-lookahead=80 / lookahead-slices=6 / scenecut=40 / radl=0 / no-splice / no-intra-refresh / ctu=64 / min-cu-size=8 / no-rect / no-amp / max-tu-size=32 / tu-inter-depth=1 / tu-intra-depth=1 / limit-tu=0 / rdoq-level=0 / dynamic-rd=0.00 / no-ssim-rd / signhide / no-tskip / nr-intra=0 / nr-inter=0 / no-constrained-intra / no-strong-intra-smoothing / max-merge=3 / limit-refs=1 / no-limit-modes / me=3 / subme=5 / merange=57 / temporal-mvp / no-frame-dup / no-hme / weightp / no-weightb / no-analyze-src-pics / deblock=0:0 / sao / no-sao-non-deblock / rd=3 / selective-sao=4 / early-skip / no-rskip / no-fast-intra / no-tskip-fast / no-cu-lossless / b-intra / no-splitrd-skip / rdpenalty=0 / psy-rd=2.00 / psy-rdoq=0.00 / no-rd-refine / no-lossless / cbqpoffs=0 / crqpoffs=0 / rc=crf / crf=19.0 / qcomp=0.60 / qpstep=4 / stats-write=0 / stats-read=0 / ipratio=1.40 / pbratio=1.30 / aq-mode=3 / aq-strength=0.80 / cutree / zone-count=0 / no-strict-cbr / qg-size=32 / no-rc-grain / qpmax=69 / qpmin=0 / no-const-vbv / sar=0 / overscan=0 / videoformat=5 / range=0 / colorprim=2 / transfer=2 / colormatrix=2 / chromaloc=0 / display-window=0 / cll=0,0 / min-luma=0 / max-luma=1023 / log2-max-poc-lsb=8 / vui-timing-info / vui-hrd-info / slices=1 / no-opt-qp-pps / no-opt-ref-list-length-pps / no-multi-pass-opt-rps / scenecut-bias=0.05 / no-opt-cu-delta-qp / no-aq-motion / no-hdr / no-hdr-opt / no-dhdr10-opt / no-idr-recovery-sei / analysis-reuse-level=5 / scale-factor=0 / refine-intra=0 / refine-inter=0 / refine-mv=1 / refine-ctu-distortion=0 / no-limit-sao / ctu-info=0 / no-lowpass-dct / refine-analysis-type=0 / copy-pic=1 / max-ausize-factor=1.0 / no-dynamic-refine / no-single-sei / no-hevc-aq / no-svt / no-field / qp-adaptation-range=1.00
Default : Yes
Forced : No

Audio
ID : 2
Format : E-AC-3
Format/Info : Enhanced Audio Coding 3
Format settings, Endianness : Big
Codec ID : A_EAC3
Duration : 45 min 28 s
Bit rate mode : Constant
Bit rate : 640 kb/s
Channel(s) : 6 channels
Channel positions : Front: L C R, Side: L R, LFE
Sampling rate : 48.0 kHz
Frame rate : 187.500 FPS (256 spf)
Compression mode : Lossy
Stream size : 208 MiB (25%)
Language : English
Default : No
Forced : No

Subtitle #1
ID : 3
Format : UTF-8
Codec ID : S_TEXT/UTF8
Codec ID/Info : UTF-8 Plain Text
Duration : 41 min 38 s
Bit rate : 79 b/s
Count of elements : 844
Stream size : 24.2 KiB (0%)
Language : English
Default : No
Forced : No

Subtitle #2
ID : 4
Format : UTF-8
Codec ID : S_TEXT/UTF8
Codec ID/Info : UTF-8 Plain Text
Duration : 44 min 40 s
Bit rate : 80 b/s
Count of elements : 967
Stream size : 26.5 KiB (0%)
Language : English
Default : No
Forced : No

Screens

Download

Download: Google Drive

Leave a Reply