The Blue Planet (2001) (1080p BluRay x265 HEVC 10bit AAC 5.1 RCVR)

Info

Summary: The BBC spent five years and $10 million to produce this landmark exploration of the ocean, a world we know less about than the moon. We go further out and deeper down to show you things that have never been seen before. The Blue Planet reveals the sea and its communities at their most fearsome and alluring. Until now, we’ve only touched the surface.

Files

The Blue Planet (2001) Season 1 S01 + Extras (1080p BluRay x265 HEVC 10bit AAC 5.1 RCVR)

  • The Blue Planet (2001) – S01E01 – Ocean World (1080p BluRay x265 RCVR).mkv (2.9 GB)
  • The Blue Planet (2001) – S01E02 – The Deep (1080p BluRay x265 RCVR).mkv (1.2 GB)
  • The Blue Planet (2001) – S01E03 – Open Ocean (1080p BluRay x265 RCVR).mkv (1.8 GB)
  • The Blue Planet (2001) – S01E04 – Frozen Seas (1080p BluRay x265 RCVR).mkv (1.9 GB)
  • The Blue Planet (2001) – S01E05 – Seasonal Seas (1080p BluRay x265 RCVR).mkv (1.8 GB)
  • The Blue Planet (2001) – S01E06 – Coral Seas (1080p BluRay x265 RCVR).mkv (1.9 GB)
  • The Blue Planet (2001) – S01E07 – Tidal Seas (1080p BluRay x265 RCVR).mkv (2.1 GB)
  • The Blue Planet (2001) – S01E08 – Coasts (1080p BluRay x265 RCVR).mkv (3.0 GB)

Featurettes

  • Menu Art.mkv (14.0 MB)

Bonus Episodes

  • Amazon Abyss.mkv (998.1 MB)
  • Deep Trouble.mkv (1.3 GB)
  • Dive to Shark Volcano.mkv (685.8 MB)

Interviews

  • Alastair Fothergill – Series Producer.mkv (151.3 MB)
  • Doug Allan – Cameraman.mkv (55.3 MB)
  • Penny Allen – Researcher.mkv (49.5 MB)

Making Waves

  • Coasts.mkv (284.0 MB)
  • Coral Seas.mkv (250.0 MB)
  • Frozen Seas.mkv (179.9 MB)
  • Ocean World.mkv (191.9 MB)
  • Open Ocean.mkv (270.4 MB)
  • Seasonal Seas.mkv (213.5 MB)
  • The Deep.mkv (204.3 MB)
  • Tidal Seas.mkv (246.2 MB)

Mediainfo

General
Format : Matroska
Format version : Version 4 / Version 2
File size : 2.86 GiB
Duration : 51 min 17 s
Overall bit rate : 7 992 kb/s
Movie name : THE BLUE PLANET D1
Encoded date : UTC 2017-12-11 04:37:37
Writing application : mkvmerge v12.0.0 ('Trust / Lust') 64bit
Writing library : libebml v1.3.4 + libmatroska v1.4.5
Cover : Yes
Attachments : cover.jpg

Video
ID : 1
Format : HEVC
Format/Info : High Efficiency Video Coding
Format profile : Main [email protected]@Main
Codec ID : V_MPEGH/ISO/HEVC
Duration : 51 min 17 s
Bit rate : 7 601 kb/s
Width : 1 920 pixels
Height : 1 080 pixels
Display aspect ratio : 16:9
Frame rate mode : Constant
Frame rate : 23.976 (24000/1001) FPS
Color space : YUV
Chroma subsampling : 4:2:0
Bit depth : 10 bits
Bits/(Pixel*Frame) : 0.153
Stream size : 2.72 GiB (95%)
Writing library : x265 2.6+12-7bd8751a8183:[Windows][MSVC 1912][64 bit] 10bit
Encoding settings : cpuid=1173503 / frame-threads=3 / numa-pools=8 / wpp / no-pmode / no-pme / no-psnr / no-ssim / log-level=2 / input-csp=1 / input-res=1920x1080 / interlace=0 / total-frames=73779 / level-idc=0 / high-tier=1 / uhd-bd=0 / ref=5 / no-allow-non-conformance / no-repeat-headers / annexb / no-aud / no-hrd / info / hash=0 / no-temporal-layers / open-gop / min-keyint=23 / keyint=250 / gop-lookahead=0 / bframes=8 / b-adapt=2 / b-pyramid / bframe-bias=0 / rc-lookahead=80 / lookahead-slices=4 / scenecut=40 / no-intra-refresh / ctu=64 / min-cu-size=8 / rect / no-amp / max-tu-size=32 / tu-inter-depth=1 / tu-intra-depth=1 / limit-tu=0 / rdoq-level=1 / dynamic-rd=0.00 / no-ssim-rd / signhide / no-tskip / nr-intra=0 / nr-inter=0 / no-constrained-intra / strong-intra-smoothing / max-merge=3 / limit-refs=3 / limit-modes / me=3 / subme=3 / merange=57 / temporal-mvp / weightp / weightb / no-analyze-src-pics / deblock=-3:-3 / no-sao / no-sao-non-deblock / rd=4 / no-early-skip / no-rskip / no-fast-intra / no-tskip-fast / no-cu-lossless / no-b-intra / no-splitrd-skip / rdpenalty=0 / psy-rd=0.70 / psy-rdoq=1.00 / no-rd-refine / analysis-reuse-mode=0 / no-lossless / cbqpoffs=0 / crqpoffs=0 / rc=crf / crf=23.5 / qcomp=0.60 / qpstep=4 / stats-write=0 / stats-read=0 / ipratio=1.40 / pbratio=1.30 / aq-mode=3 / aq-strength=1.00 / cutree / zone-count=0 / no-strict-cbr / qg-size=32 / no-rc-grain / qpmax=69 / qpmin=0 / no-const-vbv / sar=0 / overscan=0 / videoformat=5 / range=0 / colorprim=2 / transfer=2 / colormatrix=2 / chromaloc=0 / display-window=0 / max-cll=0,0 / min-luma=0 / max-luma=1023 / log2-max-poc-lsb=8 / vui-timing-info / vui-hrd-info / slices=1 / no-opt-qp-pps / no-opt-ref-list-length-pps / no-multi-pass-opt-rps / scenecut-bias=0.05 / no-opt-cu-delta-qp / no-aq-motion / no-hdr / no-hdr-opt / no-dhdr10-opt / analysis-reuse-level=5 / scale-factor=0 / refine-intra=0 / refine-inter=0 / refine-mv=0 / no-limit-sao / ctu-info=0 / no-lowpass-dct / refine-mv-type=0 / copy-pic=1
Default : Yes
Forced : No

Audio
ID : 2
Format : AAC
Format/Info : Advanced Audio Codec
Format profile : LC
Codec ID : A_AAC
Duration : 51 min 17 s
Bit rate : 372 kb/s
Channel(s) : 6 channels
Channel positions : Front: L C R, Side: L R, LFE
Sampling rate : 48.0 kHz
Frame rate : 46.875 FPS (1024 spf)
Compression mode : Lossy
Delay relative to video : 20 ms
Stream size : 137 MiB (5%)
Language : English
Default : Yes
Forced : No

Subtitle
ID : 3
Format : PGS
Muxing mode : zlib
Codec ID : S_HDMV/PGS
Codec ID/Info : Picture based subtitle format used on BDs/HD-DVDs
Duration : 49 min 3 s
Bit rate : 16.8 kb/s
Count of elements : 970
Stream size : 5.89 MiB (0%)
Language : English
Default : No
Forced : No

Menu
00:00:00.000 : en:Chapter 01
00:08:27.340 : en:Chapter 02
00:15:39.605 : en:Chapter 03
00:22:31.224 : en:Chapter 04
00:29:34.898 : en:Chapter 05
00:37:46.347 : en:Chapter 06
00:45:59.757 : en:Chapter 07
00:49:51.989 : en:Chapter 08

Download

Download: Google Drive (21.64 GB)

1 thought on “The Blue Planet (2001) (1080p BluRay x265 HEVC 10bit AAC 5.1 RCVR)

Leave a Reply