The Blacklist (2013) Season 1-7 (1080p Mixed x265 HEVC 10bit AAC 5.1 Vyndros)

Plot: Raymond “Red” Reddington, one of the FBI’s most wanted fugitives, surrenders in person at FBI Headquarters in Washington, D.C. He claims that he and the FBI have the same interests—bringing down dangerous criminals and terrorists. In the last two decades, he’s made a list of criminals and terrorists that matter the most but the FBI cannot find because it does not know they exist. Reddington calls this “The Blacklist.” Reddington will co-operate with the FBI, but insists that he will speak only to Elizabeth Keen, a rookie profiler.

Season 1

The Blacklist (2013) Season 1 S01 (1080p BluRay x265 HEVC 10bit AAC 5.1 Vyndros)

Files

  • The.Blacklist.S01E01.Pilot.1080p.10bit.BluRay.AAC5.1.HEVC-Vyndros.mkv (1.4 GB)
  • The.Blacklist.S01E02.The.Freelancer.1080p.10bit.BluRay.AAC5.1.HEVC-Vyndros.mkv (940.2 MB)
  • The.Blacklist.S01E03.Wujing.1080p.10bit.BluRay.AAC5.1.HEVC-Vyndros.mkv (1,011.0 MB)
  • The.Blacklist.S01E04.The.Stewmaker.1080p.10bit.BluRay.AAC5.1.HEVC-Vyndros.mkv (912.1 MB)
  • The.Blacklist.S01E05.The.Courier.1080p.10bit.BluRay.AAC5.1.HEVC-Vyndros.mkv (924.8 MB)
  • The.Blacklist.S01E06.Gina.Zanetakos.1080p.10bit.BluRay.AAC5.1.HEVC-Vyndros.mkv (840.1 MB)
  • The.Blacklist.S01E07.Frederick.Barnes.1080p.10bit.BluRay.AAC5.1.HEVC-Vyndros.mkv (914.3 MB)
  • The.Blacklist.S01E08.General.Ludd.1080p.10bit.BluRay.AAC5.1.HEVC-Vyndros.mkv (934.4 MB)
  • The.Blacklist.S01E09.Anslo.Garrick.(1).1080p.10bit.BluRay.AAC5.1.HEVC-Vyndros.mkv (942.7 MB)
  • The.Blacklist.S01E10.Anslo.Garrick.(2).1080p.10bit.BluRay.AAC5.1.HEVC-Vyndros.mkv (852.9 MB)
  • The.Blacklist.S01E11.The.Good.Samaritan.1080p.10bit.BluRay.AAC5.1.HEVC-Vyndros.mkv (812.3 MB)
  • The.Blacklist.S01E12.The.Alchemist.1080p.10bit.BluRay.AAC5.1.HEVC-Vyndros.mkv (872.8 MB)
  • The.Blacklist.S01E13.The.Cyprus.Agency.1080p.10bit.BluRay.AAC5.1.HEVC-Vyndros.mkv (747.2 MB)
  • The.Blacklist.S01E14.Madeline.Pratt.1080p.10bit.BluRay.AAC5.1.HEVC-Vyndros.mkv (802.2 MB)
  • The.Blacklist.S01E15.The.Judge.1080p.10bit.BluRay.AAC5.1.HEVC-Vyndros.mkv (800.3 MB)
  • The.Blacklist.S01E16.Mako.Tanida.1080p.10bit.BluRay.AAC5.1.HEVC-Vyndros.mkv (863.8 MB)
  • The.Blacklist.S01E17.Ivan.1080p.10bit.BluRay.AAC5.1.HEVC-Vyndros.mkv (819.6 MB)
  • The.Blacklist.S01E18.Milton.Bobbit.1080p.10bit.BluRay.AAC5.1.HEVC-Vyndros.mkv (812.3 MB)
  • The.Blacklist.S01E19.The.Pavlovich.Brothers.1080p.10bit.BluRay.AAC5.1.HEVC-Vyndros.mkv (813.6 MB)
  • The.Blacklist.S01E20.The.Kingmaker.1080p.10bit.BluRay.AAC5.1.HEVC-Vyndros.mkv (783.6 MB)
  • The.Blacklist.S01E21.Berlin.(1).1080p.10bit.BluRay.AAC5.1.HEVC-Vyndros.mkv (948.6 MB)
  • The.Blacklist.S01E22.Berlin.Conclusion.(2).1080p.10bit.BluRay.AAC5.1.HEVC-Vyndros.mkv (836.7 MB)

Mediainfo

General
Format : Matroska
Format version : Version 4 / Version 2
File size : 840 MiB
Duration : 42 min 40 s
Overall bit rate : 2 752 kb/s
Encoded date : UTC 2019-11-24 06:00:21
Writing application : mkvmerge v20.0.0 ('I Am The Sun') 64-bit
Writing library : libebml v1.3.5 + libmatroska v1.4.8
Writing frontend : StaxRip v1.7.0.6

Video
ID : 1
Format : HEVC
Format/Info : High Efficiency Video Coding
Format profile : Main [email protected]@Main
Codec ID : V_MPEGH/ISO/HEVC
Duration : 42 min 40 s
Bit rate : 2 274 kb/s
Width : 1 920 pixels
Height : 1 080 pixels
Display aspect ratio : 16:9
Frame rate mode : Constant
Frame rate : 23.976 (24000/1001) FPS
Color space : YUV
Chroma subsampling : 4:2:0
Bit depth : 10 bits
Bits/(Pixel*Frame) : 0.046
Stream size : 694 MiB (83%)
Writing library : x265 3.2+5-354901970679:[Windows][GCC 9.2.0][64 bit] 10bit
Encoding settings : cpuid=1111039 / frame-threads=2 / numa-pools=4 / wpp / no-pmode / no-pme / no-psnr / ssim / log-level=2 / input-csp=1 / input-res=1920x1080 / interlace=0 / total-frames=61392 / level-idc=0 / high-tier=1 / uhd-bd=0 / ref=3 / no-allow-non-conformance / no-repeat-headers / annexb / no-aud / no-hrd / info / hash=0 / no-temporal-layers / open-gop / min-keyint=23 / keyint=250 / gop-lookahead=0 / bframes=8 / b-adapt=2 / b-pyramid / bframe-bias=0 / rc-lookahead=80 / lookahead-slices=6 / scenecut=40 / radl=0 / no-splice / no-intra-refresh / ctu=64 / min-cu-size=8 / no-rect / no-amp / max-tu-size=32 / tu-inter-depth=1 / tu-intra-depth=1 / limit-tu=0 / rdoq-level=0 / dynamic-rd=0.00 / no-ssim-rd / signhide / no-tskip / nr-intra=0 / nr-inter=0 / no-constrained-intra / no-strong-intra-smoothing / max-merge=3 / limit-refs=1 / no-limit-modes / me=3 / subme=5 / merange=57 / temporal-mvp / no-frame-dup / no-hme / weightp / no-weightb / no-analyze-src-pics / deblock=0:0 / sao / no-sao-non-deblock / rd=3 / selective-sao=4 / early-skip / no-rskip / no-fast-intra / no-tskip-fast / no-cu-lossless / b-intra / no-splitrd-skip / rdpenalty=0 / psy-rd=2.00 / psy-rdoq=0.00 / no-rd-refine / no-lossless / cbqpoffs=0 / crqpoffs=0 / rc=crf / crf=20.0 / qcomp=0.60 / qpstep=4 / stats-write=0 / stats-read=0 / ipratio=1.40 / pbratio=1.30 / aq-mode=3 / aq-strength=1.00 / cutree / zone-count=0 / no-strict-cbr / qg-size=32 / no-rc-grain / qpmax=69 / qpmin=0 / no-const-vbv / sar=0 / overscan=0 / videoformat=5 / range=0 / colorprim=2 / transfer=2 / colormatrix=2 / chromaloc=0 / display-window=0 / cll=0,0 / min-luma=0 / max-luma=1023 / log2-max-poc-lsb=8 / vui-timing-info / vui-hrd-info / slices=1 / no-opt-qp-pps / no-opt-ref-list-length-pps / no-multi-pass-opt-rps / scenecut-bias=0.05 / no-opt-cu-delta-qp / no-aq-motion / no-hdr / no-hdr-opt / no-dhdr10-opt / no-idr-recovery-sei / analysis-reuse-level=5 / scale-factor=0 / refine-intra=0 / refine-inter=0 / refine-mv=1 / refine-ctu-distortion=0 / no-limit-sao / ctu-info=0 / no-lowpass-dct / refine-analysis-type=0 / copy-pic=1 / max-ausize-factor=1.0 / no-dynamic-refine / no-single-sei / no-hevc-aq / no-svt / no-field / qp-adaptation-range=1.00
Default : Yes
Forced : No

Audio
ID : 2
Format : AAC
Format/Info : Advanced Audio Codec
Format profile : LC
Codec ID : A_AAC
Duration : 42 min 40 s
Bit rate : 449 kb/s
Channel(s) : 6 channels
Channel positions : Front: L C R, Side: L R, LFE
Sampling rate : 48.0 kHz
Frame rate : 46.875 FPS (1024 spf)
Compression mode : Lossy
Stream size : 137 MiB (16%)
Language : English
Default : Yes
Forced : No

Subtitle #1
ID : 3
Format : PGS
Muxing mode : zlib
Codec ID : S_HDMV/PGS
Codec ID/Info : Picture based subtitle format used on BDs/HD-DVDs
Duration : 41 min 58 s
Bit rate : 28.9 kb/s
Count of elements : 1114
Stream size : 8.67 MiB (1%)
Language : English
Default : No
Forced : No

Subtitle #2
ID : 4
Format : PGS
Muxing mode : zlib
Codec ID : S_HDMV/PGS
Codec ID/Info : Picture based subtitle format used on BDs/HD-DVDs
Duration : 41 min 10 s
Bit rate : 39.7 kb/s
Count of elements : 956
Stream size : 11.7 MiB (1%)
Language : English
Default : No
Forced : No

Screens

Download

Download: Google Drive

Season 2

The Blacklist (2013) Season 2 S02 (1080p BluRay x265 HEVC 10bit AAC 5.1 Vyndros)

Files

  • The.Blacklist.S02E01.Lord.Baltimore.1080p.10bit.BluRay.AAC5.1.HEVC-Vyndros.mkv (1.1 GB)
  • The.Blacklist.S02E02.Monarch.Douglas.Bank.1080p.10bit.BluRay.AAC5.1.HEVC-Vyndros.mkv (902.0 MB)
  • The.Blacklist.S02E03.Dr.James.Covington.1080p.10bit.BluRay.AAC5.1.HEVC-Vyndros.mkv (996.8 MB)
  • The.Blacklist.S02E04.Dr.Linus.Creel.1080p.10bit.BluRay.AAC5.1.HEVC-Vyndros.mkv (917.3 MB)
  • The.Blacklist.S02E05.The.Front.1080p.10bit.BluRay.AAC5.1.HEVC-Vyndros.mkv (1.0 GB)
  • The.Blacklist.S02E06.The.Mombasa.Cartel.1080p.10bit.BluRay.AAC5.1.HEVC-Vyndros.mkv (1.1 GB)
  • The.Blacklist.S02E07.The.Scimitar.1080p.10bit.BluRay.AAC5.1.HEVC-Vyndros.mkv (986.5 MB)
  • The.Blacklist.S02E08.The.Decembrist.1080p.10bit.BluRay.AAC5.1.HEVC-Vyndros.mkv (797.1 MB)
  • The.Blacklist.S02E09.Luther.Braxton.(1).1080p.10bit.BluRay.AAC5.1.HEVC-Vyndros.mkv (790.9 MB)
  • The.Blacklist.S02E10.Luther.Braxton.Conclusion.(2).1080p.10bit.BluRay.AAC5.1.HEVC-Vyndros.mkv (689.7 MB)
  • The.Blacklist.S02E11.Ruslan.Denisov.1080p.10bit.BluRay.AAC5.1.HEVC-Vyndros.mkv (786.5 MB)
  • The.Blacklist.S02E12.The.Kenyon.Family.1080p.10bit.BluRay.AAC5.1.HEVC-Vyndros.mkv (916.4 MB)
  • The.Blacklist.S02E13.The.Deer.Hunter.1080p.10bit.BluRay.AAC5.1.HEVC-Vyndros.mkv (826.6 MB)
  • The.Blacklist.S02E14.T.Earl.King.VI.1080p.10bit.BluRay.AAC5.1.HEVC-Vyndros.mkv (799.8 MB)
  • The.Blacklist.S02E15.The.Major.1080p.10bit.BluRay.AAC5.1.HEVC-Vyndros.mkv (769.1 MB)
  • The.Blacklist.S02E16.Tom.Keen.1080p.10bit.BluRay.AAC5.1.HEVC-Vyndros.mkv (751.2 MB)
  • The.Blacklist.S02E17.The.Longevity.Initiative.1080p.10bit.BluRay.AAC5.1.HEVC-Vyndros.mkv (773.4 MB)
  • The.Blacklist.S02E18.Vanessa.Cruz.1080p.10bit.BluRay.AAC5.1.HEVC-Vyndros.mkv (807.2 MB)
  • The.Blacklist.S02E19.Leonard.Caul.1080p.10bit.BluRay.AAC5.1.HEVC-Vyndros.mkv (779.9 MB)
  • The.Blacklist.S02E20.Quon.Zhang.1080p.10bit.BluRay.AAC5.1.HEVC-Vyndros.mkv (882.8 MB)
  • The.Blacklist.S02E21.Karakurt.1080p.10bit.BluRay.AAC5.1.HEVC-Vyndros.mkv (881.7 MB)
  • The.Blacklist.S02E22.Tom.Connolly.1080p.10bit.BluRay.AAC5.1.HEVC-Vyndros.mkv (885.2 MB)

Mediainfo

General
Format : Matroska
Format version : Version 4 / Version 2
File size : 902 MiB
Duration : 43 min 3 s
Overall bit rate : 2 929 kb/s
Encoded date : UTC 2019-11-16 02:53:57
Writing application : mkvmerge v20.0.0 ('I Am The Sun') 64-bit
Writing library : libebml v1.3.5 + libmatroska v1.4.8
Writing frontend : StaxRip v1.7.0.6

Video
ID : 1
Format : HEVC
Format/Info : High Efficiency Video Coding
Format profile : Main [email protected]@Main
Codec ID : V_MPEGH/ISO/HEVC
Duration : 43 min 3 s
Bit rate : 2 442 kb/s
Width : 1 920 pixels
Height : 1 080 pixels
Display aspect ratio : 16:9
Frame rate mode : Constant
Frame rate : 23.976 (24000/1001) FPS
Color space : YUV
Chroma subsampling : 4:2:0
Bit depth : 10 bits
Bits/(Pixel*Frame) : 0.049
Stream size : 752 MiB (83%)
Writing library : x265 3.2+5-354901970679:[Windows][GCC 9.2.0][64 bit] 10bit
Encoding settings : cpuid=1111039 / frame-threads=2 / numa-pools=4 / wpp / no-pmode / no-pme / no-psnr / ssim / log-level=2 / input-csp=1 / input-res=1920x1080 / interlace=0 / total-frames=61938 / level-idc=0 / high-tier=1 / uhd-bd=0 / ref=3 / no-allow-non-conformance / no-repeat-headers / annexb / no-aud / no-hrd / info / hash=0 / no-temporal-layers / open-gop / min-keyint=23 / keyint=250 / gop-lookahead=0 / bframes=8 / b-adapt=2 / b-pyramid / bframe-bias=0 / rc-lookahead=80 / lookahead-slices=6 / scenecut=40 / radl=0 / no-splice / no-intra-refresh / ctu=64 / min-cu-size=8 / no-rect / no-amp / max-tu-size=32 / tu-inter-depth=1 / tu-intra-depth=1 / limit-tu=0 / rdoq-level=0 / dynamic-rd=0.00 / no-ssim-rd / signhide / no-tskip / nr-intra=0 / nr-inter=0 / no-constrained-intra / no-strong-intra-smoothing / max-merge=3 / limit-refs=1 / no-limit-modes / me=3 / subme=5 / merange=57 / temporal-mvp / no-frame-dup / no-hme / weightp / no-weightb / no-analyze-src-pics / deblock=0:0 / sao / no-sao-non-deblock / rd=3 / selective-sao=4 / early-skip / no-rskip / no-fast-intra / no-tskip-fast / no-cu-lossless / b-intra / no-splitrd-skip / rdpenalty=0 / psy-rd=2.00 / psy-rdoq=0.00 / no-rd-refine / no-lossless / cbqpoffs=0 / crqpoffs=0 / rc=crf / crf=20.0 / qcomp=0.60 / qpstep=4 / stats-write=0 / stats-read=0 / ipratio=1.40 / pbratio=1.30 / aq-mode=3 / aq-strength=1.00 / cutree / zone-count=0 / no-strict-cbr / qg-size=32 / no-rc-grain / qpmax=69 / qpmin=0 / no-const-vbv / sar=0 / overscan=0 / videoformat=5 / range=0 / colorprim=2 / transfer=2 / colormatrix=2 / chromaloc=0 / display-window=0 / cll=0,0 / min-luma=0 / max-luma=1023 / log2-max-poc-lsb=8 / vui-timing-info / vui-hrd-info / slices=1 / no-opt-qp-pps / no-opt-ref-list-length-pps / no-multi-pass-opt-rps / scenecut-bias=0.05 / no-opt-cu-delta-qp / no-aq-motion / no-hdr / no-hdr-opt / no-dhdr10-opt / no-idr-recovery-sei / analysis-reuse-level=5 / scale-factor=0 / refine-intra=0 / refine-inter=0 / refine-mv=1 / refine-ctu-distortion=0 / no-limit-sao / ctu-info=0 / no-lowpass-dct / refine-analysis-type=0 / copy-pic=1 / max-ausize-factor=1.0 / no-dynamic-refine / no-single-sei / no-hevc-aq / no-svt / no-field / qp-adaptation-range=1.00
Default : Yes
Forced : No

Audio
ID : 2
Format : AAC
Format/Info : Advanced Audio Codec
Format profile : LC
Codec ID : A_AAC
Duration : 43 min 3 s
Bit rate : 449 kb/s
Channel(s) : 6 channels
Channel positions : Front: L C R, Side: L R, LFE
Sampling rate : 48.0 kHz
Frame rate : 46.875 FPS (1024 spf)
Compression mode : Lossy
Stream size : 138 MiB (15%)
Language : English
Default : Yes
Forced : No

Subtitle #1
ID : 3
Format : PGS
Muxing mode : zlib
Codec ID : S_HDMV/PGS
Codec ID/Info : Picture based subtitle format used on BDs/HD-DVDs
Duration : 20 min 47 s
Bit rate : 2 598 b/s
Count of elements : 58
Stream size : 396 KiB (0%)
Language : English
Default : No
Forced : No

Subtitle #2
ID : 4
Format : PGS
Muxing mode : zlib
Codec ID : S_HDMV/PGS
Codec ID/Info : Picture based subtitle format used on BDs/HD-DVDs
Duration : 41 min 36 s
Bit rate : 39.6 kb/s
Count of elements : 1162
Stream size : 11.8 MiB (1%)
Language : English
Default : No
Forced : No

Subtitle #3
ID : 5
Format : PGS
Muxing mode : zlib
Codec ID : S_HDMV/PGS
Codec ID/Info : Picture based subtitle format used on BDs/HD-DVDs
Duration : 42 min 27 s
Bit rate : 44.9 kb/s
Count of elements : 1382
Stream size : 13.6 MiB (2%)
Language : English
Default : No
Forced : No

Screens

Download

Download: Google Drive

Season 3

The Blacklist (2013) Season 3 S03 (1080p BluRay x265 HEVC 10bit AAC 5.1 Vyndros)

Files

  • The.Blacklist.S03E01.The.Troll.Farmer.1080p.10bit.BluRay.AAC5.1.HEVC-Vyndros.mkv (941.9 MB)
  • The.Blacklist.S03E02.Marvin.Gerard.1080p.10bit.BluRay.AAC5.1.HEVC-Vyndros.mkv (887.5 MB)
  • The.Blacklist.S03E03.Eli.Matchett.1080p.10bit.BluRay.AAC5.1.HEVC-Vyndros.mkv (1.2 GB)
  • The.Blacklist.S03E04.The.Djinn.1080p.10bit.BluRay.AAC5.1.HEVC-Vyndros.mkv (920.1 MB)
  • The.Blacklist.S03E05.Arioch.Cain.1080p.10bit.BluRay.AAC5.1.HEVC-Vyndros.mkv (975.9 MB)
  • The.Blacklist.S03E06.Sir.Crispin.Crandall.1080p.10bit.BluRay.AAC5.1.HEVC-Vyndros.mkv (881.6 MB)
  • The.Blacklist.S03E07.Zal.Bin.Hasaan.1080p.10bit.BluRay.AAC5.1.HEVC-Vyndros.mkv (902.3 MB)
  • The.Blacklist.S03E08.Kings.of.the.Highway.1080p.10bit.BluRay.AAC5.1.HEVC-Vyndros.mkv (1.1 GB)
  • The.Blacklist.S03E09.The.Director.(1).1080p.10bit.BluRay.AAC5.1.HEVC-Vyndros.mkv (1.0 GB)
  • The.Blacklist.S03E10.The.Director.Conclusion.(2).1080p.10bit.BluRay.AAC5.1.HEVC-Vyndros.mkv (863.9 MB)
  • The.Blacklist.S03E11.Mr.Gregory.Devry.1080p.10bit.BluRay.AAC5.1.HEVC-Vyndros.mkv (922.2 MB)
  • The.Blacklist.S03E12.The.Vehm.1080p.10bit.BluRay.AAC5.1.HEVC-Vyndros.mkv (775.7 MB)
  • The.Blacklist.S03E13.Alistair.Pitt.1080p.10bit.BluRay.AAC5.1.HEVC-Vyndros.mkv (951.5 MB)
  • The.Blacklist.S03E14.Lady.Ambrosia.1080p.10bit.BluRay.AAC5.1.HEVC-Vyndros.mkv (887.5 MB)
  • The.Blacklist.S03E15.Drexel.1080p.10bit.BluRay.AAC5.1.HEVC-Vyndros.mkv (762.9 MB)
  • The.Blacklist.S03E16.The.Caretaker.1080p.10bit.BluRay.AAC5.1.HEVC-Vyndros.mkv (747.0 MB)
  • The.Blacklist.S03E17.Mr.Solomon.(1).1080p.10bit.BluRay.AAC5.1.HEVC-Vyndros.mkv (932.5 MB)
  • The.Blacklist.S03E18.Mr.Solomon.Conclusion.(2).1080p.10bit.BluRay.AAC5.1.HEVC-Vyndros.mkv (952.6 MB)
  • The.Blacklist.S03E19.Cape.May.1080p.10bit.BluRay.AAC5.1.HEVC-Vyndros.mkv (712.7 MB)
  • The.Blacklist.S03E20.The.Artax.Network.1080p.10bit.BluRay.AAC5.1.HEVC-Vyndros.mkv (1,023.0 MB)
  • The.Blacklist.S03E21.Susan.Hargrave.1080p.10bit.BluRay.AAC5.1.HEVC-Vyndros.mkv (900.9 MB)
  • The.Blacklist.S03E22.Alexander.Kirk.(1).1080p.10bit.BluRay.AAC5.1.HEVC-Vyndros.mkv (1,021.4 MB)
  • The.Blacklist.S03E23.Alexander.Kirk.Conclusion.(2).1080p.10bit.BluRay.AAC5.1.HEVC-Vyndros.mkv (1,011.8 MB)

Mediainfo

General
Format : Matroska
Format version : Version 4 / Version 2
File size : 922 MiB
Duration : 42 min 48 s
Overall bit rate : 3 013 kb/s
Encoded date : UTC 2019-11-12 03:48:11
Writing application : mkvmerge v20.0.0 ('I Am The Sun') 64-bit
Writing library : libebml v1.3.5 + libmatroska v1.4.8
Writing frontend : StaxRip v1.7.0.6

Video
ID : 1
Format : HEVC
Format/Info : High Efficiency Video Coding
Format profile : Main [email protected]@Main
Codec ID : V_MPEGH/ISO/HEVC
Duration : 42 min 47 s
Bit rate : 2 519 kb/s
Width : 1 920 pixels
Height : 1 080 pixels
Display aspect ratio : 16:9
Frame rate mode : Constant
Frame rate : 23.976 (24000/1001) FPS
Color space : YUV
Chroma subsampling : 4:2:0
Bit depth : 10 bits
Bits/(Pixel*Frame) : 0.051
Stream size : 771 MiB (84%)
Writing library : x265 3.1+5-9c5c9cef2a86:[Windows][MSVC 1921][64 bit] 10bit
Encoding settings : cpuid=1111039 / frame-threads=2 / numa-pools=4 / wpp / no-pmode / no-pme / no-psnr / ssim / log-level=2 / input-csp=1 / input-res=1920x1080 / interlace=0 / total-frames=61570 / level-idc=0 / high-tier=1 / uhd-bd=0 / ref=3 / no-allow-non-conformance / no-repeat-headers / annexb / no-aud / no-hrd / info / hash=0 / no-temporal-layers / open-gop / min-keyint=23 / keyint=250 / gop-lookahead=0 / bframes=8 / b-adapt=2 / b-pyramid / bframe-bias=0 / rc-lookahead=80 / lookahead-slices=6 / scenecut=40 / radl=0 / no-splice / no-intra-refresh / ctu=64 / min-cu-size=8 / no-rect / no-amp / max-tu-size=32 / tu-inter-depth=1 / tu-intra-depth=1 / limit-tu=0 / rdoq-level=0 / dynamic-rd=0.00 / no-ssim-rd / signhide / no-tskip / nr-intra=0 / nr-inter=0 / no-constrained-intra / no-strong-intra-smoothing / max-merge=3 / limit-refs=1 / no-limit-modes / me=3 / subme=5 / merange=57 / temporal-mvp / weightp / no-weightb / no-analyze-src-pics / deblock=0:0 / sao / no-sao-non-deblock / rd=3 / early-skip / no-rskip / no-fast-intra / no-tskip-fast / no-cu-lossless / b-intra / no-splitrd-skip / rdpenalty=0 / psy-rd=2.00 / psy-rdoq=0.00 / no-rd-refine / no-lossless / cbqpoffs=0 / crqpoffs=0 / rc=crf / crf=20.0 / qcomp=0.60 / qpstep=4 / stats-write=0 / stats-read=0 / ipratio=1.40 / pbratio=1.30 / aq-mode=3 / aq-strength=1.00 / cutree / zone-count=0 / no-strict-cbr / qg-size=32 / no-rc-grain / qpmax=69 / qpmin=0 / no-const-vbv / sar=0 / overscan=0 / videoformat=5 / range=0 / colorprim=2 / transfer=2 / colormatrix=2 / chromaloc=0 / display-window=0cll=0,0 / min-luma=0 / max-luma=1023 / log2-max-poc-lsb=8 / vui-timing-info / vui-hrd-info / slices=1 / no-opt-qp-pps / no-opt-ref-list-length-pps / no-multi-pass-opt-rps / scenecut-bias=0.05 / no-opt-cu-delta-qp / no-aq-motion / no-hdr / no-hdr-opt / no-dhdr10-opt / no-idr-recovery-sei / analysis-reuse-level=5 / scale-factor=0 / refine-intra=0 / refine-inter=0 / refine-mv=0 / refine-ctu-distortion=0 / no-limit-sao / ctu-info=0 / no-lowpass-dct / refine-analysis-type=0 / copy-pic=1 / max-ausize-factor=1.0 / no-dynamic-refine / no-single-sei / no-hevc-aq / no-svt / no-field / qp-adaptation-range=1.00
Default : Yes
Forced : No

Audio
ID : 2
Format : AAC
Format/Info : Advanced Audio Codec
Format profile : LC
Codec ID : A_AAC
Duration : 42 min 48 s
Bit rate : 449 kb/s
Channel(s) : 6 channels
Channel positions : Front: L C R, Side: L R, LFE
Sampling rate : 48.0 kHz
Frame rate : 46.875 FPS (1024 spf)
Compression mode : Lossy
Stream size : 137 MiB (15%)
Language : English
Default : Yes
Forced : No

Subtitle #1
ID : 3
Format : PGS
Muxing mode : zlib
Codec ID : S_HDMV/PGS
Codec ID/Info : Picture based subtitle format used on BDs/HD-DVDs
Duration : 42 min 10 s
Bit rate : 51.8 kb/s
Count of elements : 1456
Stream size : 15.6 MiB (2%)
Language : English
Default : No
Forced : No

Subtitle #2
ID : 4
Format : PGS
Muxing mode : zlib
Codec ID : S_HDMV/PGS
Codec ID/Info : Picture based subtitle format used on BDs/HD-DVDs
Duration : 41 min 36 s
Bit rate : 47.7 kb/s
Count of elements : 1264
Stream size : 14.2 MiB (2%)
Language : English
Default : No
Forced : No

Screens

Download

Download: Google Drive

Season 4

The Blacklist (2013) Season 4 S04 (1080p BluRay x265 HEVC 10bit AAC 5.1 Vyndros)

Files

  • The.Blacklist.S04E01.Esteban.1080p.10bit.BluRay.AAC5.1.HEVC-Vyndros.mkv (1.1 GB)
  • The.Blacklist.S04E02.Mato.1080p.10bit.BluRay.AAC5.1.HEVC-Vyndros.mkv (1.2 GB)
  • The.Blacklist.S04E03.Miles.McGrath.1080p.10bit.BluRay.AAC5.1.HEVC-Vyndros.mkv (978.8 MB)
  • The.Blacklist.S04E04.Gaia.1080p.10bit.BluRay.AAC5.1.HEVC-Vyndros.mkv (934.4 MB)
  • The.Blacklist.S04E05.The.Lindquist.Concern.1080p.10bit.BluRay.AAC5.1.HEVC-Vyndros.mkv (880.9 MB)
  • The.Blacklist.S04E06.The.Thrushes.1080p.10bit.BluRay.AAC5.1.HEVC-Vyndros.mkv (955.7 MB)
  • The.Blacklist.S04E07.Dr.Adrian.Shaw.(1).1080p.10bit.BluRay.AAC5.1.HEVC-Vyndros.mkv (946.8 MB)
  • The.Blacklist.S04E08.Dr.Adrian.Shaw.Conclusion.(2).1080p.10bit.BluRay.AAC5.1.HEVC-Vyndros.mkv (904.4 MB)
  • The.Blacklist.S04E09.Lipet’s.Seafood.Company.1080p.10bit.BluRay.AAC5.1.HEVC-Vyndros.mkv (983.3 MB)
  • The.Blacklist.S04E10.The.Forecaster.1080p.10bit.BluRay.AAC5.1.HEVC-Vyndros.mkv (863.5 MB)
  • The.Blacklist.S04E11.The.Harem.1080p.10bit.BluRay.AAC5.1.HEVC-Vyndros.mkv (1.0 GB)
  • The.Blacklist.S04E12.Natalie.Luca.1080p.10bit.BluRay.AAC5.1.HEVC-Vyndros.mkv (940.4 MB)
  • The.Blacklist.S04E13.Isabella.Stone.1080p.10bit.BluRay.AAC5.1.HEVC-Vyndros.mkv (888.9 MB)
  • The.Blacklist.S04E14.The.Architect.1080p.10bit.BluRay.AAC5.1.HEVC-Vyndros.mkv (953.1 MB)
  • The.Blacklist.S04E15.The.Apothecary.1080p.10bit.BluRay.AAC5.1.HEVC-Vyndros.mkv (852.9 MB)
  • The.Blacklist.S04E16.Dembe.Zuma.1080p.10bit.BluRay.AAC5.1.HEVC-Vyndros.mkv (1.0 GB)
  • The.Blacklist.S04E17.Requiem.1080p.10bit.BluRay.AAC5.1.HEVC-Vyndros.mkv (1.1 GB)
  • The.Blacklist.S04E18.Philomena.1080p.10bit.BluRay.AAC5.1.HEVC-Vyndros.mkv (798.1 MB)
  • The.Blacklist.S04E19.Dr.Bogdan.Krilov.1080p.10bit.BluRay.AAC5.1.HEVC-Vyndros.mkv (901.1 MB)
  • The.Blacklist.S04E20.The.Debt.Collector.1080p.10bit.BluRay.AAC5.1.HEVC-Vyndros.mkv (861.7 MB)
  • The.Blacklist.S04E21.Mr.Kaplan.(1).1080p.10bit.BluRay.AAC5.1.HEVC-Vyndros.mkv (843.1 MB)
  • The.Blacklist.S04E22.Mr.Kaplan.Conclusion.(2).1080p.10bit.BluRay.AAC5.1.HEVC-Vyndros.mkv (831.8 MB)

Mediainfo

General
Format : Matroska
Format version : Version 4 / Version 2
File size : 1.03 GiB
Duration : 43 min 5 s
Overall bit rate : 3 434 kb/s
Encoded date : UTC 2019-11-06 20:04:29
Writing application : mkvmerge v20.0.0 ('I Am The Sun') 64-bit
Writing library : libebml v1.3.5 + libmatroska v1.4.8
Writing frontend : StaxRip v1.7.0.6

Video
ID : 1
Format : HEVC
Format/Info : High Efficiency Video Coding
Format profile : Main [email protected]@Main
Codec ID : V_MPEGH/ISO/HEVC
Duration : 43 min 4 s
Bit rate : 2 949 kb/s
Width : 1 920 pixels
Height : 1 080 pixels
Display aspect ratio : 16:9
Frame rate mode : Constant
Frame rate : 23.976 (24000/1001) FPS
Color space : YUV
Chroma subsampling : 4:2:0
Bit depth : 10 bits
Bits/(Pixel*Frame) : 0.059
Stream size : 909 MiB (86%)
Writing library : x265 3.1+5-9c5c9cef2a86:[Windows][MSVC 1921][64 bit] 10bit
Encoding settings : cpuid=1111039 / frame-threads=2 / numa-pools=4 / wpp / no-pmode / no-pme / no-psnr / ssim / log-level=2 / input-csp=1 / input-res=1920x1080 / interlace=0 / total-frames=61978 / level-idc=0 / high-tier=1 / uhd-bd=0 / ref=3 / no-allow-non-conformance / no-repeat-headers / annexb / no-aud / no-hrd / info / hash=0 / no-temporal-layers / open-gop / min-keyint=23 / keyint=250 / gop-lookahead=0 / bframes=8 / b-adapt=2 / b-pyramid / bframe-bias=0 / rc-lookahead=80 / lookahead-slices=6 / scenecut=40 / radl=0 / no-splice / no-intra-refresh / ctu=64 / min-cu-size=8 / no-rect / no-amp / max-tu-size=32 / tu-inter-depth=1 / tu-intra-depth=1 / limit-tu=0 / rdoq-level=0 / dynamic-rd=0.00 / no-ssim-rd / signhide / no-tskip / nr-intra=0 / nr-inter=0 / no-constrained-intra / no-strong-intra-smoothing / max-merge=3 / limit-refs=1 / no-limit-modes / me=3 / subme=5 / merange=57 / temporal-mvp / weightp / no-weightb / no-analyze-src-pics / deblock=0:0 / sao / no-sao-non-deblock / rd=3 / early-skip / no-rskip / no-fast-intra / no-tskip-fast / no-cu-lossless / b-intra / no-splitrd-skip / rdpenalty=0 / psy-rd=2.00 / psy-rdoq=0.00 / no-rd-refine / no-lossless / cbqpoffs=0 / crqpoffs=0 / rc=crf / crf=20.0 / qcomp=0.60 / qpstep=4 / stats-write=0 / stats-read=0 / ipratio=1.40 / pbratio=1.30 / aq-mode=3 / aq-strength=1.00 / cutree / zone-count=0 / no-strict-cbr / qg-size=32 / no-rc-grain / qpmax=69 / qpmin=0 / no-const-vbv / sar=0 / overscan=0 / videoformat=5 / range=0 / colorprim=2 / transfer=2 / colormatrix=2 / chromaloc=0 / display-window=0cll=0,0 / min-luma=0 / max-luma=1023 / log2-max-poc-lsb=8 / vui-timing-info / vui-hrd-info / slices=1 / no-opt-qp-pps / no-opt-ref-list-length-pps / no-multi-pass-opt-rps / scenecut-bias=0.05 / no-opt-cu-delta-qp / no-aq-motion / no-hdr / no-hdr-opt / no-dhdr10-opt / no-idr-recovery-sei / analysis-reuse-level=5 / scale-factor=0 / refine-intra=0 / refine-inter=0 / refine-mv=0 / refine-ctu-distortion=0 / no-limit-sao / ctu-info=0 / no-lowpass-dct / refine-analysis-type=0 / copy-pic=1 / max-ausize-factor=1.0 / no-dynamic-refine / no-single-sei / no-hevc-aq / no-svt / no-field / qp-adaptation-range=1.00
Default : Yes
Forced : No

Audio
ID : 2
Format : AAC
Format/Info : Advanced Audio Codec
Format profile : LC
Codec ID : A_AAC
Duration : 43 min 5 s
Bit rate : 449 kb/s
Channel(s) : 6 channels
Channel positions : Front: L C R, Side: L R, LFE
Sampling rate : 48.0 kHz
Frame rate : 46.875 FPS (1024 spf)
Compression mode : Lossy
Stream size : 138 MiB (13%)
Language : English
Default : Yes
Forced : No

Subtitle #1
ID : 3
Format : PGS
Muxing mode : zlib
Codec ID : S_HDMV/PGS
Codec ID/Info : Picture based subtitle format used on BDs/HD-DVDs
Duration : 8 min 27 s
Bit rate : 727 b/s
Count of elements : 6
Stream size : 45.1 KiB (0%)
Language : English
Default : No
Forced : No

Subtitle #2
ID : 4
Format : PGS
Muxing mode : zlib
Codec ID : S_HDMV/PGS
Codec ID/Info : Picture based subtitle format used on BDs/HD-DVDs
Duration : 42 min 57 s
Bit rate : 41.2 kb/s
Count of elements : 1232
Stream size : 12.7 MiB (1%)
Language : English
Default : No
Forced : No

Subtitle #3
ID : 5
Format : PGS
Muxing mode : zlib
Codec ID : S_HDMV/PGS
Codec ID/Info : Picture based subtitle format used on BDs/HD-DVDs
Duration : 42 min 51 s
Bit rate : 38.6 kb/s
Count of elements : 1106
Stream size : 11.8 MiB (1%)
Language : English
Default : No
Forced : No

Screens

Download

Download: Google Drive

Season 5

The Blacklist (2013) Season 5 S05 (1080p BluRay x265 HEVC 10bit AAC 5.1 Vyndros)

Files

  • The.Blacklist.S05E01.Smokey.Putnum.1080p.10bit.BluRay.AAC5.1.HEVC-Vyndros.mkv (1.1 GB)
  • The.Blacklist.S05E02.Greyson.Blaise.1080p.10bit.BluRay.AAC5.1.HEVC-Vyndros.mkv (847.1 MB)
  • The.Blacklist.S05E03.Miss.Rebecca.Thrall.1080p.10bit.BluRay.AAC5.1.HEVC-Vyndros.mkv (901.0 MB)
  • The.Blacklist.S05E04.The.Endling.1080p.10bit.BluRay.AAC5.1.HEVC-Vyndros.mkv (689.4 MB)
  • The.Blacklist.S05E05.Ilyas.Surkov.1080p.10bit.BluRay.AAC5.1.HEVC-Vyndros.mkv (886.1 MB)
  • The.Blacklist.S05E06.The.Travel.Agency.1080p.10bit.BluRay.AAC5.1.HEVC-Vyndros.mkv (1.0 GB)
  • The.Blacklist.S05E07.The.Kilgannon.Corporation.1080p.10bit.BluRay.AAC5.1.HEVC-Vyndros.mkv (893.3 MB)
  • The.Blacklist.S05E08.Ian.Garvey.(1).1080p.10bit.BluRay.AAC5.1.HEVC-Vyndros.mkv (988.1 MB)
  • The.Blacklist.S05E09.Ruin.1080p.10bit.BluRay.AAC5.1.HEVC-Vyndros.mkv (779.6 MB)
  • The.Blacklist.S05E10.The.Informant.1080p.10bit.BluRay.AAC5.1.HEVC-Vyndros.mkv (831.5 MB)
  • The.Blacklist.S05E11.Abraham.Stern.1080p.10bit.BluRay.AAC5.1.HEVC-Vyndros.mkv (783.1 MB)
  • The.Blacklist.S05E12.The.Cook.1080p.10bit.BluRay.AAC5.1.HEVC-Vyndros.mkv (883.6 MB)
  • The.Blacklist.S05E13.The.Invisible.Hand.1080p.10bit.BluRay.AAC5.1.HEVC-Vyndros.mkv (980.2 MB)
  • The.Blacklist.S05E14.Mr.Raleigh.Sinclair.III.1080p.10bit.BluRay.AAC5.1.HEVC-Vyndros.mkv (949.5 MB)
  • The.Blacklist.S05E15.Pattie.Sue.Edwards.1080p.10bit.BluRay.AAC5.1.HEVC-Vyndros.mkv (909.3 MB)
  • The.Blacklist.S05E16.The.Capricorn.Killer.1080p.10bit.BluRay.AAC5.1.HEVC-Vyndros.mkv (869.6 MB)
  • The.Blacklist.S05E17.Anna-Gracia.Duerte.1080p.10bit.BluRay.AAC5.1.HEVC-Vyndros.mkv (787.0 MB)
  • The.Blacklist.S05E18.Zarak.Mosadek.1080p.10bit.BluRay.AAC5.1.HEVC-Vyndros.mkv (855.3 MB)
  • The.Blacklist.S05E19.Ian.Garvey.Conclusion.(2).1080p.10bit.BluRay.AAC5.1.HEVC-Vyndros.mkv (923.5 MB)
  • The.Blacklist.S05E20.Nicholas.T.Moore.1080p.10bit.BluRay.AAC5.1.HEVC-Vyndros.mkv (1,006.1 MB)
  • The.Blacklist.S05E21.Lawrence.Dane.Devlin.1080p.10bit.BluRay.AAC5.1.HEVC-Vyndros.mkv (1.2 GB)
  • The.Blacklist.S05E22.Sutton.Ross.1080p.10bit.BluRay.AAC5.1.HEVC-Vyndros.mkv (968.3 MB)

Mediainfo

General
Format : Matroska
Format version : Version 4 / Version 2
File size : 980 MiB
Duration : 43 min 4 s
Overall bit rate : 3 181 kb/s
Encoded date : UTC 2019-11-01 07:52:38
Writing application : mkvmerge v20.0.0 ('I Am The Sun') 64-bit
Writing library : libebml v1.3.5 + libmatroska v1.4.8
Writing frontend : StaxRip v1.7.0.6

Video
ID : 1
Format : HEVC
Format/Info : High Efficiency Video Coding
Format profile : Main [email protected]@Main
Codec ID : V_MPEGH/ISO/HEVC
Duration : 43 min 4 s
Bit rate : 2 687 kb/s
Width : 1 920 pixels
Height : 1 080 pixels
Display aspect ratio : 16:9
Frame rate mode : Constant
Frame rate : 23.976 (24000/1001) FPS
Color space : YUV
Chroma subsampling : 4:2:0
Bit depth : 10 bits
Bits/(Pixel*Frame) : 0.054
Stream size : 828 MiB (84%)
Writing library : x265 3.1+5-9c5c9cef2a86:[Windows][MSVC 1921][64 bit] 10bit
Encoding settings : cpuid=1111039 / frame-threads=2 / numa-pools=4 / wpp / no-pmode / no-pme / no-psnr / ssim / log-level=2 / input-csp=1 / input-res=1920x1080 / interlace=0 / total-frames=61973 / level-idc=0 / high-tier=1 / uhd-bd=0 / ref=3 / no-allow-non-conformance / no-repeat-headers / annexb / no-aud / no-hrd / info / hash=0 / no-temporal-layers / open-gop / min-keyint=23 / keyint=250 / gop-lookahead=0 / bframes=8 / b-adapt=2 / b-pyramid / bframe-bias=0 / rc-lookahead=80 / lookahead-slices=6 / scenecut=40 / radl=0 / no-splice / no-intra-refresh / ctu=64 / min-cu-size=8 / no-rect / no-amp / max-tu-size=32 / tu-inter-depth=1 / tu-intra-depth=1 / limit-tu=0 / rdoq-level=0 / dynamic-rd=0.00 / no-ssim-rd / signhide / no-tskip / nr-intra=0 / nr-inter=0 / no-constrained-intra / no-strong-intra-smoothing / max-merge=3 / limit-refs=1 / no-limit-modes / me=3 / subme=5 / merange=57 / temporal-mvp / weightp / no-weightb / no-analyze-src-pics / deblock=0:0 / sao / no-sao-non-deblock / rd=3 / early-skip / no-rskip / no-fast-intra / no-tskip-fast / no-cu-lossless / b-intra / no-splitrd-skip / rdpenalty=0 / psy-rd=2.00 / psy-rdoq=0.00 / no-rd-refine / no-lossless / cbqpoffs=0 / crqpoffs=0 / rc=crf / crf=20.0 / qcomp=0.60 / qpstep=4 / stats-write=0 / stats-read=0 / ipratio=1.40 / pbratio=1.30 / aq-mode=3 / aq-strength=1.00 / cutree / zone-count=0 / no-strict-cbr / qg-size=32 / no-rc-grain / qpmax=69 / qpmin=0 / no-const-vbv / sar=0 / overscan=0 / videoformat=5 / range=0 / colorprim=2 / transfer=2 / colormatrix=2 / chromaloc=0 / display-window=0cll=0,0 / min-luma=0 / max-luma=1023 / log2-max-poc-lsb=8 / vui-timing-info / vui-hrd-info / slices=1 / no-opt-qp-pps / no-opt-ref-list-length-pps / no-multi-pass-opt-rps / scenecut-bias=0.05 / no-opt-cu-delta-qp / no-aq-motion / no-hdr / no-hdr-opt / no-dhdr10-opt / no-idr-recovery-sei / analysis-reuse-level=5 / scale-factor=0 / refine-intra=0 / refine-inter=0 / refine-mv=0 / refine-ctu-distortion=0 / no-limit-sao / ctu-info=0 / no-lowpass-dct / refine-analysis-type=0 / copy-pic=1 / max-ausize-factor=1.0 / no-dynamic-refine / no-single-sei / no-hevc-aq / no-svt / no-field / qp-adaptation-range=1.00
Default : Yes
Forced : No

Audio
ID : 2
Format : AAC
Format/Info : Advanced Audio Codec
Format profile : LC
Codec ID : A_AAC
Duration : 43 min 4 s
Bit rate : 448 kb/s
Channel(s) : 6 channels
Channel positions : Front: L C R, Side: L R, LFE
Sampling rate : 48.0 kHz
Frame rate : 46.875 FPS (1024 spf)
Compression mode : Lossy
Stream size : 138 MiB (14%)
Language : English
Default : Yes
Forced : No

Subtitle #1
ID : 3
Format : PGS
Muxing mode : zlib
Codec ID : S_HDMV/PGS
Codec ID/Info : Picture based subtitle format used on BDs/HD-DVDs
Duration : 42 min 16 s
Bit rate : 50.6 kb/s
Count of elements : 1315
Stream size : 15.3 MiB (2%)
Language : English
Default : No
Forced : No

Subtitle #2
ID : 4
Format : PGS
Muxing mode : zlib
Codec ID : S_HDMV/PGS
Codec ID/Info : Picture based subtitle format used on BDs/HD-DVDs
Duration : 42 min 26 s
Bit rate : 52.7 kb/s
Count of elements : 1421
Stream size : 16.0 MiB (2%)
Language : English
Default : No
Forced : No

Screens

Download

Download: Google Drive

Season 6

The Blacklist (2013) Season 6 S06 (1080p BluRay x265 HEVC 10bit AAC 5.1 Vyndros)

Files

  • The.Blacklist.S06E01.Dr.Hans.Koehler.1080p.10bit.BluRay.AAC5.1.HEVC-Vyndros.mkv (1,008.0 MB)
  • The.Blacklist.S06E02.The.Corsican.1080p.10bit.BluRay.AAC5.1.HEVC-Vyndros.mkv (908.6 MB)
  • The.Blacklist.S06E03.The.Pharmacist.1080p.10bit.BluRay.AAC5.1.HEVC-Vyndros.mkv (856.9 MB)
  • The.Blacklist.S06E04.The.Pawnbrokers.1080p.10bit.BluRay.AAC5.1.HEVC-Vyndros.mkv (881.8 MB)
  • The.Blacklist.S06E05.Alter.Ego.1080p.10bit.BluRay.AAC5.1.HEVC-Vyndros.mkv (846.2 MB)
  • The.Blacklist.S06E06.The.Ethicist.1080p.10bit.BluRay.AAC5.1.HEVC-Vyndros.mkv (755.0 MB)
  • The.Blacklist.S06E07.General.Shiro.1080p.10bit.BluRay.AAC5.1.HEVC-Vyndros.mkv (865.8 MB)
  • The.Blacklist.S06E08.Marko.Jankowics.1080p.10bit.BluRay.AAC5.1.HEVC-Vyndros.mkv (752.1 MB)
  • The.Blacklist.S06E09.Minister.D.1080p.10bit.BluRay.AAC5.1.HEVC-Vyndros.mkv (803.4 MB)
  • The.Blacklist.S06E10.The.Cryptobanker.1080p.10bit.BluRay.AAC5.1.HEVC-Vyndros.mkv (979.7 MB)
  • The.Blacklist.S06E11.Bastien.Moreau.(1).1080p.10bit.BluRay.AAC5.1.HEVC-Vyndros.mkv (822.5 MB)
  • The.Blacklist.S06E12.Bastien.Moreau.Conclusion.(2).1080p.10bit.BluRay.AAC5.1.HEVC-Vyndros.mkv (812.9 MB)
  • The.Blacklist.S06E13.Robert.Vesco.1080p.10bit.BluRay.AAC5.1.HEVC-Vyndros.mkv (974.9 MB)
  • The.Blacklist.S06E14.The.Osterman.Umbrella.Company.1080p.10bit.BluRay.AAC5.1.HEVC-Vyndros.mkv (1,003.0 MB)
  • The.Blacklist.S06E15.Olivia.Olson.1080p.10bit.BluRay.AAC5.1.HEVC-Vyndros.mkv (929.8 MB)
  • The.Blacklist.S06E16.Lady.Luck.1080p.10bit.BluRay.AAC5.1.HEVC-Vyndros.mkv (967.7 MB)
  • The.Blacklist.S06E17.The.Third.Estate.1080p.10bit.BluRay.AAC5.1.HEVC-Vyndros.mkv (1.1 GB)
  • The.Blacklist.S06E18.The.Brockton.College.Killer.1080p.10bit.BluRay.AAC5.1.HEVC-Vyndros.mkv (910.8 MB)
  • The.Blacklist.S06E19.Rassvet.1080p.10bit.BluRay.AAC5.1.HEVC-Vyndros.mkv (977.4 MB)
  • The.Blacklist.S06E20.Guillermo.Rizal.1080p.10bit.BluRay.AAC5.1.HEVC-Vyndros.mkv (1,008.6 MB)
  • The.Blacklist.S06E21.Anna.McMahon.1080p.10bit.BluRay.AAC5.1.HEVC-Vyndros.mkv (930.8 MB)
  • The.Blacklist.S06E22.Robert.Diaz.1080p.10bit.BluRay.AAC5.1.HEVC-Vyndros.mkv (1.0 GB)

Mediainfo

General
Format : Matroska
Format version : Version 4 / Version 2
File size : 882 MiB
Duration : 42 min 56 s
Overall bit rate : 2 871 kb/s
Movie name : The Blacklist - S06E04 - The Pawnbrokers
Encoded date : UTC 2019-10-24 22:59:54
Writing application : mkvmerge v20.0.0 ('I Am The Sun') 64-bit
Writing library : libebml v1.3.5 + libmatroska v1.4.8
Writing frontend : StaxRip v1.7.0.6

Video
ID : 1
Format : HEVC
Format/Info : High Efficiency Video Coding
Format profile : Main [email protected]@Main
Codec ID : V_MPEGH/ISO/HEVC
Duration : 42 min 56 s
Bit rate : 2 376 kb/s
Width : 1 920 pixels
Height : 1 080 pixels
Display aspect ratio : 16:9
Frame rate mode : Constant
Frame rate : 23.976 (24000/1001) FPS
Color space : YUV
Chroma subsampling : 4:2:0
Bit depth : 10 bits
Bits/(Pixel*Frame) : 0.048
Stream size : 730 MiB (83%)
Writing library : x265 3.1+5-9c5c9cef2a86:[Windows][MSVC 1921][64 bit] 10bit
Encoding settings : cpuid=1111039 / frame-threads=2 / numa-pools=4 / wpp / no-pmode / no-pme / no-psnr / ssim / log-level=2 / input-csp=1 / input-res=1920x1080 / interlace=0 / total-frames=61776 / level-idc=0 / high-tier=1 / uhd-bd=0 / ref=3 / no-allow-non-conformance / no-repeat-headers / annexb / no-aud / no-hrd / info / hash=0 / no-temporal-layers / open-gop / min-keyint=23 / keyint=250 / gop-lookahead=0 / bframes=8 / b-adapt=2 / b-pyramid / bframe-bias=0 / rc-lookahead=80 / lookahead-slices=6 / scenecut=40 / radl=0 / no-splice / no-intra-refresh / ctu=64 / min-cu-size=8 / no-rect / no-amp / max-tu-size=32 / tu-inter-depth=1 / tu-intra-depth=1 / limit-tu=0 / rdoq-level=0 / dynamic-rd=0.00 / no-ssim-rd / signhide / no-tskip / nr-intra=0 / nr-inter=0 / no-constrained-intra / no-strong-intra-smoothing / max-merge=3 / limit-refs=1 / no-limit-modes / me=3 / subme=5 / merange=57 / temporal-mvp / weightp / no-weightb / no-analyze-src-pics / deblock=0:0 / sao / no-sao-non-deblock / rd=3 / early-skip / no-rskip / no-fast-intra / no-tskip-fast / no-cu-lossless / b-intra / no-splitrd-skip / rdpenalty=0 / psy-rd=2.00 / psy-rdoq=0.00 / no-rd-refine / no-lossless / cbqpoffs=0 / crqpoffs=0 / rc=crf / crf=20.0 / qcomp=0.60 / qpstep=4 / stats-write=0 / stats-read=0 / ipratio=1.40 / pbratio=1.30 / aq-mode=3 / aq-strength=1.00 / cutree / zone-count=0 / no-strict-cbr / qg-size=32 / no-rc-grain / qpmax=69 / qpmin=0 / no-const-vbv / sar=0 / overscan=0 / videoformat=5 / range=0 / colorprim=2 / transfer=2 / colormatrix=2 / chromaloc=0 / display-window=0cll=0,0 / min-luma=0 / max-luma=1023 / log2-max-poc-lsb=8 / vui-timing-info / vui-hrd-info / slices=1 / no-opt-qp-pps / no-opt-ref-list-length-pps / no-multi-pass-opt-rps / scenecut-bias=0.05 / no-opt-cu-delta-qp / no-aq-motion / no-hdr / no-hdr-opt / no-dhdr10-opt / no-idr-recovery-sei / analysis-reuse-level=5 / scale-factor=0 / refine-intra=0 / refine-inter=0 / refine-mv=0 / refine-ctu-distortion=0 / no-limit-sao / ctu-info=0 / no-lowpass-dct / refine-analysis-type=0 / copy-pic=1 / max-ausize-factor=1.0 / no-dynamic-refine / no-single-sei / no-hevc-aq / no-svt / no-field / qp-adaptation-range=1.00
Default : Yes
Forced : No

Audio
ID : 2
Format : AAC
Format/Info : Advanced Audio Codec
Format profile : LC
Codec ID : A_AAC
Duration : 42 min 56 s
Bit rate : 449 kb/s
Channel(s) : 6 channels
Channel positions : Front: L C R, Side: L R, LFE
Sampling rate : 48.0 kHz
Frame rate : 46.875 FPS (1024 spf)
Compression mode : Lossy
Stream size : 138 MiB (16%)
Language : English
Default : Yes
Forced : No

Subtitle #1
ID : 3
Format : PGS
Muxing mode : zlib
Codec ID : S_HDMV/PGS
Codec ID/Info : Picture based subtitle format used on BDs/HD-DVDs
Duration : 2 s 377 ms
Bit rate : 57.8 kb/s
Count of elements : 4
Stream size : 16.8 KiB (0%)
Language : English
Default : No
Forced : Yes

Subtitle #2
ID : 4
Format : PGS
Muxing mode : zlib
Codec ID : S_HDMV/PGS
Codec ID/Info : Picture based subtitle format used on BDs/HD-DVDs
Duration : 41 min 22 s
Bit rate : 50.3 kb/s
Count of elements : 1338
Stream size : 14.9 MiB (2%)
Language : English
Default : No
Forced : No

Subtitle #3
ID : 5
Format : PGS
Muxing mode : zlib
Codec ID : S_HDMV/PGS
Codec ID/Info : Picture based subtitle format used on BDs/HD-DVDs
Duration : 42 min 18 s
Bit rate : 53.6 kb/s
Count of elements : 1522
Stream size : 16.2 MiB (2%)
Language : English
Default : No
Forced : No

Screens

Download

Download: Google Drive

Season 7

The Blacklist (2013) Season 7 S07 (1080p AMZN WEB-DL x265 HEVC 10bit AAC 5.1 Vyndros)

Files

  • The.Blacklist.S07E01.Louis.T.Steinhil.(1).1080p.10bit.AMZN.WEB-DL.AAC5.1.HEVC-Vyndros.mkv (914.9 MB)
  • The.Blacklist.S07E02.Louis.T.Steinhil.Conclusion.(2).1080p.10bit.AMZN.WEB-DL.AAC5.1.HEVC-Vyndros.mkv (912.1 MB)
  • The.Blacklist.S07E03.Les.Fleurs.du.Mal.1080p.10bit.AMZN.WEB-DL.AAC5.1.HEVC-Vyndros.mkv (781.7 MB)
  • The.Blacklist.S07E04.Kuwait.1080p.10bit.AMZN.WEB-DL.DDP5.1.HEVC-Vyndros.mkv (797.4 MB)
  • The.Blacklist.S07E05.Norman.Devane.1080p.10bit.AMZN.WEB-DL.AAC5.1.HEVC-Vyndros.mkv (721.8 MB)
  • The.Blacklist.S07E06.Dr.Lewis.Powell.1080p.10bit.AMZN.WEB-DL.AAC5.1.HEVC-Vyndros.mkv (794.3 MB)
  • The.Blacklist.S07E07.Hannah.Hayes.1080p.10bit.AMZN.WEB-DL.AAC5.1.HEVC-Vyndros.mkv (879.2 MB)
  • The.Blacklist.S07E08.The.Hawaladar.1080p.10bit.AMZN.WEB-DL.AAC5.1.HEVC-Vyndros.mkv (791.2 MB)
  • The.Blacklist.S07E09.Orion.Relocation.Services.1080p.10bit.AMZN.WEB-DL.AAC5.1.HEVC-Vyndros.mkv (681.5 MB)
  • The.Blacklist.S07E10.Katarina.Rostova.1080p.10bit.AMZN.WEB-DL.AAC5.1.HEVC-Vyndros.mkv (722.8 MB)
  • The.Blacklist.S07E11.Victoria.Fenberg.1080p.10bit.AMZN.WEB-DL.AAC5.1.HEVC-Vyndros.mkv (758.6 MB)
  • The.Blacklist.S07E12.Cornelius.Ruck.1080p.10bit.AMZN.WEB-DL.AAC5.1.HEVC-Vyndros.mkv (624.1 MB)
  • The.Blacklist.S07E13.Newton.Purcell.1080p.10bit.AMZN.WEB-DL.AAC5.1.HEVC-Vyndros.mkv (725.2 MB)
  • The.Blacklist.S07E14.Twamie.Ullulaq.1080p.10bit.AMZN.WEB-DL.AAC5.1.HEVC-Vyndros.mkv (882.3 MB)
  • The.Blacklist.S07E15.Gordon.Kemp.1080p.10bit.AMZN.WEB-DL.AAC5.1.HEVC-Vyndros.mkv (722.8 MB)
  • The.Blacklist.S07E16.Nyle.Hatcher.1080p.10bit.AMZN.WEB-DL.AAC5.1.HEVC-Vyndros.mkv (690.8 MB)
  • The.Blacklist.S07E17.Brothers.1080p.10bit.AMZN.WEB-DL.AAC5.1.HEVC-Vyndros.mkv (682.2 MB)
  • The.Blacklist.S07E18.Roy.Cain.1080p.10bit.AMZN.WEB-DL.AAC5.1.HEVC-Vyndros.mkv (630.1 MB)
  • The.Blacklist.S07E19.The.Kazanjian.Brothers.1080p.10bit.AMZN.WEB-DL.AAC5.1.HEVC-Vyndros.mkv (1.2 GB)

Mediainfo

General
Format : Matroska
Format version : Version 4 / Version 2
File size : 1.19 GiB
Duration : 42 min 55 s
Overall bit rate : 3 978 kb/s
Encoded date : UTC 2020-05-16 15:08:19
Writing application : mkvmerge v20.0.0 ('I Am The Sun') 64-bit
Writing library : libebml v1.3.5 + libmatroska v1.4.8
Writing frontend : StaxRip v1.7.0.6

Video
ID : 1
Format : HEVC
Format/Info : High Efficiency Video Coding
Format profile : Main [email protected]@Main
Codec ID : V_MPEGH/ISO/HEVC
Duration : 42 min 55 s
Bit rate : 3 510 kb/s
Width : 1 920 pixels
Height : 1 080 pixels
Display aspect ratio : 16:9
Frame rate mode : Constant
Frame rate : 23.976 (24000/1001) FPS
Color space : YUV
Chroma subsampling : 4:2:0
Bit depth : 10 bits
Bits/(Pixel*Frame) : 0.071
Stream size : 1.05 GiB (88%)
Writing library : x265 3.3+1-g554c887ac:[Windows][MSVC 1924][64 bit] 10bit
Encoding settings : cpuid=1111039 / frame-threads=3 / numa-pools=12 / wpp / no-pmode / no-pme / no-psnr / ssim / log-level=2 / input-csp=1 / input-res=1920x1080 / interlace=0 / total-frames=61755 / level-idc=0 / high-tier=1 / uhd-bd=0 / ref=3 / no-allow-non-conformance / no-repeat-headers / annexb / no-aud / no-hrd / info / hash=0 / no-temporal-layers / open-gop / min-keyint=23 / keyint=250 / gop-lookahead=0 / bframes=8 / b-adapt=2 / b-pyramid / bframe-bias=0 / rc-lookahead=80 / lookahead-slices=6 / scenecut=40 / hist-scenecut=0 / radl=0 / no-splice / no-intra-refresh / ctu=64 / min-cu-size=8 / no-rect / no-amp / max-tu-size=32 / tu-inter-depth=1 / tu-intra-depth=1 / limit-tu=0 / rdoq-level=0 / dynamic-rd=0.00 / no-ssim-rd / signhide / no-tskip / nr-intra=0 / nr-inter=0 / no-constrained-intra / no-strong-intra-smoothing / max-merge=3 / limit-refs=1 / no-limit-modes / me=3 / subme=5 / merange=57 / temporal-mvp / no-frame-dup / no-hme / weightp / no-weightb / no-analyze-src-pics / deblock=0:0 / sao / no-sao-non-deblock / rd=3 / selective-sao=4 / early-skip / no-rskip / no-fast-intra / no-tskip-fast / no-cu-lossless / b-intra / no-splitrd-skip / rdpenalty=0 / psy-rd=2.00 / psy-rdoq=0.00 / no-rd-refine / no-lossless / cbqpoffs=0 / crqpoffs=0 / rc=crf / crf=20.0 / qcomp=0.60 / qpstep=4 / stats-write=0 / stats-read=0 / ipratio=1.40 / pbratio=1.30 / aq-mode=3 / aq-strength=0.80 / cutree / zone-count=0 / no-strict-cbr / qg-size=32 / no-rc-grain / qpmax=69 / qpmin=0 / no-const-vbv / sar=0 / overscan=0 / videoformat=5 / range=0 / colorprim=2 / transfer=2 / colormatrix=2 / chromaloc=0 / display-window=0 / cll=0,0 / min-luma=0 / max-luma=1023 / log2-max-poc-lsb=8 / vui-timing-info / vui-hrd-info / slices=1 / no-opt-qp-pps / no-opt-ref-list-length-pps / no-multi-pass-opt-rps / scenecut-bias=0.05 / hist-threshold=0.01 / no-opt-cu-delta-qp / no-aq-motion / no-hdr10 / no-hdr10-opt / no-dhdr10-opt / no-idr-recovery-sei / analysis-reuse-level=0 / analysis-save-reuse-level=0 / analysis-load-reuse-level=0 / scale-factor=0 / refine-intra=0 / refine-inter=0 / refine-mv=1 / refine-ctu-distortion=0 / no-limit-sao / ctu-info=0 / no-lowpass-dct / refine-analysis-type=0 / copy-pic=1 / max-ausize-factor=1.0 / no-dynamic-refine / no-single-sei / no-hevc-aq / no-svt / no-field / qp-adaptation-range=1.00 / no-scenecut-aware-qpconformance-window-offsets / right=0 / bottom=0
Default : Yes
Forced : No

Audio
ID : 2
Format : AAC
Format/Info : Advanced Audio Codec
Format profile : LC
Codec ID : A_AAC
Duration : 42 min 55 s
Bit rate : 466 kb/s
Channel(s) : 6 channels
Channel positions : Front: L C R, Side: L R, LFE
Sampling rate : 48.0 kHz
Frame rate : 46.875 FPS (1024 spf)
Compression mode : Lossy
Delay relative to video : 20 ms
Stream size : 143 MiB (12%)
Language : English
Default : Yes
Forced : Yes

Subtitle
ID : 3
Format : UTF-8
Codec ID : S_TEXT/UTF8
Codec ID/Info : UTF-8 Plain Text
Duration : 42 min 20 s
Bit rate : 100 b/s
Count of elements : 955
Stream size : 31.2 KiB (0%)
Language : English
Default : No
Forced : No

Screens

Download

Download: Google Drive

13 thoughts on “The Blacklist (2013) Season 1-7 (1080p Mixed x265 HEVC 10bit AAC 5.1 Vyndros)

  1. Unable to download any of the files completely. Always says “file error” after 2 GB. This is for all files.

      1. No, I can’t use IDM as I’m using MAC OS. Any other fixes you can suggest? The quota exceeded fix isn’t able to copy the whole file.

        1. Don’t have idea about softwares on Mac. Look for some download managers.
          Any that can resume and refresh the download links will do the job.

          1. Hey again admin. I have a found a fix for Mac users. Download the .dlc container from filecrypt, and use jdownloader to download the files.

Leave a Reply