Supergirl (2015) Season 1-5 (1080p Mixed x265 HEVC 10bit AAC 5.1 Vyndros)

Plot: As Superman’s cousin, Kara Danvers, also known as Supergirl, balances her work as a reporter for CatCo Worldwide Media with her work for the Department of Extra-Normal Operations, a super-secret government organization whose mission is to keep National City – and the Earth – safe from sinister threats.

Season 1

Supergirl (2015) Season 1 S01 (1080p BluRay x265 HEVC 10bit AAC 5.1 Vyndros)

Files

  • Supergirl.S01E01.Pilot.1080p.10bit.BluRay.AAC5.1.HEVC-Vyndros.mkv (1.2 GB)
  • Supergirl.S01E02.Stronger.Together.1080p.10bit.BluRay.AAC5.1.HEVC-Vyndros.mkv (1.1 GB)
  • Supergirl.S01E03.Fight.or.Flight.1080p.10bit.BluRay.AAC5.1.HEVC-Vyndros.mkv (1.1 GB)
  • Supergirl.S01E04.Livewire.1080p.10bit.BluRay.AAC5.1.HEVC-Vyndros.mkv (1.2 GB)
  • Supergirl.S01E05.How.Does.She.Do.It.1080p.10bit.BluRay.AAC5.1.HEVC-Vyndros.mkv (1.1 GB)
  • Supergirl.S01E06.Red.Faced.1080p.10bit.BluRay.AAC5.1.HEVC-Vyndros.mkv (1.1 GB)
  • Supergirl.S01E07.Human.for.a.Day.1080p.10bit.BluRay.AAC5.1.HEVC-Vyndros.mkv (1,015.6 MB)
  • Supergirl.S01E08.Hostile.Takeover.1080p.10bit.BluRay.AAC5.1.HEVC-Vyndros.mkv (1,013.6 MB)
  • Supergirl.S01E09.Blood.Bonds.1080p.10bit.BluRay.AAC5.1.HEVC-Vyndros.mkv (1.0 GB)
  • Supergirl.S01E10.Childish.Things.1080p.10bit.BluRay.AAC5.1.HEVC-Vyndros.mkv (961.3 MB)
  • Supergirl.S01E11.Strange.Visitor.From.Another.Planet.1080p.10bit.BluRay.AAC5.1.HEVC-Vyndros.mkv (1.0 GB)
  • Supergirl.S01E12.Bizarro.1080p.10bit.BluRay.AAC5.1.HEVC-Vyndros.mkv (1.0 GB)
  • Supergirl.S01E13.For.the.Girl.Who.Has.Everything.1080p.10bit.BluRay.AAC5.1.HEVC-Vyndros.mkv (960.7 MB)
  • Supergirl.S01E14.Truth,.Justice.and.the.American.Way.1080p.10bit.BluRay.AAC5.1.HEVC-Vyndros.mkv (1.0 GB)
  • Supergirl.S01E15.Solitude.1080p.10bit.BluRay.AAC5.1.HEVC-Vyndros.mkv (1.1 GB)
  • Supergirl.S01E16.Falling.1080p.10bit.BluRay.AAC5.1.HEVC-Vyndros.mkv (1.1 GB)
  • Supergirl.S01E17.Manhunter.1080p.10bit.BluRay.AAC5.1.HEVC-Vyndros.mkv (1.0 GB)
  • Supergirl.S01E18.Worlds.Finest.1080p.10bit.BluRay.AAC5.1.HEVC-Vyndros.mkv (1.2 GB)
  • Supergirl.S01E19.Myriad.1080p.10bit.BluRay.AAC5.1.HEVC-Vyndros.mkv (1,001.8 MB)
  • Supergirl.S01E20.Better.Angels.1080p.10bit.BluRay.AAC5.1.HEVC-Vyndros.mkv (962.6 MB)

Mediainfo

General
Format : Matroska
Format version : Version 4 / Version 2
File size : 1.02 GiB
Duration : 43 min 51 s
Overall bit rate : 3 333 kb/s
Encoded date : UTC 2018-06-14 19:37:16
Writing application : mkvmerge v20.0.0 ('I Am The Sun') 64-bit
Writing library : libebml v1.3.5 + libmatroska v1.4.8
Writing frontend : StaxRip v1.7.0.6

Video
ID : 1
Format : HEVC
Format/Info : High Efficiency Video Coding
Format profile : Main [email protected]@Main
Codec ID : V_MPEGH/ISO/HEVC
Duration : 43 min 51 s
Bit rate : 2 870 kb/s
Width : 1 920 pixels
Height : 1 080 pixels
Display aspect ratio : 16:9
Frame rate mode : Constant
Frame rate : 23.976 (24000/1001) FPS
Color space : YUV
Chroma subsampling : 4:2:0
Bit depth : 10 bits
Bits/(Pixel*Frame) : 0.058
Stream size : 901 MiB (86%)
Writing library : x265 2.8+19-bcdc610cf5f0:[Windows][GCC 7.3.0][64 bit] 10bit
Encoding settings : cpuid=1111039 / frame-threads=3 / numa-pools=12 / wpp / no-pmode / no-pme / no-psnr / ssim / log-level=2 / input-csp=1 / input-res=1920x1080 / interlace=0 / total-frames=63103 / level-idc=0 / high-tier=1 / uhd-bd=0 / ref=3 / no-allow-non-conformance / no-repeat-headers / annexb / no-aud / no-hrd / info / hash=0 / no-temporal-layers / open-gop / min-keyint=23 / keyint=250 / gop-lookahead=0 / bframes=8 / b-adapt=2 / b-pyramid / bframe-bias=0 / rc-lookahead=50 / lookahead-slices=6 / scenecut=40 / radl=0 / no-intra-refresh / ctu=64 / min-cu-size=8 / no-rect / no-amp / max-tu-size=32 / tu-inter-depth=1 / tu-intra-depth=1 / limit-tu=0 / rdoq-level=0 / dynamic-rd=0.00 / no-ssim-rd / signhide / no-tskip / nr-intra=0 / nr-inter=0 / no-constrained-intra / no-strong-intra-smoothing / max-merge=3 / limit-refs=3 / no-limit-modes / me=3 / subme=3 / merange=57 / temporal-mvp / weightp / no-weightb / no-analyze-src-pics / deblock=0:0 / sao / no-sao-non-deblock / rd=3 / no-early-skip / no-rskip / no-fast-intra / no-tskip-fast / no-cu-lossless / no-b-intra / no-splitrd-skip / rdpenalty=0 / psy-rd=2.00 / psy-rdoq=0.00 / no-rd-refine / no-lossless / cbqpoffs=0 / crqpoffs=0 / rc=crf / crf=20.0 / qcomp=0.60 / qpstep=4 / stats-write=0 / stats-read=0 / ipratio=1.40 / pbratio=1.30 / aq-mode=3 / aq-strength=1.00 / cutree / zone-count=0 / no-strict-cbr / qg-size=32 / no-rc-grain / qpmax=69 / qpmin=0 / no-const-vbv / sar=0 / overscan=0 / videoformat=5 / range=0 / colorprim=2 / transfer=2 / colormatrix=2 / chromaloc=0 / display-window=0 / max-cll=0,0 / min-luma=0 / max-luma=1023 / log2-max-poc-lsb=8 / vui-timing-info / vui-hrd-info / slices=1 / no-opt-qp-pps / no-opt-ref-list-length-pps / no-multi-pass-opt-rps / scenecut-bias=0.05 / no-opt-cu-delta-qp / no-aq-motion / no-hdr / no-hdr-opt / no-dhdr10-opt / no-idr-recovery-sei / analysis-reuse-level=5 / scale-factor=0 / refine-intra=0 / refine-inter=0 / refine-mv=0 / no-limit-sao / ctu-info=0 / no-lowpass-dct / refine-mv-type=0 / copy-pic=1 / max-ausize-factor=1.0 / no-dynamic-refine / no-single-sei
Default : Yes
Forced : No

Audio
ID : 2
Format : AAC
Format/Info : Advanced Audio Codec
Format profile : LC
Codec ID : A_AAC
Duration : 43 min 51 s
Bit rate : 446 kb/s
Channel(s) : 6 channels
Channel positions : Front: L C R, Side: L R, LFE
Sampling rate : 48.0 kHz
Frame rate : 46.875 FPS (1024 spf)
Compression mode : Lossy
Stream size : 140 MiB (13%)
Language : English
Default : Yes
Forced : Yes

Subtitle
ID : 3
Format : PGS
Muxing mode : zlib
Codec ID : S_HDMV/PGS
Codec ID/Info : Picture based subtitle format used on BDs/HD-DVDs
Duration : 43 min 46 s
Bit rate : 47.0 kb/s
Count of elements : 1442
Stream size : 14.7 MiB (1%)
Language : English
Default : No
Forced : No

Download

Download: Google Drive

Season 2

Supergirl (2015) Season 2 S02 (1080p BluRay x265 HEVC 10bit AAC 5.1 Vyndros)

Files

  • Supergirl.S02E01.The.Adventures.of.Supergirl.1080p.10bit.BluRay.AAC5.1.HEVC-Vyndros.mkv (1.1 GB)
  • Supergirl.S02E02.The.Last.Children.of.Krypton.1080p.10bit.BluRay.AAC5.1.HEVC-Vyndros.mkv (1.1 GB)
  • Supergirl.S02E03.Welcome.to.Earth.1080p.10bit.BluRay.AAC5.1.HEVC-Vyndros.mkv (999.2 MB)
  • Supergirl.S02E04.Survivors.1080p.10bit.BluRay.AAC5.1.HEVC-Vyndros.mkv (921.5 MB)
  • Supergirl.S02E05.Crossfire.1080p.10bit.BluRay.AAC5.1.HEVC-Vyndros.mkv (1.1 GB)
  • Supergirl.S02E06.Changing.1080p.10bit.BluRay.AAC5.1.HEVC-Vyndros.mkv (997.8 MB)
  • Supergirl.S02E07.The.Darkest.Place.1080p.10bit.BluRay.AAC5.1.HEVC-Vyndros.mkv (904.5 MB)
  • Supergirl.S02E08.Medusa.(1).1080p.10bit.BluRay.AAC5.1.HEVC-Vyndros.mkv (948.4 MB)
  • Supergirl.S02E09.Supergirl.Lives.1080p.10bit.BluRay.AAC5.1.HEVC-Vyndros.mkv (1.1 GB)
  • Supergirl.S02E10.We.Can.Be.Heroes.1080p.10bit.BluRay.AAC5.1.HEVC-Vyndros.mkv (948.3 MB)
  • Supergirl.S02E11.The.Martian.Chronicles.1080p.10bit.BluRay.AAC5.1.HEVC-Vyndros.mkv (881.5 MB)
  • Supergirl.S02E12.Luthors.1080p.10bit.BluRay.AAC5.1.HEVC-Vyndros.mkv (879.4 MB)
  • Supergirl.S02E13.Mr.&.Mrs.Mxyzptlk.1080p.10bit.BluRay.AAC5.1.HEVC-Vyndros.mkv (938.2 MB)
  • Supergirl.S02E14.Homecoming.1080p.10bit.BluRay.AAC5.1.HEVC-Vyndros.mkv (916.4 MB)
  • Supergirl.S02E15.Exodus.1080p.10bit.BluRay.AAC5.1.HEVC-Vyndros.mkv (923.3 MB)

Mediainfo

General
Format : Matroska
Format version : Version 4 / Version 2
File size : 1.13 GiB
Duration : 42 min 27 s
Overall bit rate : 3 816 kb/s
Encoded date : UTC 2018-07-04 08:07:01
Writing application : mkvmerge v24.0.0 ('Beyond The Pale') 64-bit
Writing library : libebml v1.3.6 + libmatroska v1.4.9
Writing frontend : StaxRip v1.7.0.6

Video
ID : 1
Format : HEVC
Format/Info : High Efficiency Video Coding
Format profile : Main [email protected]@Main
Codec ID : V_MPEGH/ISO/HEVC
Duration : 42 min 27 s
Bit rate : 3 353 kb/s
Width : 1 920 pixels
Height : 1 080 pixels
Display aspect ratio : 16:9
Frame rate mode : Constant
Frame rate : 23.976 (24000/1001) FPS
Color space : YUV
Chroma subsampling : 4:2:0
Bit depth : 10 bits
Bits/(Pixel*Frame) : 0.067
Stream size : 1 018 MiB (88%)
Writing library : x265 2.8+19-bcdc610cf5f0:[Windows][GCC 7.3.0][64 bit] 10bit
Encoding settings : cpuid=1111039 / frame-threads=2 / numa-pools=4 / wpp / no-pmode / no-pme / no-psnr / ssim / log-level=2 / input-csp=1 / input-res=1920x1080 / interlace=0 / total-frames=61072 / level-idc=0 / high-tier=1 / uhd-bd=0 / ref=3 / no-allow-non-conformance / no-repeat-headers / annexb / no-aud / no-hrd / info / hash=0 / no-temporal-layers / open-gop / min-keyint=23 / keyint=250 / gop-lookahead=0 / bframes=8 / b-adapt=2 / b-pyramid / bframe-bias=0 / rc-lookahead=50 / lookahead-slices=6 / scenecut=40 / radl=0 / no-intra-refresh / ctu=64 / min-cu-size=8 / no-rect / no-amp / max-tu-size=32 / tu-inter-depth=1 / tu-intra-depth=1 / limit-tu=0 / rdoq-level=0 / dynamic-rd=0.00 / no-ssim-rd / signhide / no-tskip / nr-intra=0 / nr-inter=0 / no-constrained-intra / no-strong-intra-smoothing / max-merge=3 / limit-refs=3 / no-limit-modes / me=3 / subme=3 / merange=57 / temporal-mvp / weightp / no-weightb / no-analyze-src-pics / deblock=0:0 / sao / no-sao-non-deblock / rd=3 / no-early-skip / no-rskip / no-fast-intra / no-tskip-fast / no-cu-lossless / no-b-intra / no-splitrd-skip / rdpenalty=0 / psy-rd=2.00 / psy-rdoq=0.00 / no-rd-refine / no-lossless / cbqpoffs=0 / crqpoffs=0 / rc=crf / crf=20.0 / qcomp=0.60 / qpstep=4 / stats-write=0 / stats-read=0 / ipratio=1.40 / pbratio=1.30 / aq-mode=3 / aq-strength=1.00 / cutree / zone-count=0 / no-strict-cbr / qg-size=32 / no-rc-grain / qpmax=69 / qpmin=0 / no-const-vbv / sar=0 / overscan=0 / videoformat=5 / range=0 / colorprim=2 / transfer=2 / colormatrix=2 / chromaloc=0 / display-window=0 / max-cll=0,0 / min-luma=0 / max-luma=1023 / log2-max-poc-lsb=8 / vui-timing-info / vui-hrd-info / slices=1 / no-opt-qp-pps / no-opt-ref-list-length-pps / no-multi-pass-opt-rps / scenecut-bias=0.05 / no-opt-cu-delta-qp / no-aq-motion / no-hdr / no-hdr-opt / no-dhdr10-opt / no-idr-recovery-sei / analysis-reuse-level=5 / scale-factor=0 / refine-intra=0 / refine-inter=0 / refine-mv=0 / no-limit-sao / ctu-info=0 / no-lowpass-dct / refine-mv-type=0 / copy-pic=1 / max-ausize-factor=1.0 / no-dynamic-refine / no-single-sei
Default : Yes
Forced : No

Audio
ID : 2
Format : AAC
Format/Info : Advanced Audio Codec
Format profile : LC
Codec ID : A_AAC
Duration : 42 min 27 s
Bit rate : 449 kb/s
Channel(s) : 6 channels
Channel positions : Front: L C R, Side: L R, LFE
Sampling rate : 48.0 kHz
Frame rate : 46.875 FPS (1024 spf)
Compression mode : Lossy
Stream size : 136 MiB (12%)
Title : DTS-HD Master Audio _ 5.1 _ 48 kHz _ 2342 kbps _ 16-bit
Language : English
Default : Yes
Forced : No

Subtitle
ID : 3
Format : PGS
Muxing mode : zlib
Codec ID : S_HDMV/PGS
Codec ID/Info : Picture based subtitle format used on BDs/HD-DVDs
Duration : 42 min 23 s
Bit rate : 39.4 kb/s
Count of elements : 1230
Stream size : 12.0 MiB (1%)
Language : English
Default : No
Forced : No

Download

Download: Google Drive

Season 3

Supergirl (2015) Season 3 S03 (1080p BluRay x265 HEVC 10bit AAC 5.1 Vyndros)

Files

  • Supergirl.S03E01.Girl.of.Steel.1080p.10bit.BluRay.AAC5.1.HEVC-Vyndros.mkv (1,005.9 MB)
  • Supergirl.S03E02.Triggers.1080p.10bit.BluRay.AAC5.1.HEVC-Vyndros.mkv (933.1 MB)
  • Supergirl.S03E03.Far.from.the.Tree.1080p.10bit.BluRay.AAC5.1.HEVC-Vyndros.mkv (806.3 MB)
  • Supergirl.S03E04.The.Faithful.1080p.10bit.BluRay.AAC5.1.HEVC-Vyndros.mkv (782.2 MB)
  • Supergirl.S03E05.Damage.1080p.10bit.BluRay.AAC5.1.HEVC-Vyndros.mkv (796.5 MB)
  • Supergirl.S03E06.Midvale.1080p.10bit.BluRay.AAC5.1.HEVC-Vyndros.mkv (961.8 MB)
  • Supergirl.S03E07.Wake.Up.1080p.10bit.BluRay.AAC5.1.HEVC-Vyndros.mkv (788.3 MB)
  • Supergirl.S03E08.Crisis.on.Earth-X.(1).1080p.10bit.BluRay.AAC5.1.HEVC-Vyndros.mkv (980.0 MB)
  • Supergirl.S03E09.Reign.1080p.10bit.BluRay.AAC5.1.HEVC-Vyndros.mkv (997.8 MB)
  • Supergirl.S03E10.Legion.of.Super-Heroes.1080p.10bit.BluRay.AAC5.1.HEVC-Vyndros.mkv (879.3 MB)
  • Supergirl.S03E11.Fort.Rozz.1080p.10bit.BluRay.AAC5.1.HEVC-Vyndros.mkv (876.5 MB)
  • Supergirl.S03E12.For.Good.1080p.10bit.BluRay.AAC5.1.HEVC-Vyndros.mkv (812.5 MB)
  • Supergirl.S03E13.Both.Sides.Now.1080p.10bit.BluRay.AAC5.1.HEVC-Vyndros.mkv (859.7 MB)
  • Supergirl.S03E14.Schott.Through.the.Heart.1080p.10bit.BluRay.AAC5.1.HEVC-Vyndros.mkv (1,011.8 MB)
  • Supergirl.S03E15.In.Search.of.Lost.Time.1080p.10bit.BluRay.AAC5.1.HEVC-Vyndros.mkv (871.2 MB)
  • Supergirl.S03E16.Of.Two.Minds.1080p.10bit.BluRay.AAC5.1.HEVC-Vyndros.mkv (814.5 MB)
  • Supergirl.S03E17.Trinity.1080p.10bit.BluRay.AAC5.1.HEVC-Vyndros.mkv (852.1 MB)
  • Supergirl.S03E18.Shelter.from.the.Storm.1080p.10bit.BluRay.AAC5.1.HEVC-Vyndros.mkv (788.2 MB)
  • Supergirl.S03E19.The.Fanatical.1080p.10bit.BluRay.AAC5.1.HEVC-Vyndros.mkv (885.3 MB)
  • Supergirl.S03E20.Dark.Side.of.the.Moon.1080p.10bit.BluRay.AAC5.1.HEVC-Vyndros.mkv (967.7 MB)
  • Supergirl.S03E21.Not.Kansas.1080p.10bit.BluRay.AAC5.1.HEVC-Vyndros.mkv (976.3 MB)
  • Supergirl.S03E22.Make.It.Reign.1080p.10bit.BluRay.AAC5.1.HEVC-Vyndros.mkv (891.8 MB)
  • Supergirl.S03E23.Battles.Lost.and.Won.1080p.10bit.BluRay.AAC5.1.HEVC-Vyndros.mkv (885.8 MB)

Mediainfo

General
Format : Matroska
Format version : Version 4 / Version 2
File size : 892 MiB
Duration : 42 min 26 s
Overall bit rate : 2 938 kb/s
Encoded date : UTC 2018-10-15 21:59:02
Writing application : mkvmerge v20.0.0 ('I Am The Sun') 64-bit
Writing library : libebml v1.3.5 + libmatroska v1.4.8
Writing frontend : StaxRip v1.7.0.6

Video
ID : 1
Format : HEVC
Format/Info : High Efficiency Video Coding
Format profile : Main [email protected]@Main
Codec ID : V_MPEGH/ISO/HEVC
Duration : 42 min 26 s
Bit rate : 2 469 kb/s
Width : 1 920 pixels
Height : 1 080 pixels
Display aspect ratio : 16:9
Frame rate mode : Constant
Frame rate : 23.976 (24000/1001) FPS
Color space : YUV
Chroma subsampling : 4:2:0
Bit depth : 10 bits
Bits/(Pixel*Frame) : 0.050
Stream size : 749 MiB (84%)
Writing library : x265 2.9+1-169e76b6bbcc:[Windows][GCC 8.2.0][64 bit] 10bit
Encoding settings : cpuid=1111039 / frame-threads=2 / numa-pools=4 / wpp / no-pmode / no-pme / no-psnr / ssim / log-level=2 / input-csp=1 / input-res=1920x1080 / interlace=0 / total-frames=61044 / level-idc=0 / high-tier=1 / uhd-bd=0 / ref=3 / no-allow-non-conformance / no-repeat-headers / annexb / no-aud / no-hrd / info / hash=0 / no-temporal-layers / open-gop / min-keyint=23 / keyint=250 / gop-lookahead=0 / bframes=8 / b-adapt=2 / b-pyramid / bframe-bias=0 / rc-lookahead=50 / lookahead-slices=6 / scenecut=40 / radl=0 / no-intra-refresh / ctu=64 / min-cu-size=8 / no-rect / no-amp / max-tu-size=32 / tu-inter-depth=1 / tu-intra-depth=1 / limit-tu=0 / rdoq-level=0 / dynamic-rd=0.00 / no-ssim-rd / signhide / no-tskip / nr-intra=0 / nr-inter=0 / no-constrained-intra / no-strong-intra-smoothing / max-merge=3 / limit-refs=3 / no-limit-modes / me=3 / subme=5 / merange=57 / temporal-mvp / weightp / no-weightb / no-analyze-src-pics / deblock=0:0 / sao / no-sao-non-deblock / rd=3 / no-early-skip / no-rskip / no-fast-intra / no-tskip-fast / no-cu-lossless / no-b-intra / no-splitrd-skip / rdpenalty=0 / psy-rd=2.00 / psy-rdoq=0.00 / no-rd-refine / no-lossless / cbqpoffs=0 / crqpoffs=0 / rc=crf / crf=20.0 / qcomp=0.60 / qpstep=4 / stats-write=0 / stats-read=0 / ipratio=1.40 / pbratio=1.30 / aq-mode=3 / aq-strength=1.00 / cutree / zone-count=0 / no-strict-cbr / qg-size=32 / no-rc-grain / qpmax=69 / qpmin=0 / no-const-vbv / sar=0 / overscan=0 / videoformat=5 / range=0 / colorprim=2 / transfer=2 / colormatrix=2 / chromaloc=0 / display-window=0 / max-cll=0,0 / min-luma=0 / max-luma=1023 / log2-max-poc-lsb=8 / vui-timing-info / vui-hrd-info / slices=1 / no-opt-qp-pps / no-opt-ref-list-length-pps / no-multi-pass-opt-rps / scenecut-bias=0.05 / no-opt-cu-delta-qp / no-aq-motion / no-hdr / no-hdr-opt / no-dhdr10-opt / no-idr-recovery-sei / analysis-reuse-level=5 / scale-factor=0 / refine-intra=0 / refine-inter=0 / refine-mv=0 / no-limit-sao / ctu-info=0 / no-lowpass-dct / refine-mv-type=0 / copy-pic=1 / max-ausize-factor=1.0 / no-dynamic-refine / no-single-sei
Default : Yes
Forced : No

Audio
ID : 2
Format : AAC
Format/Info : Advanced Audio Codec
Format profile : LC
Codec ID : A_AAC
Duration : 42 min 26 s
Bit rate : 449 kb/s
Channel(s) : 6 channels
Channel positions : Front: L C R, Side: L R, LFE
Sampling rate : 48.0 kHz
Frame rate : 46.875 FPS (1024 spf)
Compression mode : Lossy
Stream size : 136 MiB (15%)
Language : English
Default : Yes
Forced : No

Subtitle
ID : 3
Format : PGS
Muxing mode : zlib
Codec ID : S_HDMV/PGS
Codec ID/Info : Picture based subtitle format used on BDs/HD-DVDs
Duration : 42 min 18 s
Bit rate : 44.1 kb/s
Count of elements : 1368
Stream size : 13.3 MiB (1%)
Language : English
Default : No
Forced : No

Download

Download: Google Drive

Season 4

Supergirl (2015) Season 4 S04 (1080p BluRay x265 HEVC 10bit AAC 5.1 Vyndros)

Files

  • Supergirl.S04E01.American.Alien.1080p.10bit.BluRay.AAC5.1.HEVC-Vyndros.mkv (918.2 MB)
  • Supergirl.S04E02.Fallout.1080p.10bit.BluRay.AAC5.1.HEVC-Vyndros.mkv (937.4 MB)
  • Supergirl.S04E03.Man.of.Steel.1080p.10bit.BluRay.AAC5.1.HEVC-Vyndros.mkv (1.0 GB)
  • Supergirl.S04E04.Ahimsa.1080p.10bit.BluRay.AAC5.1.HEVC-Vyndros.mkv (962.6 MB)
  • Supergirl.S04E05.Parasite.Lost.1080p.10bit.BluRay.AAC5.1.HEVC-Vyndros.mkv (1.1 GB)
  • Supergirl.S04E06.Call.to.Action.1080p.10bit.BluRay.AAC5.1.HEVC-Vyndros.mkv (1.1 GB)
  • Supergirl.S04E07.Rather.the.Fallen.Angel.1080p.10bit.BluRay.AAC5.1.HEVC-Vyndros.mkv (914.4 MB)
  • Supergirl.S04E08.Bunker.Hill.1080p.10bit.BluRay.AAC5.1.HEVC-Vyndros.mkv (1,019.3 MB)
  • Supergirl.S04E09.Elseworlds.(3).1080p.10bit.BluRay.AAC5.1.HEVC-Vyndros.mkv (1.0 GB)
  • Supergirl.S04E10.Suspicious.Minds.1080p.10bit.BluRay.AAC5.1.HEVC-Vyndros.mkv (1.0 GB)
  • Supergirl.S04E11.Blood.Memory.1080p.10bit.BluRay.AAC5.1.HEVC-Vyndros.mkv (1.1 GB)
  • Supergirl.S04E12.Menagerie.1080p.10bit.BluRay.AAC5.1.HEVC-Vyndros.mkv (1.1 GB)
  • Supergirl.S04E13.What’s.So.Funny.About.Truth,.Justice,.and.the.American.Way.1080p.10bit.BluRay.AAC5.1.HEVC-Vyndros.mkv (875.8 MB)
  • Supergirl.S04E14.Stand.and.Deliver.1080p.10bit.BluRay.AAC5.1.HEVC-Vyndros.mkv (960.5 MB)
  • Supergirl.S04E15.O.Brother,.Where.Art.Thou.1080p.10bit.BluRay.AAC5.1.HEVC-Vyndros.mkv (816.1 MB)
  • Supergirl.S04E16.The.House.of.L.1080p.10bit.BluRay.AAC5.1.HEVC-Vyndros.mkv (882.0 MB)
  • Supergirl.S04E17.All.About.Eve.1080p.10bit.BluRay.AAC5.1.HEVC-Vyndros.mkv (791.7 MB)
  • Supergirl.S04E18.Crime.and.Punishment.1080p.10bit.BluRay.AAC5.1.HEVC-Vyndros.mkv (787.2 MB)
  • Supergirl.S04E19.American.Dreamer.1080p.10bit.BluRay.AAC5.1.HEVC-Vyndros.mkv (777.2 MB)
  • Supergirl.S04E20.Will.The.Real.Miss.Tessmacher.Please.Stand.Up.1080p.10bit.BluRay.AAC5.1.HEVC-Vyndros.mkv (806.4 MB)
  • Supergirl.S04E21.Red.Dawn.1080p.10bit.BluRay.AAC5.1.HEVC-Vyndros.mkv (855.3 MB)
  • Supergirl.S04E22.The.Quest.for.Peace.1080p.10bit.BluRay.AAC5.1.HEVC-Vyndros.mkv (913.5 MB)

Mediainfo

General
Format : Matroska
Format version : Version 4 / Version 2
File size : 882 MiB
Duration : 42 min 29 s
Overall bit rate : 2 902 kb/s
Encoded date : UTC 2019-09-23 11:57:11
Writing application : mkvmerge v20.0.0 ('I Am The Sun') 64-bit
Writing library : libebml v1.3.5 + libmatroska v1.4.8
Writing frontend : StaxRip v1.7.0.6

Video
ID : 1
Format : HEVC
Format/Info : High Efficiency Video Coding
Format profile : Main [email protected]@Main
Codec ID : V_MPEGH/ISO/HEVC
Duration : 42 min 29 s
Bit rate : 2 440 kb/s
Width : 1 920 pixels
Height : 1 080 pixels
Display aspect ratio : 16:9
Frame rate mode : Constant
Frame rate : 23.976 (24000/1001) FPS
Color space : YUV
Chroma subsampling : 4:2:0
Bit depth : 10 bits
Bits/(Pixel*Frame) : 0.049
Stream size : 742 MiB (84%)
Writing library : x265 3.1.2+1-76650bab70f9:[Windows][MSVC 1922][64 bit] 10bit
Encoding settings : cpuid=1111039 / frame-threads=3 / numa-pools=12 / wpp / no-pmode / no-pme / no-psnr / ssim / log-level=2 / input-csp=1 / input-res=1920x1080 / interlace=0 / total-frames=61137 / level-idc=0 / high-tier=1 / uhd-bd=0 / ref=3 / no-allow-non-conformance / no-repeat-headers / annexb / no-aud / no-hrd / info / hash=0 / no-temporal-layers / open-gop / min-keyint=23 / keyint=250 / gop-lookahead=0 / bframes=8 / b-adapt=2 / b-pyramid / bframe-bias=0 / rc-lookahead=80 / lookahead-slices=6 / scenecut=40 / radl=0 / no-splice / no-intra-refresh / ctu=64 / min-cu-size=8 / no-rect / no-amp / max-tu-size=32 / tu-inter-depth=1 / tu-intra-depth=1 / limit-tu=0 / rdoq-level=0 / dynamic-rd=0.00 / no-ssim-rd / signhide / no-tskip / nr-intra=0 / nr-inter=0 / no-constrained-intra / no-strong-intra-smoothing / max-merge=3 / limit-refs=1 / no-limit-modes / me=3 / subme=5 / merange=57 / temporal-mvp / weightp / no-weightb / no-analyze-src-pics / deblock=0:0 / sao / no-sao-non-deblock / rd=3 / early-skip / no-rskip / no-fast-intra / no-tskip-fast / no-cu-lossless / b-intra / no-splitrd-skip / rdpenalty=0 / psy-rd=2.00 / psy-rdoq=0.00 / no-rd-refine / no-lossless / cbqpoffs=0 / crqpoffs=0 / rc=crf / crf=20.0 / qcomp=0.60 / qpstep=4 / stats-write=0 / stats-read=0 / ipratio=1.40 / pbratio=1.30 / aq-mode=3 / aq-strength=1.00 / cutree / zone-count=0 / no-strict-cbr / qg-size=32 / no-rc-grain / qpmax=69 / qpmin=0 / no-const-vbv / sar=0 / overscan=0 / videoformat=5 / range=0 / colorprim=2 / transfer=2 / colormatrix=2 / chromaloc=0 / display-window=0cll=0,0 / min-luma=0 / max-luma=1023 / log2-max-poc-lsb=8 / vui-timing-info / vui-hrd-info / slices=1 / no-opt-qp-pps / no-opt-ref-list-length-pps / no-multi-pass-opt-rps / scenecut-bias=0.05 / no-opt-cu-delta-qp / no-aq-motion / no-hdr / no-hdr-opt / no-dhdr10-opt / no-idr-recovery-sei / analysis-reuse-level=5 / scale-factor=0 / refine-intra=0 / refine-inter=0 / refine-mv=0 / refine-ctu-distortion=0 / no-limit-sao / ctu-info=0 / no-lowpass-dct / refine-analysis-type=0 / copy-pic=1 / max-ausize-factor=1.0 / no-dynamic-refine / no-single-sei / no-hevc-aq / no-svt / no-field / qp-adaptation-range=1.00
Default : Yes
Forced : No

Audio
ID : 2
Format : AAC
Format/Info : Advanced Audio Codec
Format profile : LC
Codec ID : A_AAC
Duration : 42 min 29 s
Bit rate : 448 kb/s
Channel(s) : 6 channels
Channel positions : Front: L C R, Side: L R, LFE
Sampling rate : 48.0 kHz
Frame rate : 46.875 FPS (1024 spf)
Compression mode : Lossy
Stream size : 136 MiB (15%)
Language : English
Default : Yes
Forced : Yes

Subtitle
ID : 3
Format : PGS
Muxing mode : zlib
Codec ID : S_HDMV/PGS
Codec ID/Info : Picture based subtitle format used on BDs/HD-DVDs
Duration : 42 min 1 s
Bit rate : 35.8 kb/s
Count of elements : 1284
Stream size : 10.8 MiB (1%)
Language : English
Default : No
Forced : No

Screens

Download

Download: Google Drive

Season 5

Supergirl (2015) Season 5 S05 (1080p AMZN WEB-DL x265 HEVC 10bit AAC 5.1 Vyndros)

Files

  • Supergirl.S05E01.Event.Horizon.1080p.10bit.AMZN.WEB-DL.AAC5.1.HEVC-Vyndros.mkv (740.0 MB)
  • Supergirl.S05E02.Stranger.Beside.Me.1080p.10bit.AMZN.WEB-DL.AAC5.1.HEVC-Vyndros.mkv (754.0 MB)
  • Supergirl.S05E03.Blurred.Lines.1080p.10bit.AMZN.WEB-DL.AAC5.1.HEVC-Vyndros.mkv (716.6 MB)
  • Supergirl.S05E04.In.Plain.Sight.1080p.10bit.AMZN.WEB-DL.DDP5.1.HEVC-Vyndros.mkv (682.8 MB)
  • Supergirl.S05E05.Dangerous.Liaisons.1080p.10bit.AMZN.WEB-DL.AAC5.1.HEVC-Vyndros.mkv (804.7 MB)
  • Supergirl.S05E06.Confidence.Women.1080p.10bit.AMZN.WEB-DL.AAC5.1.HEVC-Vyndros.mkv (738.5 MB)
  • Supergirl.S05E07.Tremors.1080p.10bit.AMZN.WEB-DL.AAC5.1.HEVC-Vyndros.mkv (643.4 MB)
  • Supergirl.S05E08.The.Wrath.of.Rama.Khan.1080p.10bit.AMZN.WEB-DL.AAC5.1.HEVC-Vyndros.mkv (744.6 MB)
  • Supergirl.S05E09.Crisis.on.Infinite.Earths.(1).1080p.10bit.AMZN.WEB-DL.AAC5.1.HEVC-Vyndros.mkv (892.1 MB)
  • Supergirl.S05E10.The.Bottle.Episode.1080p.10bit.AMZN.WEB-DL.AAC5.1.HEVC-Vyndros.mkv (669.6 MB)
  • Supergirl.S05E11.Back.from.the.Future.(1).1080p.10bit.AMZN.WEB-DL.AAC5.1.HEVC-Vyndros.mkv (625.4 MB)
  • Supergirl.S05E12.Back.from.the.Future.(2).1080p.10bit.AMZN.WEB-DL.AAC5.1.HEVC-Vyndros.mkv (670.1 MB)
  • Supergirl.S05E13.It’s.a.Super.Life.1080p.10bit.AMZN.WEB-DL.AAC5.1.HEVC-Vyndros.mkv (695.3 MB)
  • Supergirl.S05E14.The.Bodyguard.1080p.10bit.AMZN.WEB-DL.AAC5.1.HEVC-Vyndros.mkv (763.8 MB)
  • Supergirl.S05E15.Reality.Bytes.1080p.10bit.AMZN.WEB-DL.AAC5.1.HEVC-Vyndros.mkv (746.5 MB)
  • Supergirl.S05E16.Alex.in.Wonderland.1080p.10bit.AMZN.WEB-DL.AAC5.1.HEVC-Vyndros.mkv (684.0 MB)
  • Supergirl.S05E17.Deus.Lex.Machina.1080p.10bit.AMZN.WEB-DL.AAC5.1.HEVC-Vyndros.mkv (661.6 MB)
  • Supergirl.S05E18.The.Missing.Link.1080p.10bit.AMZN.WEB-DL.AAC5.1.HEVC-Vyndros.mkv (680.4 MB)
  • Supergirl.S05E19.Immortal.Kombat.1080p.10bit.AMZN.WEB-DL.AAC5.1.HEVC-Vyndros.mkv (739.8 MB)

Mediainfo

General
Format : Matroska
Format version : Version 4 / Version 2
File size : 740 MiB
Duration : 42 min 19 s
Overall bit rate : 2 444 kb/s
Encoded date : UTC 2020-05-18 15:27:19
Writing application : mkvmerge v20.0.0 ('I Am The Sun') 64-bit
Writing library : libebml v1.3.5 + libmatroska v1.4.8
Writing frontend : StaxRip v1.7.0.6

Video
ID : 1
Format : HEVC
Format/Info : High Efficiency Video Coding
Format profile : Main [email protected]@Main
Codec ID : V_MPEGH/ISO/HEVC
Duration : 42 min 18 s
Bit rate : 1 996 kb/s
Width : 1 920 pixels
Height : 1 080 pixels
Display aspect ratio : 16:9
Frame rate mode : Constant
Frame rate : 23.976 (24000/1001) FPS
Color space : YUV
Chroma subsampling : 4:2:0
Bit depth : 10 bits
Bits/(Pixel*Frame) : 0.040
Stream size : 604 MiB (82%)
Writing library : x265 3.3+1-g554c887ac:[Windows][MSVC 1924][64 bit] 10bit
Encoding settings : cpuid=1111039 / frame-threads=3 / numa-pools=12 / wpp / no-pmode / no-pme / no-psnr / ssim / log-level=2 / input-csp=1 / input-res=1920x1080 / interlace=0 / total-frames=60875 / level-idc=0 / high-tier=1 / uhd-bd=0 / ref=3 / no-allow-non-conformance / no-repeat-headers / annexb / no-aud / no-hrd / info / hash=0 / no-temporal-layers / open-gop / min-keyint=23 / keyint=250 / gop-lookahead=0 / bframes=8 / b-adapt=2 / b-pyramid / bframe-bias=0 / rc-lookahead=80 / lookahead-slices=6 / scenecut=40 / hist-scenecut=0 / radl=0 / no-splice / no-intra-refresh / ctu=64 / min-cu-size=8 / no-rect / no-amp / max-tu-size=32 / tu-inter-depth=1 / tu-intra-depth=1 / limit-tu=0 / rdoq-level=0 / dynamic-rd=0.00 / no-ssim-rd / signhide / no-tskip / nr-intra=0 / nr-inter=0 / no-constrained-intra / no-strong-intra-smoothing / max-merge=3 / limit-refs=1 / no-limit-modes / me=3 / subme=5 / merange=57 / temporal-mvp / no-frame-dup / no-hme / weightp / no-weightb / no-analyze-src-pics / deblock=0:0 / sao / no-sao-non-deblock / rd=3 / selective-sao=4 / early-skip / no-rskip / no-fast-intra / no-tskip-fast / no-cu-lossless / b-intra / no-splitrd-skip / rdpenalty=0 / psy-rd=2.00 / psy-rdoq=0.00 / no-rd-refine / no-lossless / cbqpoffs=0 / crqpoffs=0 / rc=crf / crf=20.0 / qcomp=0.60 / qpstep=4 / stats-write=0 / stats-read=0 / ipratio=1.40 / pbratio=1.30 / aq-mode=3 / aq-strength=0.80 / cutree / zone-count=0 / no-strict-cbr / qg-size=32 / no-rc-grain / qpmax=69 / qpmin=0 / no-const-vbv / sar=0 / overscan=0 / videoformat=5 / range=0 / colorprim=2 / transfer=2 / colormatrix=2 / chromaloc=0 / display-window=0 / cll=0,0 / min-luma=0 / max-luma=1023 / log2-max-poc-lsb=8 / vui-timing-info / vui-hrd-info / slices=1 / no-opt-qp-pps / no-opt-ref-list-length-pps / no-multi-pass-opt-rps / scenecut-bias=0.05 / hist-threshold=0.01 / no-opt-cu-delta-qp / no-aq-motion / no-hdr10 / no-hdr10-opt / no-dhdr10-opt / no-idr-recovery-sei / analysis-reuse-level=0 / analysis-save-reuse-level=0 / analysis-load-reuse-level=0 / scale-factor=0 / refine-intra=0 / refine-inter=0 / refine-mv=1 / refine-ctu-distortion=0 / no-limit-sao / ctu-info=0 / no-lowpass-dct / refine-analysis-type=0 / copy-pic=1 / max-ausize-factor=1.0 / no-dynamic-refine / no-single-sei / no-hevc-aq / no-svt / no-field / qp-adaptation-range=1.00 / no-scenecut-aware-qpconformance-window-offsets / right=0 / bottom=0
Default : Yes
Forced : No

Audio
ID : 2
Format : AAC
Format/Info : Advanced Audio Codec
Format profile : LC
Codec ID : A_AAC
Duration : 42 min 19 s
Bit rate : 445 kb/s
Channel(s) : 6 channels
Channel positions : Front: L C R, Side: L R, LFE
Sampling rate : 48.0 kHz
Frame rate : 46.875 FPS (1024 spf)
Compression mode : Lossy
Delay relative to video : 20 ms
Stream size : 135 MiB (18%)
Language : English
Default : Yes
Forced : Yes

Subtitle #1
ID : 3
Format : UTF-8
Codec ID : S_TEXT/UTF8
Codec ID/Info : UTF-8 Plain Text
Duration : 41 min 39 s
Bit rate : 70 b/s
Count of elements : 756
Stream size : 21.5 KiB (0%)
Language : English
Default : No
Forced : No

Subtitle #2
ID : 4
Format : UTF-8
Codec ID : S_TEXT/UTF8
Codec ID/Info : UTF-8 Plain Text
Duration : 41 min 39 s
Bit rate : 76 b/s
Count of elements : 848
Stream size : 23.3 KiB (0%)
Language : English
Default : No
Forced : No

Screens












Download

Download: Google Drive

Leave a Reply