Suits (2011) Season 1-9 (1080p BluRay x265 HEVC 10bit AAC 5.1 Vyndros)

Plot: Suits follows college drop-out Mike Ross, who accidentally lands a job with one of New York’s best legal closers, Harvey Specter. They soon become a winning team with Mike’s raw talent and photographic memory, and Mike soon reminds Harvey of why he went into the field of law in the first place.

Season 1

Suits (2011) Season 1 S01 (1080p BluRay x265 HEVC 10bit AAC 5.1 Vyndros)

Files

  • Suits.S01E01.Pilot.1080p.10bit.BluRay.AAC5.1.HEVC-Vyndros.mkv (1.7 GB)
  • Suits.S01E02.Errors.and.Omissions.1080p.10bit.BluRay.AAC5.1.HEVC-Vyndros.mkv (917.2 MB)
  • Suits.S01E03.Inside.Track.1080p.10bit.BluRay.AAC5.1.HEVC-Vyndros.mkv (926.2 MB)
  • Suits.S01E04.Dirty.Little.Secrets.1080p.10bit.BluRay.AAC5.1.HEVC-Vyndros.mkv (1.0 GB)
  • Suits.S01E05.Bail.Out.1080p.10bit.BluRay.AAC5.1.HEVC-Vyndros.mkv (1.1 GB)
  • Suits.S01E06.Tricks.of.the.Trade.1080p.10bit.BluRay.AAC5.1.HEVC-Vyndros.mkv (955.2 MB)
  • Suits.S01E07.Play.the.Man.1080p.10bit.BluRay.AAC5.1.HEVC-Vyndros.mkv (832.9 MB)
  • Suits.S01E08.Identity.Crisis.1080p.10bit.BluRay.AAC5.1.HEVC-Vyndros.mkv (1,006.1 MB)
  • Suits.S01E09.Undefeated.1080p.10bit.BluRay.AAC5.1.HEVC-Vyndros.mkv (936.3 MB)
  • Suits.S01E10.Shelf.Life.1080p.10bit.BluRay.AAC5.1.HEVC-Vyndros.mkv (939.9 MB)
  • Suits.S01E11.Rules.of.the.Game.1080p.10bit.BluRay.AAC5.1.HEVC-Vyndros.mkv (961.5 MB)
  • Suits.S01E12.Dog.Fight.1080p.10bit.BluRay.AAC5.1.HEVC-Vyndros.mkv (869.3 MB)

Mediainfo

General
Format : Matroska
Format version : Version 4 / Version 2
File size : 833 MiB
Duration : 42 min 49 s
Overall bit rate : 2 719 kb/s
Movie name : SUITS SEASON 1 DISC 2
Encoded date : UTC 2019-08-08 12:09:50
Writing application : mkvmerge v20.0.0 ('I Am The Sun') 64-bit
Writing library : libebml v1.3.5 + libmatroska v1.4.8
Writing frontend : StaxRip v1.7.0.6

Video
ID : 1
Format : HEVC
Format/Info : High Efficiency Video Coding
Format profile : Main [email protected]@Main
Codec ID : V_MPEGH/ISO/HEVC
Duration : 42 min 49 s
Bit rate : 2 241 kb/s
Width : 1 920 pixels
Height : 1 080 pixels
Display aspect ratio : 16:9
Frame rate mode : Constant
Frame rate : 23.976 (24000/1001) FPS
Color space : YUV
Chroma subsampling : 4:2:0
Bit depth : 10 bits
Bits/(Pixel*Frame) : 0.045
Stream size : 687 MiB (82%)
Writing library : x265 3.1+5-9c5c9cef2a86:[Windows][MSVC 1921][64 bit] 10bit
Encoding settings : cpuid=1111039 / frame-threads=2 / numa-pools=4 / wpp / no-pmode / no-pme / no-psnr / ssim / log-level=2 / input-csp=1 / input-res=1920x1080 / interlace=0 / total-frames=61608 / level-idc=0 / high-tier=1 / uhd-bd=0 / ref=3 / no-allow-non-conformance / no-repeat-headers / annexb / no-aud / no-hrd / info / hash=0 / no-temporal-layers / open-gop / min-keyint=23 / keyint=250 / gop-lookahead=0 / bframes=8 / b-adapt=2 / b-pyramid / bframe-bias=0 / rc-lookahead=80 / lookahead-slices=6 / scenecut=40 / radl=0 / no-splice / no-intra-refresh / ctu=64 / min-cu-size=8 / no-rect / no-amp / max-tu-size=32 / tu-inter-depth=1 / tu-intra-depth=1 / limit-tu=0 / rdoq-level=0 / dynamic-rd=0.00 / no-ssim-rd / signhide / no-tskip / nr-intra=0 / nr-inter=0 / no-constrained-intra / no-strong-intra-smoothing / max-merge=3 / limit-refs=1 / no-limit-modes / me=3 / subme=5 / merange=57 / temporal-mvp / weightp / no-weightb / no-analyze-src-pics / deblock=0:0 / sao / no-sao-non-deblock / rd=3 / early-skip / no-rskip / no-fast-intra / no-tskip-fast / no-cu-lossless / b-intra / no-splitrd-skip / rdpenalty=0 / psy-rd=2.00 / psy-rdoq=0.00 / no-rd-refine / no-lossless / cbqpoffs=0 / crqpoffs=0 / rc=crf / crf=20.0 / qcomp=0.60 / qpstep=4 / stats-write=0 / stats-read=0 / ipratio=1.40 / pbratio=1.30 / aq-mode=3 / aq-strength=1.00 / cutree / zone-count=0 / no-strict-cbr / qg-size=32 / no-rc-grain / qpmax=69 / qpmin=0 / no-const-vbv / sar=0 / overscan=0 / videoformat=5 / range=0 / colorprim=2 / transfer=2 / colormatrix=2 / chromaloc=0 / display-window=0cll=0,0 / min-luma=0 / max-luma=1023 / log2-max-poc-lsb=8 / vui-timing-info / vui-hrd-info / slices=1 / no-opt-qp-pps / no-opt-ref-list-length-pps / no-multi-pass-opt-rps / scenecut-bias=0.05 / no-opt-cu-delta-qp / no-aq-motion / no-hdr / no-hdr-opt / no-dhdr10-opt / no-idr-recovery-sei / analysis-reuse-level=5 / scale-factor=0 / refine-intra=0 / refine-inter=0 / refine-mv=0 / refine-ctu-distortion=0 / no-limit-sao / ctu-info=0 / no-lowpass-dct / refine-analysis-type=0 / copy-pic=1 / max-ausize-factor=1.0 / no-dynamic-refine / no-single-sei / no-hevc-aq / no-svt / no-field / qp-adaptation-range=1.00
Default : Yes
Forced : No

Audio
ID : 2
Format : AAC
Format/Info : Advanced Audio Codec
Format profile : LC
Codec ID : A_AAC
Duration : 42 min 49 s
Bit rate : 448 kb/s
Channel(s) : 6 channels
Channel positions : Front: L C R, Side: L R, LFE
Sampling rate : 48.0 kHz
Frame rate : 46.875 FPS (1024 spf)
Compression mode : Lossy
Stream size : 137 MiB (16%)
Language : English
Default : Yes
Forced : No

Subtitle
ID : 3
Format : PGS
Muxing mode : zlib
Codec ID : S_HDMV/PGS
Codec ID/Info : Picture based subtitle format used on BDs/HD-DVDs
Duration : 41 min 50 s
Bit rate : 83.7 kb/s
Count of elements : 1716
Stream size : 25.1 MiB (3%)
Language : English
Default : No
Forced : No

Screens

Download

Download: Google Drive

Season 2

Suits (2011) Season 2 S02 (1080p BluRay x265 HEVC 10bit AAC 5.1 Vyndros)

Files

  • Suits.S02E01.She.Knows.1080p.10bit.BluRay.AAC5.1.HEVC-Vyndros.mkv (960.7 MB)
  • Suits.S02E02.The.Choice.1080p.10bit.BluRay.AAC5.1.HEVC-Vyndros.mkv (974.3 MB)
  • Suits.S02E03.Meet.the.New.Boss.1080p.10bit.BluRay.AAC5.1.HEVC-Vyndros.mkv (992.9 MB)
  • Suits.S02E04.Discovery.1080p.10bit.BluRay.AAC5.1.HEVC-Vyndros.mkv (1.0 GB)
  • Suits.S02E05.Break.Point.1080p.10bit.BluRay.AAC5.1.HEVC-Vyndros.mkv (1.1 GB)
  • Suits.S02E06.All.In.1080p.10bit.BluRay.AAC5.1.HEVC-Vyndros.mkv (1.1 GB)
  • Suits.S02E07.Sucker.Punch.1080p.10bit.BluRay.AAC5.1.HEVC-Vyndros.mkv (1.0 GB)
  • Suits.S02E08.Rewind.1080p.10bit.BluRay.AAC5.1.HEVC-Vyndros.mkv (1.2 GB)
  • Suits.S02E09.Asterisk.1080p.10bit.BluRay.AAC5.1.HEVC-Vyndros.mkv (1.1 GB)
  • Suits.S02E10.High.Noon.1080p.10bit.BluRay.AAC5.1.HEVC-Vyndros.mkv (1.1 GB)
  • Suits.S02E11.Blind-Sided.1080p.10bit.BluRay.AAC5.1.HEVC-Vyndros.mkv (983.3 MB)
  • Suits.S02E12.Blood.in.the.Water.1080p.10bit.BluRay.AAC5.1.HEVC-Vyndros.mkv (929.8 MB)
  • Suits.S02E13.Zane.vs.Zane.1080p.10bit.BluRay.AAC5.1.HEVC-Vyndros.mkv (1.1 GB)
  • Suits.S02E14.He’s.Back.1080p.10bit.BluRay.AAC5.1.HEVC-Vyndros.mkv (1.0 GB)
  • Suits.S02E15.Normandy.1080p.10bit.BluRay.AAC5.1.HEVC-Vyndros.mkv (1.0 GB)
  • Suits.S02E16.War.1080p.10bit.BluRay.AAC5.1.HEVC-Vyndros.mkv (979.7 MB)

Mediainfo

General
Format : Matroska
Format version : Version 4 / Version 2
File size : 1.06 GiB
Duration : 43 min 4 s
Overall bit rate : 3 518 kb/s
Movie name : Suits S02E13 1080p Blu-ray Remux AVC DTS-HD MA 5.1 - DTHD
Encoded date : UTC 2019-08-13 06:59:48
Writing application : mkvmerge v20.0.0 ('I Am The Sun') 64-bit
Writing library : libebml v1.3.5 + libmatroska v1.4.8
Writing frontend : StaxRip v1.7.0.6

Video
ID : 1
Format : HEVC
Format/Info : High Efficiency Video Coding
Format profile : Main [email protected]@Main
Codec ID : V_MPEGH/ISO/HEVC
Duration : 43 min 4 s
Bit rate : 3 039 kb/s
Width : 1 920 pixels
Height : 1 080 pixels
Display aspect ratio : 16:9
Frame rate mode : Constant
Frame rate : 23.976 (24000/1001) FPS
Color space : YUV
Chroma subsampling : 4:2:0
Bit depth : 10 bits
Bits/(Pixel*Frame) : 0.061
Stream size : 937 MiB (86%)
Writing library : x265 3.1+5-9c5c9cef2a86:[Windows][MSVC 1921][64 bit] 10bit
Encoding settings : cpuid=1111039 / frame-threads=2 / numa-pools=4 / wpp / no-pmode / no-pme / no-psnr / ssim / log-level=2 / input-csp=1 / input-res=1920x1080 / interlace=0 / total-frames=61974 / level-idc=0 / high-tier=1 / uhd-bd=0 / ref=3 / no-allow-non-conformance / no-repeat-headers / annexb / no-aud / no-hrd / info / hash=0 / no-temporal-layers / open-gop / min-keyint=23 / keyint=250 / gop-lookahead=0 / bframes=8 / b-adapt=2 / b-pyramid / bframe-bias=0 / rc-lookahead=80 / lookahead-slices=6 / scenecut=40 / radl=0 / no-splice / no-intra-refresh / ctu=64 / min-cu-size=8 / no-rect / no-amp / max-tu-size=32 / tu-inter-depth=1 / tu-intra-depth=1 / limit-tu=0 / rdoq-level=0 / dynamic-rd=0.00 / no-ssim-rd / signhide / no-tskip / nr-intra=0 / nr-inter=0 / no-constrained-intra / no-strong-intra-smoothing / max-merge=3 / limit-refs=1 / no-limit-modes / me=3 / subme=5 / merange=57 / temporal-mvp / weightp / no-weightb / no-analyze-src-pics / deblock=0:0 / sao / no-sao-non-deblock / rd=3 / early-skip / no-rskip / no-fast-intra / no-tskip-fast / no-cu-lossless / b-intra / no-splitrd-skip / rdpenalty=0 / psy-rd=2.00 / psy-rdoq=0.00 / no-rd-refine / no-lossless / cbqpoffs=0 / crqpoffs=0 / rc=crf / crf=20.0 / qcomp=0.60 / qpstep=4 / stats-write=0 / stats-read=0 / ipratio=1.40 / pbratio=1.30 / aq-mode=3 / aq-strength=1.00 / cutree / zone-count=0 / no-strict-cbr / qg-size=32 / no-rc-grain / qpmax=69 / qpmin=0 / no-const-vbv / sar=0 / overscan=0 / videoformat=5 / range=0 / colorprim=2 / transfer=2 / colormatrix=2 / chromaloc=0 / display-window=0cll=0,0 / min-luma=0 / max-luma=1023 / log2-max-poc-lsb=8 / vui-timing-info / vui-hrd-info / slices=1 / no-opt-qp-pps / no-opt-ref-list-length-pps / no-multi-pass-opt-rps / scenecut-bias=0.05 / no-opt-cu-delta-qp / no-aq-motion / no-hdr / no-hdr-opt / no-dhdr10-opt / no-idr-recovery-sei / analysis-reuse-level=5 / scale-factor=0 / refine-intra=0 / refine-inter=0 / refine-mv=0 / refine-ctu-distortion=0 / no-limit-sao / ctu-info=0 / no-lowpass-dct / refine-analysis-type=0 / copy-pic=1 / max-ausize-factor=1.0 / no-dynamic-refine / no-single-sei / no-hevc-aq / no-svt / no-field / qp-adaptation-range=1.00
Default : Yes
Forced : No

Audio
ID : 2
Format : AAC
Format/Info : Advanced Audio Codec
Format profile : LC
Codec ID : A_AAC
Duration : 43 min 4 s
Bit rate : 448 kb/s
Channel(s) : 6 channels
Channel positions : Front: L C R, Side: L R, LFE
Sampling rate : 48.0 kHz
Frame rate : 46.875 FPS (1024 spf)
Compression mode : Lossy
Stream size : 138 MiB (13%)
Language : English
Default : Yes
Forced : No

Subtitle
ID : 3
Format : PGS
Muxing mode : zlib
Codec ID : S_HDMV/PGS
Codec ID/Info : Picture based subtitle format used on BDs/HD-DVDs
Duration : 42 min 27 s
Bit rate : 86.4 kb/s
Count of elements : 1798
Stream size : 26.2 MiB (2%)
Language : English
Default : No
Forced : No

Screens

Download

Download: Google Drive

Season 3

Suits (2011) Season 3 S03 (1080p BluRay x265 HEVC 10bit AAC 5.1 Vyndros)

Files

  • Suits.S03E01.The.Arrangement.1080p.10bit.BluRay.AAC5.1.HEVC-Vyndros.mkv (1.1 GB)
  • Suits.S03E02.I.Want.You.to.Want.Me.1080p.10bit.BluRay.AAC5.1.HEVC-Vyndros.mkv (1.0 GB)
  • Suits.S03E03.Unfinished.Business.1080p.10bit.BluRay.AAC5.1.HEVC-Vyndros.mkv (997.0 MB)
  • Suits.S03E04.Conflict.of.Interest.1080p.10bit.BluRay.AAC5.1.HEVC-Vyndros.mkv (1.0 GB)
  • Suits.S03E05.Shadow.of.a.Doubt.1080p.10bit.BluRay.AAC5.1.HEVC-Vyndros.mkv (1.1 GB)
  • Suits.S03E06.The.Other.Time.1080p.10bit.BluRay.AAC5.1.HEVC-Vyndros.mkv (1.1 GB)
  • Suits.S03E07.She’s.Mine.1080p.10bit.BluRay.AAC5.1.HEVC-Vyndros.mkv (875.7 MB)
  • Suits.S03E08.Endgame.1080p.10bit.BluRay.AAC5.1.HEVC-Vyndros.mkv (940.1 MB)
  • Suits.S03E09.Bad.Faith.1080p.10bit.BluRay.AAC5.1.HEVC-Vyndros.mkv (998.0 MB)
  • Suits.S03E10.Stay.1080p.10bit.BluRay.AAC5.1.HEVC-Vyndros.mkv (933.9 MB)
  • Suits.S03E11.Buried.Secrets.1080p.10bit.BluRay.AAC5.1.HEVC-Vyndros.mkv (927.5 MB)
  • Suits.S03E12.Yesterday’s.Gone.1080p.10bit.BluRay.AAC5.1.HEVC-Vyndros.mkv (912.4 MB)
  • Suits.S03E13.Moot.Point.1080p.10bit.BluRay.AAC5.1.HEVC-Vyndros.mkv (864.4 MB)
  • Suits.S03E14.Heartburn.1080p.10bit.BluRay.AAC5.1.HEVC-Vyndros.mkv (919.0 MB)
  • Suits.S03E15.Know.When.to.Fold.’Em.1080p.10bit.BluRay.AAC5.1.HEVC-Vyndros.mkv (847.7 MB)
  • Suits.S03E16.No.Way.Out.1080p.10bit.BluRay.AAC5.1.HEVC-Vyndros.mkv (900.3 MB)

Mediainfo

General
Format : Matroska
Format version : Version 4 / Version 2
File size : 919 MiB
Duration : 43 min 4 s
Overall bit rate : 2 983 kb/s
Movie name : Suits S03E14 1080p Blu-ray Remux AVC DTS-HD MA 5.1 - DTHD
Encoded date : UTC 2019-08-20 05:46:23
Writing application : mkvmerge v20.0.0 ('I Am The Sun') 64-bit
Writing library : libebml v1.3.5 + libmatroska v1.4.8
Writing frontend : StaxRip v1.7.0.6

Video
ID : 1
Format : HEVC
Format/Info : High Efficiency Video Coding
Format profile : Main [email protected]@Main
Codec ID : V_MPEGH/ISO/HEVC
Duration : 43 min 4 s
Bit rate : 2 506 kb/s
Width : 1 920 pixels
Height : 1 080 pixels
Display aspect ratio : 16:9
Frame rate mode : Constant
Frame rate : 23.976 (24000/1001) FPS
Color space : YUV
Chroma subsampling : 4:2:0
Bit depth : 10 bits
Bits/(Pixel*Frame) : 0.050
Stream size : 772 MiB (84%)
Writing library : x265 3.1+5-9c5c9cef2a86:[Windows][MSVC 1921][64 bit] 10bit
Encoding settings : cpuid=1111039 / frame-threads=2 / numa-pools=4 / wpp / no-pmode / no-pme / no-psnr / ssim / log-level=2 / input-csp=1 / input-res=1920x1080 / interlace=0 / total-frames=61955 / level-idc=0 / high-tier=1 / uhd-bd=0 / ref=3 / no-allow-non-conformance / no-repeat-headers / annexb / no-aud / no-hrd / info / hash=0 / no-temporal-layers / open-gop / min-keyint=23 / keyint=250 / gop-lookahead=0 / bframes=8 / b-adapt=2 / b-pyramid / bframe-bias=0 / rc-lookahead=80 / lookahead-slices=6 / scenecut=40 / radl=0 / no-splice / no-intra-refresh / ctu=64 / min-cu-size=8 / no-rect / no-amp / max-tu-size=32 / tu-inter-depth=1 / tu-intra-depth=1 / limit-tu=0 / rdoq-level=0 / dynamic-rd=0.00 / no-ssim-rd / signhide / no-tskip / nr-intra=0 / nr-inter=0 / no-constrained-intra / no-strong-intra-smoothing / max-merge=3 / limit-refs=1 / no-limit-modes / me=3 / subme=5 / merange=57 / temporal-mvp / weightp / no-weightb / no-analyze-src-pics / deblock=0:0 / sao / no-sao-non-deblock / rd=3 / early-skip / no-rskip / no-fast-intra / no-tskip-fast / no-cu-lossless / b-intra / no-splitrd-skip / rdpenalty=0 / psy-rd=2.00 / psy-rdoq=0.00 / no-rd-refine / no-lossless / cbqpoffs=0 / crqpoffs=0 / rc=crf / crf=20.0 / qcomp=0.60 / qpstep=4 / stats-write=0 / stats-read=0 / ipratio=1.40 / pbratio=1.30 / aq-mode=3 / aq-strength=1.00 / cutree / zone-count=0 / no-strict-cbr / qg-size=32 / no-rc-grain / qpmax=69 / qpmin=0 / no-const-vbv / sar=0 / overscan=0 / videoformat=5 / range=0 / colorprim=2 / transfer=2 / colormatrix=2 / chromaloc=0 / display-window=0cll=0,0 / min-luma=0 / max-luma=1023 / log2-max-poc-lsb=8 / vui-timing-info / vui-hrd-info / slices=1 / no-opt-qp-pps / no-opt-ref-list-length-pps / no-multi-pass-opt-rps / scenecut-bias=0.05 / no-opt-cu-delta-qp / no-aq-motion / no-hdr / no-hdr-opt / no-dhdr10-opt / no-idr-recovery-sei / analysis-reuse-level=5 / scale-factor=0 / refine-intra=0 / refine-inter=0 / refine-mv=0 / refine-ctu-distortion=0 / no-limit-sao / ctu-info=0 / no-lowpass-dct / refine-analysis-type=0 / copy-pic=1 / max-ausize-factor=1.0 / no-dynamic-refine / no-single-sei / no-hevc-aq / no-svt / no-field / qp-adaptation-range=1.00
Default : Yes
Forced : No

Audio
ID : 2
Format : AAC
Format/Info : Advanced Audio Codec
Format profile : LC
Codec ID : A_AAC
Duration : 43 min 4 s
Bit rate : 448 kb/s
Channel(s) : 6 channels
Channel positions : Front: L C R, Side: L R, LFE
Sampling rate : 48.0 kHz
Frame rate : 46.875 FPS (1024 spf)
Compression mode : Lossy
Stream size : 138 MiB (15%)
Language : English
Default : Yes
Forced : No

Subtitle
ID : 3
Format : PGS
Muxing mode : zlib
Codec ID : S_HDMV/PGS
Codec ID/Info : Picture based subtitle format used on BDs/HD-DVDs
Duration : 42 min 26 s
Bit rate : 86.9 kb/s
Count of elements : 1650
Stream size : 26.4 MiB (3%)
Language : English
Default : No
Forced : No

Screens

Download

Download: Google Drive

Season 4

Suits (2011) Season 4 S04 (1080p BluRay x265 HEVC 10bit AAC 5.1 Vyndros)

Files

  • Suits.S04E01.One-Two-Three.Go.1080p.10bit.BluRay.AAC5.1.HEVC-Vyndros.mkv (884.9 MB)
  • Suits.S04E01.One-Two-Three.Go.1080p.10bit.BluRay.AAC5.1.HEVC-Vyndros.srt (66.5 KB)
  • Suits.S04E02.Breakfast,.Lunch.and.Dinner.1080p.10bit.BluRay.AAC5.1.HEVC-Vyndros.mkv (879.5 MB)
  • Suits.S04E02.Breakfast,.Lunch.and.Dinner.1080p.10bit.BluRay.AAC5.1.HEVC-Vyndros.srt (71.9 KB)
  • Suits.S04E03.Two.in.the.Knees.1080p.10bit.BluRay.AAC5.1.HEVC-Vyndros.mkv (930.8 MB)
  • Suits.S04E03.Two.in.the.Knees.1080p.10bit.BluRay.AAC5.1.HEVC-Vyndros.srt (61.9 KB)
  • Suits.S04E04.Leveraged.1080p.10bit.BluRay.AAC5.1.HEVC-Vyndros.mkv (995.6 MB)
  • Suits.S04E04.Leveraged.1080p.10bit.BluRay.AAC5.1.HEVC-Vyndros.srt (74.5 KB)
  • Suits.S04E05.Pound.of.Flesh.1080p.10bit.BluRay.AAC5.1.HEVC-Vyndros.mkv (969.3 MB)
  • Suits.S04E05.Pound.of.Flesh.1080p.10bit.BluRay.AAC5.1.HEVC-Vyndros.srt (67.1 KB)
  • Suits.S04E06.Litt.the.Hell.Up.1080p.10bit.BluRay.AAC5.1.HEVC-Vyndros.mkv (914.0 MB)
  • Suits.S04E06.Litt.the.Hell.Up.1080p.10bit.BluRay.AAC5.1.HEVC-Vyndros.srt (65.8 KB)
  • Suits.S04E07.We’re.Done.1080p.10bit.BluRay.AAC5.1.HEVC-Vyndros.mkv (902.5 MB)
  • Suits.S04E07.We’re.Done.1080p.10bit.BluRay.AAC5.1.HEVC-Vyndros.srt (58.9 KB)
  • Suits.S04E08.Exposure.1080p.10bit.BluRay.AAC5.1.HEVC-Vyndros.mkv (882.0 MB)
  • Suits.S04E08.Exposure.1080p.10bit.BluRay.AAC5.1.HEVC-Vyndros.srt (62.7 KB)
  • Suits.S04E09.Gone.1080p.10bit.BluRay.AAC5.1.HEVC-Vyndros.mkv (858.5 MB)
  • Suits.S04E09.Gone.1080p.10bit.BluRay.AAC5.1.HEVC-Vyndros.srt (71.4 KB)
  • Suits.S04E10.This.Is.Rome.1080p.10bit.BluRay.AAC5.1.HEVC-Vyndros.mkv (901.9 MB)
  • Suits.S04E10.This.Is.Rome.1080p.10bit.BluRay.AAC5.1.HEVC-Vyndros.srt (69.3 KB)
  • Suits.S04E11.Enough.is.Enough.1080p.10bit.BluRay.AAC5.1.HEVC-Vyndros.mkv (935.6 MB)
  • Suits.S04E11.Enough.is.Enough.1080p.10bit.BluRay.AAC5.1.HEVC-Vyndros.srt (67.6 KB)
  • Suits.S04E12.Respect.1080p.10bit.BluRay.AAC5.1.HEVC-Vyndros.mkv (998.9 MB)
  • Suits.S04E12.Respect.1080p.10bit.BluRay.AAC5.1.HEVC-Vyndros.srt (72.1 KB)
  • Suits.S04E13.Fork.in.the.Road.1080p.10bit.BluRay.AAC5.1.HEVC-Vyndros.mkv (1.1 GB)
  • Suits.S04E13.Fork.in.the.Road.1080p.10bit.BluRay.AAC5.1.HEVC-Vyndros.srt (66.2 KB)
  • Suits.S04E14.Derailed.1080p.10bit.BluRay.AAC5.1.HEVC-Vyndros.mkv (1.1 GB)
  • Suits.S04E14.Derailed.1080p.10bit.BluRay.AAC5.1.HEVC-Vyndros.srt (71.5 KB)
  • Suits.S04E15.Intent.1080p.10bit.BluRay.AAC5.1.HEVC-Vyndros.mkv (1,020.1 MB)
  • Suits.S04E15.Intent.1080p.10bit.BluRay.AAC5.1.HEVC-Vyndros.srt (70.3 KB)
  • Suits.S04E16.Not.Just.a.Pretty.Face.1080p.10bit.BluRay.AAC5.1.HEVC-Vyndros.mkv (1.3 GB)
  • Suits.S04E16.Not.Just.a.Pretty.Face.1080p.10bit.BluRay.AAC5.1.HEVC-Vyndros.srt (78.9 KB)

Mediainfo

General
Format : Matroska
Format version : Version 4 / Version 2
File size : 903 MiB
Duration : 42 min 58 s
Overall bit rate : 2 936 kb/s
Encoded date : UTC 2019-08-23 08:21:34
Writing application : mkvmerge v20.0.0 ('I Am The Sun') 64-bit
Writing library : libebml v1.3.5 + libmatroska v1.4.8
Writing frontend : StaxRip v1.7.0.6

Video
ID : 1
Format : HEVC
Format/Info : High Efficiency Video Coding
Format profile : Main [email protected]@Main
Codec ID : V_MPEGH/ISO/HEVC
Duration : 42 min 58 s
Bit rate : 2 485 kb/s
Width : 1 920 pixels
Height : 1 080 pixels
Display aspect ratio : 16:9
Frame rate mode : Constant
Frame rate : 23.976 (24000/1001) FPS
Color space : YUV
Chroma subsampling : 4:2:0
Bit depth : 10 bits
Bits/(Pixel*Frame) : 0.050
Stream size : 764 MiB (85%)
Writing library : x265 3.1+5-9c5c9cef2a86:[Windows][MSVC 1921][64 bit] 10bit
Encoding settings : cpuid=1111039 / frame-threads=2 / numa-pools=4 / wpp / no-pmode / no-pme / no-psnr / ssim / log-level=2 / input-csp=1 / input-res=1920x1080 / interlace=0 / total-frames=61821 / level-idc=0 / high-tier=1 / uhd-bd=0 / ref=3 / no-allow-non-conformance / no-repeat-headers / annexb / no-aud / no-hrd / info / hash=0 / no-temporal-layers / open-gop / min-keyint=23 / keyint=250 / gop-lookahead=0 / bframes=8 / b-adapt=2 / b-pyramid / bframe-bias=0 / rc-lookahead=80 / lookahead-slices=6 / scenecut=40 / radl=0 / no-splice / no-intra-refresh / ctu=64 / min-cu-size=8 / no-rect / no-amp / max-tu-size=32 / tu-inter-depth=1 / tu-intra-depth=1 / limit-tu=0 / rdoq-level=0 / dynamic-rd=0.00 / no-ssim-rd / signhide / no-tskip / nr-intra=0 / nr-inter=0 / no-constrained-intra / no-strong-intra-smoothing / max-merge=3 / limit-refs=1 / no-limit-modes / me=3 / subme=5 / merange=57 / temporal-mvp / weightp / no-weightb / no-analyze-src-pics / deblock=0:0 / sao / no-sao-non-deblock / rd=3 / early-skip / no-rskip / no-fast-intra / no-tskip-fast / no-cu-lossless / b-intra / no-splitrd-skip / rdpenalty=0 / psy-rd=2.00 / psy-rdoq=0.00 / no-rd-refine / no-lossless / cbqpoffs=0 / crqpoffs=0 / rc=crf / crf=20.0 / qcomp=0.60 / qpstep=4 / stats-write=0 / stats-read=0 / ipratio=1.40 / pbratio=1.30 / aq-mode=3 / aq-strength=1.00 / cutree / zone-count=0 / no-strict-cbr / qg-size=32 / no-rc-grain / qpmax=69 / qpmin=0 / no-const-vbv / sar=0 / overscan=0 / videoformat=5 / range=0 / colorprim=2 / transfer=2 / colormatrix=2 / chromaloc=0 / display-window=0cll=0,0 / min-luma=0 / max-luma=1023 / log2-max-poc-lsb=8 / vui-timing-info / vui-hrd-info / slices=1 / no-opt-qp-pps / no-opt-ref-list-length-pps / no-multi-pass-opt-rps / scenecut-bias=0.05 / no-opt-cu-delta-qp / no-aq-motion / no-hdr / no-hdr-opt / no-dhdr10-opt / no-idr-recovery-sei / analysis-reuse-level=5 / scale-factor=0 / refine-intra=0 / refine-inter=0 / refine-mv=0 / refine-ctu-distortion=0 / no-limit-sao / ctu-info=0 / no-lowpass-dct / refine-analysis-type=0 / copy-pic=1 / max-ausize-factor=1.0 / no-dynamic-refine / no-single-sei / no-hevc-aq / no-svt / no-field / qp-adaptation-range=1.00
Default : Yes
Forced : No

Audio
ID : 2
Format : AAC
Format/Info : Advanced Audio Codec
Format profile : LC
Codec ID : A_AAC
Duration : 42 min 58 s
Bit rate : 449 kb/s
Channel(s) : 6 channels
Channel positions : Front: L C R, Side: L R, LFE
Sampling rate : 48.0 kHz
Frame rate : 46.875 FPS (1024 spf)
Compression mode : Lossy
Stream size : 138 MiB (15%)
Language : English
Default : Yes
Forced : No

Screens

Download

Download: Google Drive

Season 5

Suits (2011) Season 5 S05 (1080p BluRay x265 HEVC 10bit AAC 5.1 Vyndros)

Files

  • Suits.S05E01.Denial.1080p.10bit.BluRay.AAC5.1.HEVC-Vyndros.mkv (906.9 MB)
  • Suits.S05E02.Compensation.1080p.10bit.BluRay.AAC5.1.HEVC-Vyndros.mkv (896.1 MB)
  • Suits.S05E03.No.Refills.1080p.10bit.BluRay.AAC5.1.HEVC-Vyndros.mkv (937.0 MB)
  • Suits.S05E04.No.Puedo.Hacerlo.1080p.10bit.BluRay.AAC5.1.HEVC-Vyndros.mkv (932.8 MB)
  • Suits.S05E05.Toe.to.Toe.1080p.10bit.BluRay.AAC5.1.HEVC-Vyndros.mkv (951.2 MB)
  • Suits.S05E06.Privilege.1080p.10bit.BluRay.AAC5.1.HEVC-Vyndros.mkv (910.2 MB)
  • Suits.S05E07.Hitting.Home.1080p.10bit.BluRay.AAC5.1.HEVC-Vyndros.mkv (842.2 MB)
  • Suits.S05E08.Mea.Culpa.1080p.10bit.BluRay.AAC5.1.HEVC-Vyndros.mkv (789.6 MB)
  • Suits.S05E09.Uninvited.Guests.1080p.10bit.BluRay.AAC5.1.HEVC-Vyndros.mkv (845.0 MB)
  • Suits.S05E10.Faith.1080p.10bit.BluRay.AAC5.1.HEVC-Vyndros.mkv (791.8 MB)
  • Suits.S05E11.Blowback.1080p.10bit.BluRay.AAC5.1.HEVC-Vyndros.mkv (895.4 MB)
  • Suits.S05E12.Live.to.Fight.1080p.10bit.BluRay.AAC5.1.HEVC-Vyndros.mkv (800.7 MB)
  • Suits.S05E13.God’s.Green.Earth.1080p.10bit.BluRay.AAC5.1.HEVC-Vyndros.mkv (775.5 MB)
  • Suits.S05E14.Self-Defense.1080p.10bit.BluRay.AAC5.1.HEVC-Vyndros.mkv (868.1 MB)
  • Suits.S05E15.Tick.Tock.1080p.10bit.BluRay.AAC5.1.HEVC-Vyndros.mkv (1.4 GB)
  • Suits.S05E16.25th.Hour.1080p.10bit.BluRay.AAC5.1.HEVC-Vyndros.mkv (949.6 MB)

Mediainfo

General
Format : Matroska
Format version : Version 4 / Version 2
File size : 845 MiB
Duration : 43 min 9 s
Overall bit rate : 2 737 kb/s
Encoded date : UTC 2019-08-29 16:27:07
Writing application : mkvmerge v20.0.0 ('I Am The Sun') 64-bit
Writing library : libebml v1.3.5 + libmatroska v1.4.8
Writing frontend : StaxRip v1.7.0.6

Video
ID : 1
Format : HEVC
Format/Info : High Efficiency Video Coding
Format profile : Main [email protected]@Main
Codec ID : V_MPEGH/ISO/HEVC
Duration : 43 min 9 s
Bit rate : 2 264 kb/s
Width : 1 920 pixels
Height : 1 080 pixels
Display aspect ratio : 16:9
Frame rate mode : Constant
Frame rate : 23.976 (24000/1001) FPS
Color space : YUV
Chroma subsampling : 4:2:0
Bit depth : 10 bits
Bits/(Pixel*Frame) : 0.046
Stream size : 699 MiB (83%)
Writing library : x265 3.1+5-9c5c9cef2a86:[Windows][MSVC 1921][64 bit] 10bit
Encoding settings : cpuid=1111039 / frame-threads=2 / numa-pools=4 / wpp / no-pmode / no-pme / no-psnr / ssim / log-level=2 / input-csp=1 / input-res=1920x1080 / interlace=0 / total-frames=62088 / level-idc=0 / high-tier=1 / uhd-bd=0 / ref=3 / no-allow-non-conformance / no-repeat-headers / annexb / no-aud / no-hrd / info / hash=0 / no-temporal-layers / open-gop / min-keyint=23 / keyint=250 / gop-lookahead=0 / bframes=8 / b-adapt=2 / b-pyramid / bframe-bias=0 / rc-lookahead=80 / lookahead-slices=6 / scenecut=40 / radl=0 / no-splice / no-intra-refresh / ctu=64 / min-cu-size=8 / no-rect / no-amp / max-tu-size=32 / tu-inter-depth=1 / tu-intra-depth=1 / limit-tu=0 / rdoq-level=0 / dynamic-rd=0.00 / no-ssim-rd / signhide / no-tskip / nr-intra=0 / nr-inter=0 / no-constrained-intra / no-strong-intra-smoothing / max-merge=3 / limit-refs=1 / no-limit-modes / me=3 / subme=5 / merange=57 / temporal-mvp / weightp / no-weightb / no-analyze-src-pics / deblock=0:0 / sao / no-sao-non-deblock / rd=3 / early-skip / no-rskip / no-fast-intra / no-tskip-fast / no-cu-lossless / b-intra / no-splitrd-skip / rdpenalty=0 / psy-rd=2.00 / psy-rdoq=0.00 / no-rd-refine / no-lossless / cbqpoffs=0 / crqpoffs=0 / rc=crf / crf=20.0 / qcomp=0.60 / qpstep=4 / stats-write=0 / stats-read=0 / ipratio=1.40 / pbratio=1.30 / aq-mode=3 / aq-strength=1.00 / cutree / zone-count=0 / no-strict-cbr / qg-size=32 / no-rc-grain / qpmax=69 / qpmin=0 / no-const-vbv / sar=0 / overscan=0 / videoformat=5 / range=0 / colorprim=2 / transfer=2 / colormatrix=2 / chromaloc=0 / display-window=0cll=0,0 / min-luma=0 / max-luma=1023 / log2-max-poc-lsb=8 / vui-timing-info / vui-hrd-info / slices=1 / no-opt-qp-pps / no-opt-ref-list-length-pps / no-multi-pass-opt-rps / scenecut-bias=0.05 / no-opt-cu-delta-qp / no-aq-motion / no-hdr / no-hdr-opt / no-dhdr10-opt / no-idr-recovery-sei / analysis-reuse-level=5 / scale-factor=0 / refine-intra=0 / refine-inter=0 / refine-mv=0 / refine-ctu-distortion=0 / no-limit-sao / ctu-info=0 / no-lowpass-dct / refine-analysis-type=892928 / copy-pic=1 / max-ausize-factor=1.0 / no-dynamic-refine / no-single-sei / no-hevc-aq / no-svt / no-field / qp-adaptation-range=1.00
Default : Yes
Forced : No

Audio
ID : 2
Format : AAC
Format/Info : Advanced Audio Codec
Format profile : LC
Codec ID : A_AAC
Duration : 43 min 9 s
Bit rate : 449 kb/s
Channel(s) : 6 channels
Channel positions : Front: L C R, Side: L R, LFE
Sampling rate : 48.0 kHz
Frame rate : 46.875 FPS (1024 spf)
Compression mode : Lossy
Stream size : 139 MiB (16%)
Language : English
Default : Yes
Forced : No

Subtitle
ID : 3
Format : PGS
Muxing mode : zlib
Codec ID : S_HDMV/PGS
Codec ID/Info : Picture based subtitle format used on BDs/HD-DVDs
Duration : 42 min 25 s
Bit rate : 79.1 kb/s
Count of elements : 2010
Stream size : 24.0 MiB (3%)
Language : English
Default : No
Forced : No

Screens

Download

Download: Google Drive

Season 6

Suits (2011) Season 6 S06 (1080p BluRay x265 HEVC 10bit AAC 5.1 Vyndros)

Files

  • Suits.S06E01.To.Trouble.1080p.10bit.BluRay.AAC5.1.HEVC-Vyndros.mkv (641.7 MB)
  • Suits.S06E02.Accounts.Payable.1080p.10bit.BluRay.AAC5.1.HEVC-Vyndros.mkv (872.6 MB)
  • Suits.S06E03.Back.on.the.Map.1080p.10bit.BluRay.AAC5.1.HEVC-Vyndros.mkv (912.1 MB)
  • Suits.S06E04.Turn.1080p.10bit.BluRay.AAC5.1.HEVC-Vyndros.mkv (808.6 MB)
  • Suits.S06E05.Trust.1080p.10bit.BluRay.AAC5.1.HEVC-Vyndros.mkv (791.8 MB)
  • Suits.S06E06.Spain.1080p.10bit.BluRay.AAC5.1.HEVC-Vyndros.mkv (782.3 MB)
  • Suits.S06E07.Shake.the.Trees.1080p.10bit.BluRay.AAC5.1.HEVC-Vyndros.mkv (747.0 MB)
  • Suits.S06E08.Borrowed.Time.1080p.10bit.BluRay.AAC5.1.HEVC-Vyndros.mkv (650.8 MB)
  • Suits.S06E09.The.Hand.That.Feeds.You.1080p.10bit.BluRay.AAC5.1.HEVC-Vyndros.mkv (732.0 MB)
  • Suits.S06E10.P.S.L.1080p.10bit.BluRay.AAC5.1.HEVC-Vyndros.mkv (717.2 MB)
  • Suits.S06E11.She’s.Gone.1080p.10bit.BluRay.AAC5.1.HEVC-Vyndros.mkv (870.3 MB)
  • Suits.S06E12.The.Painting.1080p.10bit.BluRay.AAC5.1.HEVC-Vyndros.mkv (1,004.5 MB)
  • Suits.S06E13.Teeth,.Nose,.Teeth.1080p.10bit.BluRay.AAC5.1.HEVC-Vyndros.mkv (929.2 MB)
  • Suits.S06E14.Admission.of.Guilt.1080p.10bit.BluRay.AAC5.1.HEVC-Vyndros.mkv (818.3 MB)
  • Suits.S06E15.Quid.Pro.Quo.1080p.10bit.BluRay.AAC5.1.HEVC-Vyndros.mkv (721.0 MB)
  • Suits.S06E16.Character.and.Fitness.1080p.10bit.BluRay.AAC5.1.HEVC-Vyndros.mkv (799.6 MB)

Mediainfo

General
Format : Matroska
Format version : Version 4 / Version 2
File size : 792 MiB
Duration : 41 min 58 s
Overall bit rate : 2 637 kb/s
Encoded date : UTC 2019-09-03 05:49:27
Writing application : mkvmerge v20.0.0 ('I Am The Sun') 64-bit
Writing library : libebml v1.3.5 + libmatroska v1.4.8
Writing frontend : StaxRip v1.7.0.6

Video
ID : 1
Format : HEVC
Format/Info : High Efficiency Video Coding
Format profile : Main [email protected]@Main
Codec ID : V_MPEGH/ISO/HEVC
Duration : 41 min 58 s
Bit rate : 2 165 kb/s
Width : 1 920 pixels
Height : 1 080 pixels
Display aspect ratio : 16:9
Frame rate mode : Constant
Frame rate : 23.976 (24000/1001) FPS
Color space : YUV
Chroma subsampling : 4:2:0
Bit depth : 10 bits
Bits/(Pixel*Frame) : 0.044
Stream size : 650 MiB (82%)
Writing library : x265 3.1+5-9c5c9cef2a86:[Windows][MSVC 1921][64 bit] 10bit
Encoding settings : cpuid=1111039 / frame-threads=2 / numa-pools=4 / wpp / no-pmode / no-pme / no-psnr / ssim / log-level=2 / input-csp=1 / input-res=1920x1080 / interlace=0 / total-frames=60384 / level-idc=0 / high-tier=1 / uhd-bd=0 / ref=3 / no-allow-non-conformance / no-repeat-headers / annexb / no-aud / no-hrd / info / hash=0 / no-temporal-layers / open-gop / min-keyint=23 / keyint=250 / gop-lookahead=0 / bframes=8 / b-adapt=2 / b-pyramid / bframe-bias=0 / rc-lookahead=80 / lookahead-slices=6 / scenecut=40 / radl=0 / no-splice / no-intra-refresh / ctu=64 / min-cu-size=8 / no-rect / no-amp / max-tu-size=32 / tu-inter-depth=1 / tu-intra-depth=1 / limit-tu=0 / rdoq-level=0 / dynamic-rd=0.00 / no-ssim-rd / signhide / no-tskip / nr-intra=0 / nr-inter=0 / no-constrained-intra / no-strong-intra-smoothing / max-merge=3 / limit-refs=1 / no-limit-modes / me=3 / subme=5 / merange=57 / temporal-mvp / weightp / no-weightb / no-analyze-src-pics / deblock=0:0 / sao / no-sao-non-deblock / rd=3 / early-skip / no-rskip / no-fast-intra / no-tskip-fast / no-cu-lossless / b-intra / no-splitrd-skip / rdpenalty=0 / psy-rd=2.00 / psy-rdoq=0.00 / no-rd-refine / no-lossless / cbqpoffs=0 / crqpoffs=0 / rc=crf / crf=20.0 / qcomp=0.60 / qpstep=4 / stats-write=0 / stats-read=0 / ipratio=1.40 / pbratio=1.30 / aq-mode=3 / aq-strength=1.00 / cutree / zone-count=0 / no-strict-cbr / qg-size=32 / no-rc-grain / qpmax=69 / qpmin=0 / no-const-vbv / sar=0 / overscan=0 / videoformat=5 / range=0 / colorprim=2 / transfer=2 / colormatrix=2 / chromaloc=0 / display-window=0cll=0,0 / min-luma=0 / max-luma=1023 / log2-max-poc-lsb=8 / vui-timing-info / vui-hrd-info / slices=1 / no-opt-qp-pps / no-opt-ref-list-length-pps / no-multi-pass-opt-rps / scenecut-bias=0.05 / no-opt-cu-delta-qp / no-aq-motion / no-hdr / no-hdr-opt / no-dhdr10-opt / no-idr-recovery-sei / analysis-reuse-level=5 / scale-factor=0 / refine-intra=0 / refine-inter=0 / refine-mv=0 / refine-ctu-distortion=0 / no-limit-sao / ctu-info=0 / no-lowpass-dct / refine-analysis-type=0 / copy-pic=1 / max-ausize-factor=1.0 / no-dynamic-refine / no-single-sei / no-hevc-aq / no-svt / no-field / qp-adaptation-range=1.00
Default : Yes
Forced : No

Audio
ID : 2
Format : AAC
Format/Info : Advanced Audio Codec
Format profile : LC
Codec ID : A_AAC
Duration : 41 min 58 s
Bit rate : 448 kb/s
Channel(s) : 6 channels
Channel positions : Front: L C R, Side: L R, LFE
Sampling rate : 48.0 kHz
Frame rate : 46.875 FPS (1024 spf)
Compression mode : Lossy
Stream size : 135 MiB (17%)
Language : English
Default : Yes
Forced : No

Subtitle
ID : 3
Format : PGS
Muxing mode : zlib
Codec ID : S_HDMV/PGS
Codec ID/Info : Picture based subtitle format used on BDs/HD-DVDs
Duration : 41 min 13 s
Bit rate : 76.7 kb/s
Count of elements : 1936
Stream size : 22.6 MiB (3%)
Language : English
Default : No
Forced : No

Screens

Download

Download: Google Drive

Season 7

Suits (2011) Season 7 S07 (1080p BluRay x265 HEVC 10bit AAC 5.1 Vyndros)

Files

  • Suits.S07E01.Skin.in.the.Game.1080p.10bit.BluRay.AAC5.1.HEVC-Vyndros.mkv (885.9 MB)
  • Suits.S07E02.The.Statue.1080p.10bit.BluRay.AAC5.1.HEVC-Vyndros.mkv (766.2 MB)
  • Suits.S07E03.Mudmare.1080p.10bit.BluRay.AAC5.1.HEVC-Vyndros.mkv (807.1 MB)
  • Suits.S07E04.Divide.and.Conquer.1080p.10bit.BluRay.AAC5.1.HEVC-Vyndros.mkv (878.9 MB)
  • Suits.S07E05.Brooklyn.Housing.1080p.10bit.BluRay.AAC5.1.HEVC-Vyndros.mkv (799.6 MB)
  • Suits.S07E06.Home.To.Roost.1080p.10bit.BluRay.AAC5.1.HEVC-Vyndros.mkv (784.9 MB)
  • Suits.S07E07.Full.Disclosure.1080p.10bit.BluRay.AAC5.1.HEVC-Vyndros.mkv (806.7 MB)
  • Suits.S07E08.100.1080p.10bit.BluRay.AAC5.1.HEVC-Vyndros.mkv (886.1 MB)
  • Suits.S07E09.Shame.1080p.10bit.BluRay.AAC5.1.HEVC-Vyndros.mkv (783.8 MB)
  • Suits.S07E10.Donna.1080p.10bit.BluRay.AAC5.1.HEVC-Vyndros.mkv (880.8 MB)
  • Suits.S07E11.Hard.Truths.1080p.10bit.BluRay.AAC5.1.HEVC-Vyndros.mkv (842.3 MB)
  • Suits.S07E12.Bad.Man.1080p.10bit.BluRay.AAC5.1.HEVC-Vyndros.mkv (995.8 MB)
  • Suits.S07E13.Inevitable.1080p.10bit.BluRay.AAC5.1.HEVC-Vyndros.mkv (803.3 MB)
  • Suits.S07E14.Pulling.the.Goalie.1080p.10bit.BluRay.AAC5.1.HEVC-Vyndros.mkv (973.2 MB)
  • Suits.S07E15.Tiny.Violin.1080p.10bit.BluRay.AAC5.1.HEVC-Vyndros.mkv (857.1 MB)
  • Suits.S07E16.Good-Bye.1080p.10bit.BluRay.AAC5.1.HEVC-Vyndros.mkv (1.0 GB)

Mediainfo

General
Format : Matroska
Format version : Version 4 / Version 2
File size : 973 MiB
Duration : 44 min 25 s
Overall bit rate : 3 063 kb/s
Encoded date : UTC 2019-09-09 17:58:19
Writing application : mkvmerge v20.0.0 ('I Am The Sun') 64-bit
Writing library : libebml v1.3.5 + libmatroska v1.4.8
Writing frontend : StaxRip v1.7.0.6

Video
ID : 1
Format : HEVC
Format/Info : High Efficiency Video Coding
Format profile : Main [email protected]@Main
Codec ID : V_MPEGH/ISO/HEVC
Duration : 44 min 25 s
Bit rate : 2 591 kb/s
Width : 1 920 pixels
Height : 1 080 pixels
Display aspect ratio : 16:9
Frame rate mode : Constant
Frame rate : 23.976 (24000/1001) FPS
Color space : YUV
Chroma subsampling : 4:2:0
Bit depth : 10 bits
Bits/(Pixel*Frame) : 0.052
Stream size : 823 MiB (85%)
Writing library : x265 3.1+5-9c5c9cef2a86:[Windows][MSVC 1921][64 bit] 10bit
Encoding settings : cpuid=1111039 / frame-threads=2 / numa-pools=4 / wpp / no-pmode / no-pme / no-psnr / ssim / log-level=2 / input-csp=1 / input-res=1920x1080 / interlace=0 / total-frames=63912 / level-idc=0 / high-tier=1 / uhd-bd=0 / ref=3 / no-allow-non-conformance / no-repeat-headers / annexb / no-aud / no-hrd / info / hash=0 / no-temporal-layers / open-gop / min-keyint=23 / keyint=250 / gop-lookahead=0 / bframes=8 / b-adapt=2 / b-pyramid / bframe-bias=0 / rc-lookahead=80 / lookahead-slices=6 / scenecut=40 / radl=0 / no-splice / no-intra-refresh / ctu=64 / min-cu-size=8 / no-rect / no-amp / max-tu-size=32 / tu-inter-depth=1 / tu-intra-depth=1 / limit-tu=0 / rdoq-level=0 / dynamic-rd=0.00 / no-ssim-rd / signhide / no-tskip / nr-intra=0 / nr-inter=0 / no-constrained-intra / no-strong-intra-smoothing / max-merge=3 / limit-refs=1 / no-limit-modes / me=3 / subme=5 / merange=57 / temporal-mvp / weightp / no-weightb / no-analyze-src-pics / deblock=0:0 / sao / no-sao-non-deblock / rd=3 / early-skip / no-rskip / no-fast-intra / no-tskip-fast / no-cu-lossless / b-intra / no-splitrd-skip / rdpenalty=0 / psy-rd=2.00 / psy-rdoq=0.00 / no-rd-refine / no-lossless / cbqpoffs=0 / crqpoffs=0 / rc=crf / crf=20.0 / qcomp=0.60 / qpstep=4 / stats-write=0 / stats-read=0 / ipratio=1.40 / pbratio=1.30 / aq-mode=3 / aq-strength=1.00 / cutree / zone-count=0 / no-strict-cbr / qg-size=32 / no-rc-grain / qpmax=69 / qpmin=0 / no-const-vbv / sar=0 / overscan=0 / videoformat=5 / range=0 / colorprim=2 / transfer=2 / colormatrix=2 / chromaloc=0 / display-window=0cll=0,0 / min-luma=0 / max-luma=1023 / log2-max-poc-lsb=8 / vui-timing-info / vui-hrd-info / slices=1 / no-opt-qp-pps / no-opt-ref-list-length-pps / no-multi-pass-opt-rps / scenecut-bias=0.05 / no-opt-cu-delta-qp / no-aq-motion / no-hdr / no-hdr-opt / no-dhdr10-opt / no-idr-recovery-sei / analysis-reuse-level=5 / scale-factor=0 / refine-intra=0 / refine-inter=0 / refine-mv=0 / refine-ctu-distortion=0 / no-limit-sao / ctu-info=0 / no-lowpass-dct / refine-analysis-type=0 / copy-pic=1 / max-ausize-factor=1.0 / no-dynamic-refine / no-single-sei / no-hevc-aq / no-svt / no-field / qp-adaptation-range=1.00
Default : Yes
Forced : No

Audio
ID : 2
Format : AAC
Format/Info : Advanced Audio Codec
Format profile : LC
Codec ID : A_AAC
Duration : 44 min 25 s
Bit rate : 447 kb/s
Channel(s) : 6 channels
Channel positions : Front: L C R, Side: L R, LFE
Sampling rate : 48.0 kHz
Frame rate : 46.875 FPS (1024 spf)
Compression mode : Lossy
Stream size : 142 MiB (15%)
Language : English
Default : Yes
Forced : No

Subtitle
ID : 3
Format : PGS
Muxing mode : zlib
Codec ID : S_HDMV/PGS
Codec ID/Info : Picture based subtitle format used on BDs/HD-DVDs
Duration : 43 min 52 s
Bit rate : 77.5 kb/s
Count of elements : 1994
Stream size : 24.3 MiB (2%)
Language : English
Default : No
Forced : No

Screens

Download

Download: Google Drive

Season 8

Suits (2011) Season 8 S08 (1080p BluRay x265 HEVC 10bit AAC 5.1 Vyndros)

Files

  • Suits.S08E01.Right-Hand.Man.1080p.10bit.BluRay.AAC5.1.HEVC-Vyndros.mkv (779.2 MB)
  • Suits.S08E02.Pecking.Order.1080p.10bit.BluRay.AAC5.1.HEVC-Vyndros.mkv (690.8 MB)
  • Suits.S08E03.Promises,.Promises.1080p.10bit.BluRay.AAC5.1.HEVC-Vyndros.mkv (690.8 MB)
  • Suits.S08E04.Revenue.Per.Square.Foot.1080p.10bit.BluRay.AAC5.1.HEVC-Vyndros.mkv (693.8 MB)
  • Suits.S08E05.Good.Mudding.1080p.10bit.BluRay.AAC5.1.HEVC-Vyndros.mkv (710.3 MB)
  • Suits.S08E06.Cats,.Ballet,.Harvey.Specter.1080p.10bit.BluRay.AAC5.1.HEVC-Vyndros.mkv (704.2 MB)
  • Suits.S08E07.Sour.Grapes.1080p.10bit.BluRay.AAC5.1.HEVC-Vyndros.mkv (725.7 MB)
  • Suits.S08E08.Coral.Gables.1080p.10bit.BluRay.AAC5.1.HEVC-Vyndros.mkv (768.2 MB)
  • Suits.S08E09.Motion.to.Delay.1080p.10bit.BluRay.AAC5.1.HEVC-Vyndros.mkv (704.6 MB)
  • Suits.S08E10.Managing.Partner.1080p.10bit.BluRay.AAC5.1.HEVC-Vyndros.mkv (749.8 MB)
  • Suits.S08E11.Rocky.8.1080p.10bit.BluRay.AAC5.1.HEVC-Vyndros.mkv (763.2 MB)
  • Suits.S08E12.Whale.Hunt.1080p.10bit.BluRay.AAC5.1.HEVC-Vyndros.mkv (720.3 MB)
  • Suits.S08E13.The.Greater.Good.1080p.10bit.BluRay.AAC5.1.HEVC-Vyndros.mkv (676.3 MB)
  • Suits.S08E14.Peas.in.a.Pod.1080p.10bit.BluRay.AAC5.1.HEVC-Vyndros.mkv (684.4 MB)
  • Suits.S08E15.Stalking.Horse.1080p.10bit.BluRay.AAC5.1.HEVC-Vyndros.mkv (652.6 MB)
  • Suits.S08E16.Harvey.1080p.10bit.BluRay.AAC5.1.HEVC-Vyndros.mkv (639.2 MB)

Mediainfo

General
Format : Matroska
Format version : Version 4 / Version 2
File size : 684 MiB
Duration : 43 min 46 s
Overall bit rate : 2 186 kb/s
Movie name : Suits - S08E14 - Peas in a Pod
Encoded date : UTC 2019-08-04 17:15:07
Writing application : mkvmerge v20.0.0 ('I Am The Sun') 64-bit
Writing library : libebml v1.3.5 + libmatroska v1.4.8
Writing frontend : StaxRip v1.7.0.6

Video
ID : 1
Format : HEVC
Format/Info : High Efficiency Video Coding
Format profile : Main [email protected]@Main
Codec ID : V_MPEGH/ISO/HEVC
Duration : 43 min 46 s
Bit rate : 1 713 kb/s
Width : 1 920 pixels
Height : 1 080 pixels
Display aspect ratio : 16:9
Frame rate mode : Constant
Frame rate : 23.976 (24000/1001) FPS
Color space : YUV
Chroma subsampling : 4:2:0
Bit depth : 10 bits
Bits/(Pixel*Frame) : 0.034
Stream size : 536 MiB (78%)
Writing library : x265 3.1+5-9c5c9cef2a86:[Windows][MSVC 1921][64 bit] 10bit
Encoding settings : cpuid=1111039 / frame-threads=3 / numa-pools=12 / wpp / no-pmode / no-pme / no-psnr / ssim / log-level=2 / input-csp=1 / input-res=1920x1080 / interlace=0 / total-frames=62967 / level-idc=0 / high-tier=1 / uhd-bd=0 / ref=3 / no-allow-non-conformance / no-repeat-headers / annexb / no-aud / no-hrd / info / hash=0 / no-temporal-layers / open-gop / min-keyint=23 / keyint=250 / gop-lookahead=0 / bframes=8 / b-adapt=2 / b-pyramid / bframe-bias=0 / rc-lookahead=80 / lookahead-slices=6 / scenecut=40 / radl=0 / no-splice / no-intra-refresh / ctu=64 / min-cu-size=8 / no-rect / no-amp / max-tu-size=32 / tu-inter-depth=1 / tu-intra-depth=1 / limit-tu=0 / rdoq-level=0 / dynamic-rd=0.00 / no-ssim-rd / signhide / no-tskip / nr-intra=0 / nr-inter=0 / no-constrained-intra / no-strong-intra-smoothing / max-merge=3 / limit-refs=1 / no-limit-modes / me=3 / subme=5 / merange=57 / temporal-mvp / weightp / no-weightb / no-analyze-src-pics / deblock=0:0 / sao / no-sao-non-deblock / rd=3 / early-skip / no-rskip / no-fast-intra / no-tskip-fast / no-cu-lossless / b-intra / no-splitrd-skip / rdpenalty=0 / psy-rd=2.00 / psy-rdoq=0.00 / no-rd-refine / no-lossless / cbqpoffs=0 / crqpoffs=0 / rc=crf / crf=20.0 / qcomp=0.60 / qpstep=4 / stats-write=0 / stats-read=0 / ipratio=1.40 / pbratio=1.30 / aq-mode=3 / aq-strength=1.00 / cutree / zone-count=0 / no-strict-cbr / qg-size=32 / no-rc-grain / qpmax=69 / qpmin=0 / no-const-vbv / sar=0 / overscan=0 / videoformat=5 / range=0 / colorprim=2 / transfer=2 / colormatrix=2 / chromaloc=0 / display-window=0cll=0,0 / min-luma=0 / max-luma=1023 / log2-max-poc-lsb=8 / vui-timing-info / vui-hrd-info / slices=1 / no-opt-qp-pps / no-opt-ref-list-length-pps / no-multi-pass-opt-rps / scenecut-bias=0.05 / no-opt-cu-delta-qp / no-aq-motion / no-hdr / no-hdr-opt / no-dhdr10-opt / no-idr-recovery-sei / analysis-reuse-level=5 / scale-factor=0 / refine-intra=0 / refine-inter=0 / refine-mv=0 / refine-ctu-distortion=0 / no-limit-sao / ctu-info=0 / no-lowpass-dct / refine-analysis-type=0 / copy-pic=1 / max-ausize-factor=1.0 / no-dynamic-refine / no-single-sei / no-hevc-aq / no-svt / no-field / qp-adaptation-range=1.00
Default : Yes
Forced : No

Audio
ID : 2
Format : AAC
Format/Info : Advanced Audio Codec
Format profile : LC
Codec ID : A_AAC
Duration : 43 min 46 s
Bit rate : 447 kb/s
Channel(s) : 6 channels
Channel positions : Front: L C R, Side: L R, LFE
Sampling rate : 48.0 kHz
Frame rate : 46.875 FPS (1024 spf)
Compression mode : Lossy
Stream size : 140 MiB (20%)
Language : English
Default : Yes
Forced : Yes

Subtitle
ID : 3
Format : PGS
Muxing mode : zlib
Codec ID : S_HDMV/PGS
Codec ID/Info : Picture based subtitle format used on BDs/HD-DVDs
Duration : 43 min 18 s
Bit rate : 85.3 kb/s
Count of elements : 2096
Stream size : 26.4 MiB (4%)
Language : English
Default : No
Forced : No

Screens

Download

Download: Google Drive

Season 9

Suits (2011) Season 9 S09 (1080p BluRay x265 HEVC 10bit AAC 5.1 Vyndros)

Files

  • Suits.S09E01.Everything’s.Changed.1080p.10bit.BluRay.AAC5.1.HEVC-Vyndros.mkv (947.2 MB)
  • Suits.S09E01.Everything’s.Changed.1080p.10bit.BluRay.AAC5.1.HEVC-Vyndros.srt (71.9 KB)
  • Suits.S09E02.Special.Master.1080p.10bit.BluRay.AAC5.1.HEVC-Vyndros.mkv (1,015.9 MB)
  • Suits.S09E02.Special.Master.1080p.10bit.BluRay.AAC5.1.HEVC-Vyndros.srt (75.0 KB)
  • Suits.S09E03.Windmills.1080p.10bit.BluRay.AAC5.1.HEVC-Vyndros.mkv (846.9 MB)
  • Suits.S09E03.Windmills.1080p.10bit.BluRay.AAC5.1.HEVC-Vyndros.srt (78.7 KB)
  • Suits.S09E04.Cairo.1080p.10bit.BluRay.AAC5.1.HEVC-Vyndros.mkv (901.8 MB)
  • Suits.S09E04.Cairo.1080p.10bit.BluRay.AAC5.1.HEVC-Vyndros.srt (75.5 KB)
  • Suits.S09E05.If.the.Shoe.Fits.1080p.10bit.BluRay.AAC5.1.HEVC-Vyndros.mkv (918.1 MB)
  • Suits.S09E05.If.the.Shoe.Fits.1080p.10bit.BluRay.AAC5.1.HEVC-Vyndros.srt (81.9 KB)
  • Suits.S09E06.Whatever.It.Takes.1080p.10bit.BluRay.AAC5.1.HEVC-Vyndros.mkv (891.3 MB)
  • Suits.S09E06.Whatever.It.Takes.1080p.10bit.BluRay.AAC5.1.HEVC-Vyndros.srt (76.5 KB)
  • Suits.S09E07.Scenic.Route.1080p.10bit.BluRay.AAC5.1.HEVC-Vyndros.mkv (1.0 GB)
  • Suits.S09E07.Scenic.Route.1080p.10bit.BluRay.AAC5.1.HEVC-Vyndros.srt (70.3 KB)
  • Suits.S09E08.Prisoner’s.Dilemma.1080p.10bit.BluRay.AAC5.1.HEVC-Vyndros.mkv (896.2 MB)
  • Suits.S09E08.Prisoner’s.Dilemma.1080p.10bit.BluRay.AAC5.1.HEVC-Vyndros.srt (81.3 KB)
  • Suits.S09E09.Thunder.Away.1080p.10bit.BluRay.AAC5.1.HEVC-Vyndros.mkv (1.1 GB)
  • Suits.S09E09.Thunder.Away.1080p.10bit.BluRay.AAC5.1.HEVC-Vyndros.srt (78.9 KB)
  • Suits.S09E10.One.Last.Con.1080p.10bit.BluRay.AAC5.1.HEVC-Vyndros.mkv (1.1 GB)
  • Suits.S09E10.One.Last.Con.1080p.10bit.BluRay.AAC5.1.HEVC-Vyndros.srt (75.5 KB)

Mediainfo

General
Format : Matroska
Format version : Version 4 / Version 2
File size : 1.07 GiB
Duration : 45 min 55 s
Overall bit rate : 3 320 kb/s
Movie name : Suits S09E09 - Thunder Away
Encoded date : UTC 2020-05-10 22:59:55
Writing application : mkvmerge v46.0.0 ('No Deeper Escape') 64-bit
Writing library : libebml v1.3.10 + libmatroska v1.5.2
Writing frontend : StaxRip v1.7.0.6

Video
ID : 1
Format : HEVC
Format/Info : High Efficiency Video Coding
Format profile : Main [email protected]@Main
Codec ID : V_MPEGH/ISO/HEVC
Duration : 45 min 55 s
Bit rate : 2 929 kb/s
Width : 1 920 pixels
Height : 1 080 pixels
Display aspect ratio : 16:9
Frame rate mode : Constant
Frame rate : 23.976 (24000/1001) FPS
Color space : YUV
Chroma subsampling : 4:2:0
Bit depth : 10 bits
Bits/(Pixel*Frame) : 0.059
Stream size : 962 MiB (88%)
Writing library : x265 3.3+1-g554c887ac:[Windows][MSVC 1924][64 bit] 10bit
Encoding settings : cpuid=1111039 / frame-threads=3 / numa-pools=12 / wpp / no-pmode / no-pme / no-psnr / ssim / log-level=2 / input-csp=1 / input-res=1920x1080 / interlace=0 / total-frames=66072 / level-idc=0 / high-tier=1 / uhd-bd=0 / ref=3 / no-allow-non-conformance / no-repeat-headers / annexb / no-aud / no-hrd / info / hash=0 / no-temporal-layers / open-gop / min-keyint=23 / keyint=250 / gop-lookahead=0 / bframes=8 / b-adapt=2 / b-pyramid / bframe-bias=0 / rc-lookahead=80 / lookahead-slices=6 / scenecut=40 / hist-scenecut=0 / radl=0 / no-splice / no-intra-refresh / ctu=64 / min-cu-size=8 / no-rect / no-amp / max-tu-size=32 / tu-inter-depth=1 / tu-intra-depth=1 / limit-tu=0 / rdoq-level=0 / dynamic-rd=0.00 / no-ssim-rd / signhide / no-tskip / nr-intra=0 / nr-inter=0 / no-constrained-intra / no-strong-intra-smoothing / max-merge=3 / limit-refs=1 / no-limit-modes / me=3 / subme=5 / merange=57 / temporal-mvp / no-frame-dup / no-hme / weightp / no-weightb / no-analyze-src-pics / deblock=0:0 / sao / no-sao-non-deblock / rd=3 / selective-sao=4 / early-skip / no-rskip / no-fast-intra / no-tskip-fast / no-cu-lossless / b-intra / no-splitrd-skip / rdpenalty=0 / psy-rd=2.00 / psy-rdoq=0.00 / no-rd-refine / no-lossless / cbqpoffs=0 / crqpoffs=0 / rc=crf / crf=19.0 / qcomp=0.60 / qpstep=4 / stats-write=0 / stats-read=0 / ipratio=1.40 / pbratio=1.30 / aq-mode=3 / aq-strength=1.00 / cutree / zone-count=0 / no-strict-cbr / qg-size=32 / no-rc-grain / qpmax=69 / qpmin=0 / no-const-vbv / sar=0 / overscan=0 / videoformat=5 / range=0 / colorprim=2 / transfer=2 / colormatrix=2 / chromaloc=0 / display-window=0 / cll=0,0 / min-luma=0 / max-luma=1023 / log2-max-poc-lsb=8 / vui-timing-info / vui-hrd-info / slices=1 / no-opt-qp-pps / no-opt-ref-list-length-pps / no-multi-pass-opt-rps / scenecut-bias=0.05 / hist-threshold=0.01 / no-opt-cu-delta-qp / no-aq-motion / no-hdr10 / no-hdr10-opt / no-dhdr10-opt / no-idr-recovery-sei / analysis-reuse-level=0 / analysis-save-reuse-level=0 / analysis-load-reuse-level=0 / scale-factor=0 / refine-intra=0 / refine-inter=0 / refine-mv=1 / refine-ctu-distortion=0 / no-limit-sao / ctu-info=0 / no-lowpass-dct / refine-analysis-type=0 / copy-pic=1 / max-ausize-factor=1.0 / no-dynamic-refine / no-single-sei / no-hevc-aq / no-svt / no-field / qp-adaptation-range=1.00 / no-scenecut-aware-qpconformance-window-offsets / right=0 / bottom=0
Default : Yes
Forced : No

Audio
ID : 2
Format : AAC
Format/Info : Advanced Audio Codec
Format profile : LC
Codec ID : A_AAC
Duration : 45 min 55 s
Bit rate : 368 kb/s
Channel(s) : 6 channels
Channel positions : Front: L C R, Side: L R, LFE
Sampling rate : 48.0 kHz
Frame rate : 46.875 FPS (1024 spf)
Compression mode : Lossy
Delay relative to video : 20 ms
Stream size : 121 MiB (11%)
Language : English
Default : Yes
Forced : Yes

Subtitle
ID : 3
Format : PGS
Muxing mode : zlib
Codec ID : S_HDMV/PGS
Codec ID/Info : Picture based subtitle format used on BDs/HD-DVDs
Duration : 45 min 15 s
Bit rate : 77.0 kb/s
Count of elements : 2042
Stream size : 24.9 MiB (2%)
Language : English
Default : No
Forced : No

Screens

Download

Download: Google Drive

1 thought on “Suits (2011) Season 1-9 (1080p BluRay x265 HEVC 10bit AAC 5.1 Vyndros)

Leave a Reply