Star Wars: The Clone Wars (2008) Season 1-7 (1080p Mixed x265 HEVC 10bit AAC 5.1)

Summary: Yoda, Obi-Wan Kenobi, Anakin Skywalker, Mace Windu and other Jedi Knights lead the Grand Army of the Republic against the droid army of the Separatists.

Season 1

Star Wars The Clone Wars (2008) Season 1 S01 + Extras (1080p BluRay x265 HEVC 10bit AAC 5.1 RCVR)

Files

Star Wars The Clone Wars (2008) Season 1 S01 + Extras (1080p BluRay x265 HEVC 10bit AAC 5.1 RCVR)

  • Star Wars The Clone Wars (2008) – S01E01 – Ambush (1080p BluRay x265 RCVR).mkv (586.8 MB)
  • Star Wars The Clone Wars (2008) – S01E02 – Rising Malevolence (1080p BluRay x265 RCVR).mkv (572.7 MB)
  • Star Wars The Clone Wars (2008) – S01E03 – Shadow of Malevolence (1080p BluRay x265 RCVR).mkv (577.6 MB)
  • Star Wars The Clone Wars (2008) – S01E04 – Destroy Malevolence (1080p BluRay x265 RCVR).mkv (521.7 MB)
  • Star Wars The Clone Wars (2008) – S01E05 – Rookies (1080p BluRay x265 RCVR).mkv (559.5 MB)
  • Star Wars The Clone Wars (2008) – S01E06 – Downfall of a Droid (1080p BluRay x265 RCVR).mkv (448.4 MB)
  • Star Wars The Clone Wars (2008) – S01E07 – Duel of the Droids (1080p BluRay x265 RCVR).mkv (522.7 MB)
  • Star Wars The Clone Wars (2008) – S01E08 – Bombad Jedi (1080p BluRay x265 RCVR).mkv (581.9 MB)
  • Star Wars The Clone Wars (2008) – S01E09 – Cloak of Darkness (1080p BluRay x265 RCVR).mkv (529.2 MB)
  • Star Wars The Clone Wars (2008) – S01E10 – Lair of Grievous (1080p BluRay x265 RCVR).mkv (523.2 MB)
  • Star Wars The Clone Wars (2008) – S01E11 – Dooku Captured (1080p BluRay x265 RCVR).mkv (459.6 MB)
  • Star Wars The Clone Wars (2008) – S01E12 – The Gungan General (1080p BluRay x265 RCVR).mkv (529.2 MB)
  • Star Wars The Clone Wars (2008) – S01E13 – Jedi Crash (1080p BluRay x265 RCVR).mkv (603.3 MB)
  • Star Wars The Clone Wars (2008) – S01E14 – Defenders of Peace (1080p BluRay x265 RCVR).mkv (651.6 MB)
  • Star Wars The Clone Wars (2008) – S01E15 – Trespass (1080p BluRay x265 RCVR).mkv (647.0 MB)
  • Star Wars The Clone Wars (2008) – S01E16 – The Hidden Enemy (1080p BluRay x265 RCVR).mkv (552.9 MB)
  • Star Wars The Clone Wars (2008) – S01E17 – Blue Shadow Virus (1080p BluRay x265 RCVR).mkv (525.3 MB)
  • Star Wars The Clone Wars (2008) – S01E18 – Mystery of a Thousand Moons (1080p BluRay x265 RCVR).mkv (525.3 MB)
  • Star Wars The Clone Wars (2008) – S01E19 – Storm Over Ryloth (1080p BluRay x265 RCVR).mkv (571.4 MB)
  • Star Wars The Clone Wars (2008) – S01E20 – Innocents of Ryloth (1080p BluRay x265 RCVR).mkv (557.7 MB)
  • Star Wars The Clone Wars (2008) – S01E21 – Liberty on Ryloth (1080p BluRay x265 RCVR).mkv (556.6 MB)
  • Star Wars The Clone Wars (2008) – S01E22 – Hostage Crisis (1080p BluRay x265 RCVR).mkv (483.4 MB)

Featurettes

  • Menu Art.mkv (50.0 MB)

Behind The Scenes

  • Ambush.mkv (171.9 MB)
  • Blue Shadow Virus.mkv (146.5 MB)
  • Bombad Jedi.mkv (189.6 MB)
  • Cloak of Darkness.mkv (107.0 MB)
  • Defenders of Peace.mkv (137.4 MB)
  • Destroy Malevolence.mkv (122.0 MB)
  • Dooku Captured.mkv (161.1 MB)
  • Downfall of a Droid.mkv (139.6 MB)
  • Duel of the Droids.mkv (162.6 MB)
  • Hostage Crisis.mkv (192.5 MB)
  • Innocents of Ryloth.mkv (133.3 MB)
  • Jedi Crash.mkv (162.7 MB)
  • Lair of Grievous.mkv (200.5 MB)
  • Liberty on Ryloth.mkv (161.5 MB)
  • Mystery of a Thousand Moons.mkv (124.6 MB)
  • Republic Heroes Game Trailer.mkv (19.1 MB)
  • Rising Malevolence.mkv (183.8 MB)
  • Rookies.mkv (158.5 MB)
  • Season 2 Sneak Peek.mkv (53.3 MB)
  • Shadow of Malevolence.mkv (210.0 MB)
  • Starwars.com.mkv (40.5 MB)
  • Storm Over Ryloth.mkv (150.5 MB)
  • The Gungan General.mkv (108.2 MB)
  • The Hidden Enemy.mkv (153.3 MB)
  • Trespass.mkv (203.7 MB)

Jedi Temple Archives

  • Jedi Temple Archives – Disk 1.mkv (467.4 MB)
  • Jedi Temple Archives – Disk 2.mkv (400.3 MB)
  • Jedi Temple Archives – Disk 3.mkv (562.3 MB)

Mediainfo

General
Format : Matroska
Format version : Version 4 / Version 2
File size : 587 MiB
Duration : 22 min 38 s
Overall bit rate : 3 624 kb/s
Encoded date : UTC 2018-07-28 04:36:58
Writing application : mkvmerge v12.0.0 ('Trust / Lust') 64bit
Writing library : libebml v1.3.4 + libmatroska v1.4.5
Cover : Yes
Attachments : cover.jpg

Video
ID : 1
Format : HEVC
Format/Info : High Efficiency Video Coding
Format profile : Main [email protected]@Main
Codec ID : V_MPEGH/ISO/HEVC
Duration : 22 min 37 s
Bit rate : 2 361 kb/s
Width : 1 920 pixels
Height : 808 pixels
Display aspect ratio : 2.40:1
Frame rate mode : Constant
Frame rate : 23.976 (24000/1001) FPS
Color space : YUV
Chroma subsampling : 4:2:0
Bit depth : 10 bits
Bits/(Pixel*Frame) : 0.063
Stream size : 382 MiB (65%)
Writing library : x265 2.8+56-613074c6714f:[Windows][MSVC 1900][64 bit] 10bit
Encoding settings : cpuid=1111039 / frame-threads=3 / numa-pools=8 / wpp / no-pmode / no-pme / no-psnr / no-ssim / log-level=2 / input-csp=1 / input-res=1920x808 / interlace=0 / total-frames=32539 / level-idc=0 / high-tier=1 / uhd-bd=0 / ref=4 / no-allow-non-conformance / no-repeat-headers / annexb / no-aud / no-hrd / info / hash=0 / no-temporal-layers / open-gop / min-keyint=23 / keyint=250 / gop-lookahead=0 / bframes=8 / b-adapt=2 / b-pyramid / bframe-bias=0 / rc-lookahead=80 / lookahead-slices=4 / scenecut=40 / radl=0 / no-intra-refresh / ctu=64 / min-cu-size=8 / rect / no-amp / max-tu-size=32 / tu-inter-depth=1 / tu-intra-depth=1 / limit-tu=0 / rdoq-level=2 / dynamic-rd=0.00 / no-ssim-rd / signhide / no-tskip / nr-intra=0 / nr-inter=0 / no-constrained-intra / no-strong-intra-smoothing / max-merge=4 / limit-refs=3 / limit-modes / me=3 / subme=5 / merange=57 / temporal-mvp / weightp / weightb / no-analyze-src-pics / deblock=-3:-3 / no-sao / no-sao-non-deblock / rd=5 / no-early-skip / no-rskip / no-fast-intra / no-tskip-fast / no-cu-lossless / no-b-intra / no-splitrd-skip / rdpenalty=0 / psy-rd=1.50 / psy-rdoq=2.00 / no-rd-refine / no-lossless / cbqpoffs=0 / crqpoffs=0 / rc=crf / crf=21.5 / qcomp=0.60 / qpstep=4 / stats-write=0 / stats-read=0 / ipratio=1.40 / pbratio=1.30 / aq-mode=3 / aq-strength=1.00 / cutree / zone-count=0 / no-strict-cbr / qg-size=32 / no-rc-grain / qpmax=69 / qpmin=0 / no-const-vbv / sar=0 / overscan=0 / videoformat=5 / range=0 / colorprim=2 / transfer=2 / colormatrix=2 / chromaloc=0 / display-window=0 / max-cll=0,0 / min-luma=0 / max-luma=1023 / log2-max-poc-lsb=8 / vui-timing-info / vui-hrd-info / slices=1 / no-opt-qp-pps / no-opt-ref-list-length-pps / no-multi-pass-opt-rps / scenecut-bias=0.05 / no-opt-cu-delta-qp / no-aq-motion / no-hdr / no-hdr-opt / no-dhdr10-opt / no-idr-recovery-sei / analysis-reuse-level=5 / scale-factor=0 / refine-intra=0 / refine-inter=0 / refine-mv=0 / no-limit-sao / ctu-info=0 / no-lowpass-dct / refine-mv-type=0 / copy-pic=1 / max-ausize-factor=1.0 / no-dynamic-refine / no-single-sei
Default : Yes
Forced : No

Audio #1
ID : 2
Format : AAC
Format/Info : Advanced Audio Codec
Format profile : LC
Codec ID : A_AAC
Duration : 22 min 38 s
Bit rate : 459 kb/s
Channel(s) : 6 channels
Channel positions : Front: L C R, Side: L R, LFE
Sampling rate : 48.0 kHz
Frame rate : 46.875 FPS (1024 spf)
Compression mode : Lossy
Delay relative to video : 20 ms
Stream size : 74.3 MiB (13%)
Language : English
Default : Yes
Forced : No

Audio #2
ID : 3
Format : AAC
Format/Info : Advanced Audio Codec
Format profile : HE-AAC / LC
Codec ID : A_AAC
Duration : 22 min 38 s
Bit rate : 192 kb/s
Channel(s) : 6 channels
Channel positions : Front: L C R, Side: L R, LFE
Sampling rate : 48.0 kHz / 24.0 kHz
Frame rate : 23.438 FPS (1024 spf)
Compression mode : Lossy
Delay relative to video : 40 ms
Stream size : 31.1 MiB (5%)
Language : French
Default : No
Forced : No

Audio #3
ID : 4
Format : AAC
Format/Info : Advanced Audio Codec
Format profile : HE-AAC / LC
Codec ID : A_AAC
Duration : 22 min 38 s
Bit rate : 192 kb/s
Channel(s) : 6 channels
Channel positions : Front: L C R, Side: L R, LFE
Sampling rate : 48.0 kHz / 24.0 kHz
Frame rate : 23.438 FPS (1024 spf)
Compression mode : Lossy
Delay relative to video : 40 ms
Stream size : 31.1 MiB (5%)
Language : German
Default : No
Forced : No

Audio #4
ID : 5
Format : AAC
Format/Info : Advanced Audio Codec
Format profile : HE-AAC / LC
Codec ID : A_AAC
Duration : 22 min 38 s
Bit rate : 192 kb/s
Channel(s) : 6 channels
Channel positions : Front: L C R, Side: L R, LFE
Sampling rate : 48.0 kHz / 24.0 kHz
Frame rate : 23.438 FPS (1024 spf)
Compression mode : Lossy
Delay relative to video : 40 ms
Stream size : 31.1 MiB (5%)
Language : Spanish
Default : No
Forced : No

Audio #5
ID : 6
Format : AAC
Format/Info : Advanced Audio Codec
Format profile : HE-AAC / LC
Codec ID : A_AAC
Duration : 22 min 38 s
Bit rate : 192 kb/s
Channel(s) : 6 channels
Channel positions : Front: L C R, Side: L R, LFE
Sampling rate : 48.0 kHz / 24.0 kHz
Frame rate : 23.438 FPS (1024 spf)
Compression mode : Lossy
Delay relative to video : 40 ms
Stream size : 31.1 MiB (5%)
Language : Spanish
Default : No
Forced : No

Subtitle #1
ID : 7
Format : VobSub
Muxing mode : zlib
Codec ID : S_VOBSUB
Codec ID/Info : Picture based subtitle format used on DVDs
Duration : 22 min 16 s
Bit rate : 6 486 b/s
Count of elements : 252
Stream size : 1.03 MiB (0%)
Language : English
Default : No
Forced : No

Subtitle #2
ID : 8
Format : VobSub
Muxing mode : zlib
Codec ID : S_VOBSUB
Codec ID/Info : Picture based subtitle format used on DVDs
Duration : 22 min 22 s
Bit rate : 7 134 b/s
Count of elements : 243
Stream size : 1.14 MiB (0%)
Language : French
Default : No
Forced : No

Subtitle #3
ID : 9
Format : VobSub
Muxing mode : zlib
Codec ID : S_VOBSUB
Codec ID/Info : Picture based subtitle format used on DVDs
Duration : 22 min 22 s
Bit rate : 7 592 b/s
Count of elements : 253
Stream size : 1.22 MiB (0%)
Language : German
Default : No
Forced : No

Subtitle #4
ID : 10
Format : VobSub
Muxing mode : zlib
Codec ID : S_VOBSUB
Codec ID/Info : Picture based subtitle format used on DVDs
Duration : 22 min 22 s
Bit rate : 5 944 b/s
Count of elements : 229
Stream size : 974 KiB (0%)
Language : Spanish
Default : No
Forced : No

Subtitle #5
ID : 11
Format : VobSub
Muxing mode : zlib
Codec ID : S_VOBSUB
Codec ID/Info : Picture based subtitle format used on DVDs
Duration : 22 min 33 s
Bit rate : 6 200 b/s
Count of elements : 230
Stream size : 1.00 MiB (0%)
Language : Spanish
Default : No
Forced : No

Menu
00:00:00.000 : en:Chapter 01
00:07:08.177 : en:Chapter 02
00:15:07.072 : en:Chapter 03
00:21:57.065 : en:Chapter 04

Screens

Download

Season: Google Drive (11.80 GB)

Extras: Google Drive (4.95 GB)

Season 2

Star Wars The Clone Wars (2008) Season 2 S02 + Extras (1080p BluRay x265 HEVC 10bit AAC 5.1 RCVR)

Files

Star Wars The Clone Wars (2008) Season 2 S02 + Extras (1080p BluRay x265 HEVC 10bit AAC 5.1 RCVR)

  • Star Wars The Clone Wars (2008) – S02E01 – Holocron Heist (1080p BluRay x265 RCVR).mkv (468.0 MB)
  • Star Wars The Clone Wars (2008) – S02E02 – Cargo of Doom (1080p BluRay x265 RCVR).mkv (493.5 MB)
  • Star Wars The Clone Wars (2008) – S02E03 – Children of the Force (1080p BluRay x265 RCVR).mkv (471.9 MB)
  • Star Wars The Clone Wars (2008) – S02E04 – Senate Spy (1080p BluRay x265 RCVR).mkv (402.8 MB)
  • Star Wars The Clone Wars (2008) – S02E05 – Landing at Point Rain (1080p BluRay x265 RCVR).mkv (617.5 MB)
  • Star Wars The Clone Wars (2008) – S02E06 – Weapons Factory (1080p BluRay x265 RCVR).mkv (540.1 MB)
  • Star Wars The Clone Wars (2008) – S02E07 – Legacy of Terror (1080p BluRay x265 RCVR).mkv (516.5 MB)
  • Star Wars The Clone Wars (2008) – S02E08 – Brain Invaders (1080p BluRay x265 RCVR).mkv (470.8 MB)
  • Star Wars The Clone Wars (2008) – S02E09 – Grievous Intrigue (1080p BluRay x265 RCVR).mkv (580.1 MB)
  • Star Wars The Clone Wars (2008) – S02E10 – The Deserter (1080p BluRay x265 RCVR).mkv (476.7 MB)
  • Star Wars The Clone Wars (2008) – S02E11 – Lightsaber Lost (1080p BluRay x265 RCVR).mkv (462.9 MB)
  • Star Wars The Clone Wars (2008) – S02E12 – The Mandalore Plot (1080p BluRay x265 RCVR).mkv (469.7 MB)
  • Star Wars The Clone Wars (2008) – S02E13 – Voyage of Temptation (1080p BluRay x265 RCVR).mkv (484.4 MB)
  • Star Wars The Clone Wars (2008) – S02E14 – Duchess of Mandalore (1080p BluRay x265 RCVR).mkv (469.1 MB)
  • Star Wars The Clone Wars (2008) – S02E15 – Senate Murders (1080p BluRay x265 RCVR).mkv (465.5 MB)
  • Star Wars The Clone Wars (2008) – S02E16 – Cat and Mouse (1080p BluRay x265 RCVR).mkv (500.4 MB)
  • Star Wars The Clone Wars (2008) – S02E17 – Bounty Hunters (1080p BluRay x265 RCVR).mkv (645.3 MB)
  • Star Wars The Clone Wars (2008) – S02E18 – Zillo Beast (1080p BluRay x265 RCVR).mkv (520.9 MB)
  • Star Wars The Clone Wars (2008) – S02E19 – The Zillo Beast Strikes Back (1080p BluRay x265 RCVR).mkv (495.1 MB)
  • Star Wars The Clone Wars (2008) – S02E20 – Death Trap (1080p BluRay x265 RCVR).mkv (465.6 MB)
  • Star Wars The Clone Wars (2008) – S02E21 – R2 Come Home (1080p BluRay x265 RCVR).mkv (463.7 MB)
  • Star Wars The Clone Wars (2008) – S02E22 – Lethal Trackdown (1080p BluRay x265 RCVR).mkv (515.0 MB)

Featurettes

  • Attack of the Zillo Beast.mkv (300.7 MB)
  • Creating Mandalore.mkv (401.6 MB)
  • Magic of the Holocron Episodes.mkv (310.7 MB)
  • Return to Geonosis.mkv (365.6 MB)

Easter Eggs

  • Jedi Library Easter Egg.mkv (13.5 MB)
  • Malastare Easter Egg.mkv (16.0 MB)
  • Ord Enisence Easter Egg.mkv (18.3 MB)

Jedi Temple Archives

  • Intro.mkv (19.6 MB)

Disk 1

  • 2D Artwork.mkv (36.2 MB)
  • Brain Invaders.mkv (50.0 MB)
  • Cargo of Doom.mkv (79.8 MB)
  • Children of the Force.mkv (58.4 MB)
  • Holocron Heist.mkv (75.4 MB)
  • Landing at Point Rain.mkv (44.4 MB)
  • Legacy of Terror.mkv (48.9 MB)
  • Senate Spy.mkv (44.4 MB)
  • Weapons Factory.mkv (72.6 MB)

Disk 2

  • 2D Artwork.mkv (29.1 MB)
  • Duchess of Mandalore.mkv (39.0 MB)
  • Grievous Intrigue.mkv (23.1 MB)
  • Lightsaber Lost.mkv (79.1 MB)
  • Senate Murders.mkv (23.8 MB)
  • The Deserter.mkv (58.4 MB)
  • The Mandalore Plot.mkv (22.5 MB)
  • Voyage of Temptation.mkv (18.8 MB)

Disk 3

  • 2D Artwork.mkv (29.2 MB)
  • Bounty Hunters.mkv (39.7 MB)
  • Cat and Mouse.mkv (59.4 MB)
  • Death Trap.mkv (24.3 MB)
  • Lethal Trackdown.mkv (87.9 MB)
  • R2 Come Home.mkv (28.3 MB)
  • The Zillo Beast Strikes Back.mkv (53.9 MB)
  • The Zillo Beast.mkv (86.3 MB)

Trailers

  • Clone Wars Adventures.mkv (42.9 MB)
  • The Force Unleashed II.mkv (45.2 MB)

Mediainfo

General
Format : Matroska
Format version : Version 4 / Version 2
File size : 468 MiB
Duration : 22 min 34 s
Overall bit rate : 2 898 kb/s
Encoded date : UTC 2018-08-04 21:42:59
Writing application : mkvmerge v12.0.0 ('Trust / Lust') 64bit
Writing library : libebml v1.3.4 + libmatroska v1.4.5
Cover : Yes
Attachments : cover.jpg

Video
ID : 1
Format : HEVC
Format/Info : High Efficiency Video Coding
Format profile : Main [email protected]@Main
Codec ID : V_MPEGH/ISO/HEVC
Duration : 22 min 34 s
Bit rate : 1 642 kb/s
Width : 1 920 pixels
Height : 808 pixels
Display aspect ratio : 2.40:1
Frame rate mode : Constant
Frame rate : 23.976 (24000/1001) FPS
Color space : YUV
Chroma subsampling : 4:2:0
Bit depth : 10 bits
Bits/(Pixel*Frame) : 0.044
Stream size : 265 MiB (57%)
Writing library : x265 2.8+56-613074c6714f:[Windows][MSVC 1900][64 bit] 10bit
Encoding settings : cpuid=1111039 / frame-threads=3 / numa-pools=8 / wpp / no-pmode / no-pme / no-psnr / no-ssim / log-level=2 / input-csp=1 / input-res=1920x808 / interlace=0 / total-frames=32473 / level-idc=0 / high-tier=1 / uhd-bd=0 / ref=4 / no-allow-non-conformance / no-repeat-headers / annexb / no-aud / no-hrd / info / hash=0 / no-temporal-layers / open-gop / min-keyint=23 / keyint=250 / gop-lookahead=0 / bframes=8 / b-adapt=2 / b-pyramid / bframe-bias=0 / rc-lookahead=80 / lookahead-slices=4 / scenecut=40 / radl=0 / no-intra-refresh / ctu=64 / min-cu-size=8 / rect / no-amp / max-tu-size=32 / tu-inter-depth=1 / tu-intra-depth=1 / limit-tu=0 / rdoq-level=2 / dynamic-rd=0.00 / no-ssim-rd / signhide / no-tskip / nr-intra=0 / nr-inter=0 / no-constrained-intra / no-strong-intra-smoothing / max-merge=4 / limit-refs=3 / limit-modes / me=3 / subme=5 / merange=57 / temporal-mvp / weightp / weightb / no-analyze-src-pics / deblock=-3:-3 / no-sao / no-sao-non-deblock / rd=5 / no-early-skip / no-rskip / no-fast-intra / no-tskip-fast / no-cu-lossless / no-b-intra / no-splitrd-skip / rdpenalty=0 / psy-rd=1.50 / psy-rdoq=2.00 / no-rd-refine / no-lossless / cbqpoffs=0 / crqpoffs=0 / rc=crf / crf=21.5 / qcomp=0.60 / qpstep=4 / stats-write=0 / stats-read=0 / ipratio=1.40 / pbratio=1.30 / aq-mode=3 / aq-strength=1.00 / cutree / zone-count=0 / no-strict-cbr / qg-size=32 / no-rc-grain / qpmax=69 / qpmin=0 / no-const-vbv / sar=0 / overscan=0 / videoformat=5 / range=0 / colorprim=2 / transfer=2 / colormatrix=2 / chromaloc=0 / display-window=0 / max-cll=0,0 / min-luma=0 / max-luma=1023 / log2-max-poc-lsb=8 / vui-timing-info / vui-hrd-info / slices=1 / no-opt-qp-pps / no-opt-ref-list-length-pps / no-multi-pass-opt-rps / scenecut-bias=0.05 / no-opt-cu-delta-qp / no-aq-motion / no-hdr / no-hdr-opt / no-dhdr10-opt / no-idr-recovery-sei / analysis-reuse-level=5 / scale-factor=0 / refine-intra=0 / refine-inter=0 / refine-mv=0 / no-limit-sao / ctu-info=0 / no-lowpass-dct / refine-mv-type=0 / copy-pic=1 / max-ausize-factor=1.0 / no-dynamic-refine / no-single-sei
Default : Yes
Forced : No

Audio #1
ID : 2
Format : AAC
Format/Info : Advanced Audio Codec
Format profile : LC
Codec ID : A_AAC
Duration : 22 min 34 s
Bit rate : 446 kb/s
Channel(s) : 6 channels
Channel positions : Front: L C R, Side: L R, LFE
Sampling rate : 48.0 kHz
Frame rate : 46.875 FPS (1024 spf)
Compression mode : Lossy
Delay relative to video : 20 ms
Stream size : 71.9 MiB (15%)
Language : English
Default : Yes
Forced : No

Audio #2
ID : 3
Format : AAC
Format/Info : Advanced Audio Codec
Format profile : HE-AAC / LC
Codec ID : A_AAC
Duration : 22 min 34 s
Bit rate : 192 kb/s
Channel(s) : 6 channels
Channel positions : Front: L C R, Side: L R, LFE
Sampling rate : 48.0 kHz / 24.0 kHz
Frame rate : 23.438 FPS (1024 spf)
Compression mode : Lossy
Delay relative to video : 40 ms
Stream size : 31.0 MiB (7%)
Language : French
Default : No
Forced : No

Audio #3
ID : 4
Format : AAC
Format/Info : Advanced Audio Codec
Format profile : HE-AAC / LC
Codec ID : A_AAC
Duration : 22 min 34 s
Bit rate : 192 kb/s
Channel(s) : 6 channels
Channel positions : Front: L C R, Side: L R, LFE
Sampling rate : 48.0 kHz / 24.0 kHz
Frame rate : 23.438 FPS (1024 spf)
Compression mode : Lossy
Delay relative to video : 40 ms
Stream size : 31.0 MiB (7%)
Language : German
Default : No
Forced : No

Audio #4
ID : 5
Format : AAC
Format/Info : Advanced Audio Codec
Format profile : HE-AAC / LC
Codec ID : A_AAC
Duration : 22 min 34 s
Bit rate : 192 kb/s
Channel(s) : 6 channels
Channel positions : Front: L C R, Side: L R, LFE
Sampling rate : 48.0 kHz / 24.0 kHz
Frame rate : 23.438 FPS (1024 spf)
Compression mode : Lossy
Delay relative to video : 40 ms
Stream size : 31.0 MiB (7%)
Language : Spanish
Default : No
Forced : No

Audio #5
ID : 6
Format : AAC
Format/Info : Advanced Audio Codec
Format profile : HE-AAC / LC
Codec ID : A_AAC
Duration : 22 min 34 s
Bit rate : 192 kb/s
Channel(s) : 6 channels
Channel positions : Front: L C R, Side: L R, LFE
Sampling rate : 48.0 kHz / 24.0 kHz
Frame rate : 23.438 FPS (1024 spf)
Compression mode : Lossy
Delay relative to video : 40 ms
Stream size : 31.0 MiB (7%)
Language : Spanish
Default : No
Forced : No

Subtitle #1
ID : 7
Format : VobSub
Muxing mode : zlib
Codec ID : S_VOBSUB
Codec ID/Info : Picture based subtitle format used on DVDs
Duration : 22 min 13 s
Bit rate : 7 733 b/s
Count of elements : 271
Stream size : 1.23 MiB (0%)
Language : English
Default : No
Forced : No

Subtitle #2
ID : 8
Format : VobSub
Muxing mode : zlib
Codec ID : S_VOBSUB
Codec ID/Info : Picture based subtitle format used on DVDs
Duration : 22 min 19 s
Bit rate : 7 967 b/s
Count of elements : 256
Stream size : 1.27 MiB (0%)
Language : French
Default : No
Forced : No

Subtitle #3
ID : 9
Format : VobSub
Muxing mode : zlib
Codec ID : S_VOBSUB
Codec ID/Info : Picture based subtitle format used on DVDs
Duration : 22 min 19 s
Bit rate : 8 620 b/s
Count of elements : 272
Stream size : 1.38 MiB (0%)
Language : German
Default : No
Forced : No

Subtitle #4
ID : 10
Format : VobSub
Muxing mode : zlib
Codec ID : S_VOBSUB
Codec ID/Info : Picture based subtitle format used on DVDs
Duration : 22 min 19 s
Bit rate : 6 863 b/s
Count of elements : 258
Stream size : 1.10 MiB (0%)
Language : Spanish
Default : No
Forced : No

Subtitle #5
ID : 11
Format : VobSub
Muxing mode : zlib
Codec ID : S_VOBSUB
Codec ID/Info : Picture based subtitle format used on DVDs
Duration : 22 min 30 s
Bit rate : 6 994 b/s
Count of elements : 257
Stream size : 1.13 MiB (0%)
Language : Spanish
Default : No
Forced : No

Menu
00:00:00.000 : en:Chapter 01
00:06:11.996 : en:Chapter 02
00:14:35.374 : en:Chapter 03
00:20:42.241 : en:Chapter 04
00:22:34.186 : en:Chapter 05

Screens

Download

Season: Google Drive (10.74 GB)

Extras: Google Drive (2.68 GB)

Season 3

Star Wars The Clone Wars (2008) Season 3 S03 + Extras (1080p BluRay x265 HEVC 10bit AAC 5.1 RCVR)

Files

Star Wars The Clone Wars (2008) Season 3 S03 + Extras (1080p BluRay x265 HEVC 10bit AAC 5.1 RCVR)

  • Star Wars The Clone Wars (2008) – S03E01 – Clone Cadets (1080p BluRay x265 RCVR).mkv (534.5 MB)
  • Star Wars The Clone Wars (2008) – S03E02 – ARC Troopers (1080p BluRay x265 RCVR).mkv (525.8 MB)
  • Star Wars The Clone Wars (2008) – S03E03 – Supply Lines (1080p BluRay x265 RCVR).mkv (542.0 MB)
  • Star Wars The Clone Wars (2008) – S03E04 – Sphere of Influence (1080p BluRay x265 RCVR).mkv (325.7 MB)
  • Star Wars The Clone Wars (2008) – S03E05 – Corruption (1080p BluRay x265 RCVR).mkv (465.8 MB)
  • Star Wars The Clone Wars (2008) – S03E06 – The Academy (1080p BluRay x265 RCVR).mkv (449.4 MB)
  • Star Wars The Clone Wars (2008) – S03E07 – Assassin (1080p BluRay x265 RCVR).mkv (436.9 MB)
  • Star Wars The Clone Wars (2008) – S03E08 – Evil Plans (1080p BluRay x265 RCVR).mkv (532.5 MB)
  • Star Wars The Clone Wars (2008) – S03E09 – Hunt for Ziro (1080p BluRay x265 RCVR).mkv (472.7 MB)
  • Star Wars The Clone Wars (2008) – S03E10 – Heroes on Both Sides (1080p BluRay x265 RCVR).mkv (445.4 MB)
  • Star Wars The Clone Wars (2008) – S03E11 – Pursuit of Peace (1080p BluRay x265 RCVR).mkv (474.9 MB)
  • Star Wars The Clone Wars (2008) – S03E12 – Nightsisters (1080p BluRay x265 RCVR).mkv (504.1 MB)
  • Star Wars The Clone Wars (2008) – S03E13 – Monster (1080p BluRay x265 RCVR).mkv (467.1 MB)
  • Star Wars The Clone Wars (2008) – S03E14 – Witches of the Mist (1080p BluRay x265 RCVR).mkv (523.6 MB)
  • Star Wars The Clone Wars (2008) – S03E15 – Overlords (1080p BluRay x265 RCVR).mkv (526.5 MB)
  • Star Wars The Clone Wars (2008) – S03E16 – Altar of Mortis (1080p BluRay x265 RCVR).mkv (455.5 MB)
  • Star Wars The Clone Wars (2008) – S03E17 – Ghosts of Mortis (1080p BluRay x265 RCVR).mkv (451.8 MB)
  • Star Wars The Clone Wars (2008) – S03E18 – The Citadel (1080p BluRay x265 RCVR).mkv (484.0 MB)
  • Star Wars The Clone Wars (2008) – S03E19 – Counterattack (1080p BluRay x265 RCVR).mkv (480.1 MB)
  • Star Wars The Clone Wars (2008) – S03E20 – Citadel Rescue (1080p BluRay x265 RCVR).mkv (550.5 MB)
  • Star Wars The Clone Wars (2008) – S03E21 – Padawan Lost (1080p BluRay x265 RCVR).mkv (571.7 MB)
  • Star Wars The Clone Wars (2008) – S03E22 – Wookiee Hunt (1080p BluRay x265 RCVR).mkv (540.7 MB)

Featurettes

  • Chewbacca Returns.mkv (468.7 MB)
  • Creating Kamino.mkv (338.8 MB)
  • Hutts and the Underworld.mkv (475.4 MB)
  • Jedi Temple Archives – Disk 1.mkv (379.2 MB)
  • Jedi Temple Archives – Disk 2.mkv (478.0 MB)
  • Jedi Temple Archives – Disk 3.mkv (468.5 MB)
  • Menu Art.mkv (8.4 MB)
  • Secrets of Mortis.mkv (51.0 MB)
  • Witches and Monsters.mkv (353.7 MB)

Mediainfo

General
Format : Matroska
Format version : Version 4 / Version 2
File size : 534 MiB
Duration : 22 min 35 s
Overall bit rate : 3 308 kb/s
Encoded date : UTC 2018-08-02 00:28:33
Writing application : mkvmerge v12.0.0 ('Trust / Lust') 64bit
Writing library : libebml v1.3.4 + libmatroska v1.4.5

Video
ID : 1
Format : HEVC
Format/Info : High Efficiency Video Coding
Format profile : Main [email protected]@Main
Codec ID : V_MPEGH/ISO/HEVC
Duration : 22 min 35 s
Width : 1 920 pixels
Height : 816 pixels
Display aspect ratio : 2.35:1
Frame rate mode : Constant
Frame rate : 23.976 (24000/1001) FPS
Color space : YUV
Chroma subsampling : 4:2:0
Bit depth : 10 bits
Writing library : x265 2.8+56-613074c6714f:[Windows][MSVC 1900][64 bit] 10bit
Encoding settings : cpuid=1111039 / frame-threads=3 / numa-pools=8 / wpp / no-pmode / no-pme / no-psnr / no-ssim / log-level=2 / input-csp=1 / input-res=1920x816 / interlace=0 / total-frames=32497 / level-idc=0 / high-tier=1 / uhd-bd=0 / ref=5 / no-allow-non-conformance / no-repeat-headers / annexb / no-aud / no-hrd / info / hash=0 / no-temporal-layers / open-gop / min-keyint=23 / keyint=250 / gop-lookahead=0 / bframes=8 / b-adapt=2 / b-pyramid / bframe-bias=0 / rc-lookahead=80 / lookahead-slices=4 / scenecut=40 / radl=0 / no-intra-refresh / ctu=64 / min-cu-size=8 / rect / no-amp / max-tu-size=32 / tu-inter-depth=1 / tu-intra-depth=1 / limit-tu=0 / rdoq-level=2 / dynamic-rd=0.00 / no-ssim-rd / signhide / no-tskip / nr-intra=0 / nr-inter=0 / no-constrained-intra / no-strong-intra-smoothing / max-merge=4 / limit-refs=3 / limit-modes / me=3 / subme=6 / merange=57 / temporal-mvp / weightp / weightb / no-analyze-src-pics / deblock=-3:-3 / no-sao / no-sao-non-deblock / rd=5 / no-early-skip / no-rskip / no-fast-intra / no-tskip-fast / no-cu-lossless / no-b-intra / no-splitrd-skip / rdpenalty=0 / psy-rd=1.50 / psy-rdoq=2.00 / no-rd-refine / no-lossless / cbqpoffs=0 / crqpoffs=0 / rc=crf / crf=21.5 / qcomp=0.60 / qpstep=4 / stats-write=0 / stats-read=0 / ipratio=1.40 / pbratio=1.30 / aq-mode=3 / aq-strength=1.00 / cutree / zone-count=0 / no-strict-cbr / qg-size=32 / no-rc-grain / qpmax=69 / qpmin=0 / no-const-vbv / sar=0 / overscan=0 / videoformat=5 / range=0 / colorprim=2 / transfer=2 / colormatrix=2 / chromaloc=0 / display-window=0 / max-cll=0,0 / min-luma=0 / max-luma=1023 / log2-max-poc-lsb=8 / vui-timing-info / vui-hrd-info / slices=1 / no-opt-qp-pps / no-opt-ref-list-length-pps / no-multi-pass-opt-rps / scenecut-bias=0.05 / no-opt-cu-delta-qp / no-aq-motion / no-hdr / no-hdr-opt / no-dhdr10-opt / no-idr-recovery-sei / analysis-reuse-level=5 / scale-factor=0 / refine-intra=0 / refine-inter=0 / refine-mv=0 / no-limit-sao / ctu-info=0 / no-lowpass-dct / refine-mv-type=0 / copy-pic=1 / max-ausize-factor=1.0 / no-dynamic-refine / no-single-sei
Default : Yes
Forced : No

Audio #1
ID : 2
Format : AAC
Format/Info : Advanced Audio Codec
Format profile : LC
Codec ID : A_AAC
Duration : 22 min 35 s
Channel(s) : 6 channels
Channel positions : Front: L C R, Side: L R, LFE
Sampling rate : 48.0 kHz
Frame rate : 46.875 FPS (1024 spf)
Compression mode : Lossy
Delay relative to video : 20 ms
Language : English
Default : Yes
Forced : No

Audio #2
ID : 3
Format : AAC
Format/Info : Advanced Audio Codec
Format profile : HE-AAC / LC
Codec ID : A_AAC
Duration : 22 min 35 s
Channel(s) : 6 channels
Channel positions : Front: L C R, Side: L R, LFE
Sampling rate : 48.0 kHz / 24.0 kHz
Frame rate : 23.438 FPS (1024 spf)
Compression mode : Lossy
Delay relative to video : 40 ms
Language : French
Default : No
Forced : No

Audio #3
ID : 4
Format : AAC
Format/Info : Advanced Audio Codec
Format profile : HE-AAC / LC
Codec ID : A_AAC
Duration : 22 min 35 s
Channel(s) : 6 channels
Channel positions : Front: L C R, Side: L R, LFE
Sampling rate : 48.0 kHz / 24.0 kHz
Frame rate : 23.438 FPS (1024 spf)
Compression mode : Lossy
Delay relative to video : 40 ms
Language : German
Default : No
Forced : No

Audio #4
ID : 5
Format : AAC
Format/Info : Advanced Audio Codec
Format profile : HE-AAC / LC
Codec ID : A_AAC
Duration : 22 min 35 s
Channel(s) : 6 channels
Channel positions : Front: L C R, Side: L R, LFE
Sampling rate : 48.0 kHz / 24.0 kHz
Frame rate : 23.438 FPS (1024 spf)
Compression mode : Lossy
Delay relative to video : 40 ms
Language : Spanish
Default : No
Forced : No

Audio #5
ID : 6
Format : AAC
Format/Info : Advanced Audio Codec
Format profile : HE-AAC / LC
Codec ID : A_AAC
Duration : 22 min 35 s
Channel(s) : 6 channels
Channel positions : Front: L C R, Side: L R, LFE
Sampling rate : 48.0 kHz / 24.0 kHz
Frame rate : 23.438 FPS (1024 spf)
Compression mode : Lossy
Delay relative to video : 40 ms
Language : Spanish
Default : No
Forced : No

Subtitle #1
ID : 7
Format : VobSub
Muxing mode : zlib
Codec ID : S_VOBSUB
Codec ID/Info : Picture based subtitle format used on DVDs
Language : English
Default : No
Forced : No

Subtitle #2
ID : 8
Format : VobSub
Muxing mode : zlib
Codec ID : S_VOBSUB
Codec ID/Info : Picture based subtitle format used on DVDs
Language : French
Default : No
Forced : No

Subtitle #3
ID : 9
Format : VobSub
Muxing mode : zlib
Codec ID : S_VOBSUB
Codec ID/Info : Picture based subtitle format used on DVDs
Language : German
Default : No
Forced : No

Subtitle #4
ID : 10
Format : VobSub
Muxing mode : zlib
Codec ID : S_VOBSUB
Codec ID/Info : Picture based subtitle format used on DVDs
Language : Spanish
Default : No
Forced : No

Subtitle #5
ID : 11
Format : VobSub
Muxing mode : zlib
Codec ID : S_VOBSUB
Codec ID/Info : Picture based subtitle format used on DVDs
Language : Spanish
Default : No
Forced : No

Menu
00:00:00.000 : en:Chapter 01
00:07:14.892 : en:Chapter 02
00:13:30.434 : en:Chapter 03
00:21:56.064 : en:Chapter 04

Screens

Download

Season: Google Drive (10.51 GB)

Extras: Google Drive (2.95 GB)

Season 4

Star Wars The Clone Wars (2008) Season 4 S04 + Extras (1080p BluRay x265 HEVC 10bit AAC 5.1 RCVR)

Files

Star Wars The Clone Wars (2008) Season 4 S04 + Extras (1080p BluRay x265 HEVC 10bit AAC 5.1 RCVR)

  • Star Wars The Clone Wars (2008) – S04E01 – Water War (1080p BluRay x265 RCVR).mkv (566.2 MB)
  • Star Wars The Clone Wars (2008) – S04E02 – Gungan Attack (1080p BluRay x265 RCVR).mkv (508.0 MB)
  • Star Wars The Clone Wars (2008) – S04E03 – Prisoners (1080p BluRay x265 RCVR).mkv (614.4 MB)
  • Star Wars The Clone Wars (2008) – S04E04 – Shadow Warrior (1080p BluRay x265 RCVR).mkv (512.0 MB)
  • Star Wars The Clone Wars (2008) – S04E05 – Mercy Mission (1080p BluRay x265 RCVR).mkv (586.0 MB)
  • Star Wars The Clone Wars (2008) – S04E06 – Nomad Droids (1080p BluRay x265 RCVR).mkv (592.3 MB)
  • Star Wars The Clone Wars (2008) – S04E07 – Darkness on Umbara (1080p BluRay x265 RCVR).mkv (437.6 MB)
  • Star Wars The Clone Wars (2008) – S04E08 – The General (1080p BluRay x265 RCVR).mkv (485.2 MB)
  • Star Wars The Clone Wars (2008) – S04E09 – Plan of Dissent (1080p BluRay x265 RCVR).mkv (483.8 MB)
  • Star Wars The Clone Wars (2008) – S04E10 – Carnage of Krell (1080p BluRay x265 RCVR).mkv (434.7 MB)
  • Star Wars The Clone Wars (2008) – S04E11 – Kidnapped (1080p BluRay x265 RCVR).mkv (629.0 MB)
  • Star Wars The Clone Wars (2008) – S04E12 – Slaves of the Republic (1080p BluRay x265 RCVR).mkv (484.4 MB)
  • Star Wars The Clone Wars (2008) – S04E13 – Escape from Kadavo (1080p BluRay x265 RCVR).mkv (588.8 MB)
  • Star Wars The Clone Wars (2008) – S04E14 – A Friend in Need (1080p BluRay x265 RCVR).mkv (575.1 MB)
  • Star Wars The Clone Wars (2008) – S04E15 – Deception (1080p BluRay x265 RCVR).mkv (454.3 MB)
  • Star Wars The Clone Wars (2008) – S04E16 – Friends and Enemies (1080p BluRay x265 RCVR).mkv (491.8 MB)
  • Star Wars The Clone Wars (2008) – S04E17 – The Box (1080p BluRay x265 RCVR).mkv (695.1 MB)
  • Star Wars The Clone Wars (2008) – S04E18 – Crisis on Naboo (1080p BluRay x265 RCVR).mkv (503.0 MB)
  • Star Wars The Clone Wars (2008) – S04E19 – Massacre (1080p BluRay x265 RCVR).mkv (467.1 MB)
  • Star Wars The Clone Wars (2008) – S04E20 – Bounty (1080p BluRay x265 RCVR).mkv (514.7 MB)
  • Star Wars The Clone Wars (2008) – S04E21 – Brothers (1080p BluEaster EggsRay x265 RCVR).mkv (509.3 MB)
  • Star Wars The Clone Wars (2008) – S04E22 – Revenge (1080p BluRay x265 RCVR).mkv (518.5 MB)

Featurettes

  • Darkness World of Umbara.mkv (830.3 MB)
  • Darth Maul Returns.mkv (401.0 MB)
  • Jedi Temple Archives – Disk 1.mkv (327.9 MB)
  • Jedi Temple Archives – Disk 2.mkv (315.8 MB)
  • Jedi Temple Archives – Disk 3.mkv (236.8 MB)
  • Menu Art.mkv (5.5 MB)
  • Obi-Wan Undercover.mkv (810.7 MB)
  • Slaves of Zygerra.mkv (866.9 MB)
  • The Battle of Mon Cala.mkv (790.7 MB)

Easter Eggs

  • Darth Maul Returns Teaser.mkv (6.2 MB)
  • Making of 3D World Magazine Cover.mkv (2.6 MB)
  • Voicing an Army.mkv (32.5 MB)

Mediainfo

General
Format : Matroska
Format version : Version 4 / Version 2
File size : 566 MiB
Duration : 21 min 26 s
Overall bit rate : 3 693 kb/s
Encoded date : UTC 2018-08-06 20:20:21
Writing application : mkvmerge v12.0.0 ('Trust / Lust') 64bit
Writing library : libebml v1.3.4 + libmatroska v1.4.5
Cover : Yes
Attachments : cover.jpg

Video
ID : 1
Format : HEVC
Format/Info : High Efficiency Video Coding
Format profile : Main [email protected]@Main
Codec ID : V_MPEGH/ISO/HEVC
Duration : 21 min 26 s
Bit rate : 2 441 kb/s
Width : 1 920 pixels
Height : 816 pixels
Display aspect ratio : 2.35:1
Frame rate mode : Constant
Frame rate : 23.976 (24000/1001) FPS
Color space : YUV
Chroma subsampling : 4:2:0
Bit depth : 10 bits
Bits/(Pixel*Frame) : 0.065
Stream size : 374 MiB (66%)
Writing library : x265 2.8+56-613074c6714f:[Windows][MSVC 1900][64 bit] 10bit
Encoding settings : cpuid=1111039 / frame-threads=3 / numa-pools=8 / wpp / no-pmode / no-pme / no-psnr / no-ssim / log-level=2 / input-csp=1 / input-res=1920x816 / interlace=0 / total-frames=30838 / level-idc=0 / high-tier=1 / uhd-bd=0 / ref=5 / no-allow-non-conformance / no-repeat-headers / annexb / no-aud / no-hrd / info / hash=0 / no-temporal-layers / open-gop / min-keyint=23 / keyint=250 / gop-lookahead=0 / bframes=8 / b-adapt=2 / b-pyramid / bframe-bias=0 / rc-lookahead=80 / lookahead-slices=4 / scenecut=40 / radl=0 / no-intra-refresh / ctu=64 / min-cu-size=8 / rect / no-amp / max-tu-size=32 / tu-inter-depth=1 / tu-intra-depth=1 / limit-tu=0 / rdoq-level=2 / dynamic-rd=0.00 / no-ssim-rd / signhide / no-tskip / nr-intra=0 / nr-inter=0 / no-constrained-intra / no-strong-intra-smoothing / max-merge=4 / limit-refs=3 / limit-modes / me=3 / subme=5 / merange=57 / temporal-mvp / weightp / weightb / no-analyze-src-pics / deblock=-3:-3 / no-sao / no-sao-non-deblock / rd=5 / no-early-skip / no-rskip / no-fast-intra / no-tskip-fast / no-cu-lossless / no-b-intra / no-splitrd-skip / rdpenalty=0 / psy-rd=1.50 / psy-rdoq=2.00 / no-rd-refine / no-lossless / cbqpoffs=0 / crqpoffs=0 / rc=crf / crf=21.5 / qcomp=0.60 / qpstep=4 / stats-write=0 / stats-read=0 / ipratio=1.40 / pbratio=1.30 / aq-mode=3 / aq-strength=1.00 / cutree / zone-count=0 / no-strict-cbr / qg-size=32 / no-rc-grain / qpmax=69 / qpmin=0 / no-const-vbv / sar=0 / overscan=0 / videoformat=5 / range=0 / colorprim=2 / transfer=2 / colormatrix=2 / chromaloc=0 / display-window=0 / max-cll=0,0 / min-luma=0 / max-luma=1023 / log2-max-poc-lsb=8 / vui-timing-info / vui-hrd-info / slices=1 / no-opt-qp-pps / no-opt-ref-list-length-pps / no-multi-pass-opt-rps / scenecut-bias=0.05 / no-opt-cu-delta-qp / no-aq-motion / no-hdr / no-hdr-opt / no-dhdr10-opt / no-idr-recovery-sei / analysis-reuse-level=5 / scale-factor=0 / refine-intra=0 / refine-inter=0 / refine-mv=0 / no-limit-sao / ctu-info=0 / no-lowpass-dct / refine-mv-type=0 / copy-pic=1 / max-ausize-factor=1.0 / no-dynamic-refine / no-single-sei
Default : Yes
Forced : No

Audio #1
ID : 2
Format : AAC
Format/Info : Advanced Audio Codec
Format profile : LC
Codec ID : A_AAC
Duration : 21 min 26 s
Bit rate : 449 kb/s
Channel(s) : 6 channels
Channel positions : Front: L C R, Side: L R, LFE
Sampling rate : 48.0 kHz
Frame rate : 46.875 FPS (1024 spf)
Compression mode : Lossy
Delay relative to video : 20 ms
Stream size : 68.9 MiB (12%)
Language : English
Default : Yes
Forced : No

Audio #2
ID : 3
Format : AAC
Format/Info : Advanced Audio Codec
Format profile : HE-AAC / LC
Codec ID : A_AAC
Duration : 21 min 26 s
Bit rate : 192 kb/s
Channel(s) : 6 channels
Channel positions : Front: L C R, Side: L R, LFE
Sampling rate : 48.0 kHz / 24.0 kHz
Frame rate : 23.438 FPS (1024 spf)
Compression mode : Lossy
Delay relative to video : 40 ms
Stream size : 29.4 MiB (5%)
Language : French
Default : No
Forced : No

Audio #3
ID : 4
Format : AAC
Format/Info : Advanced Audio Codec
Format profile : HE-AAC / LC
Codec ID : A_AAC
Duration : 21 min 26 s
Bit rate : 192 kb/s
Channel(s) : 6 channels
Channel positions : Front: L C R, Side: L R, LFE
Sampling rate : 48.0 kHz / 24.0 kHz
Frame rate : 23.438 FPS (1024 spf)
Compression mode : Lossy
Delay relative to video : 40 ms
Stream size : 29.4 MiB (5%)
Language : German
Default : No
Forced : No

Audio #4
ID : 5
Format : AAC
Format/Info : Advanced Audio Codec
Format profile : HE-AAC / LC
Codec ID : A_AAC
Duration : 21 min 26 s
Bit rate : 192 kb/s
Channel(s) : 6 channels
Channel positions : Front: L C R, Side: L R, LFE
Sampling rate : 48.0 kHz / 24.0 kHz
Frame rate : 23.438 FPS (1024 spf)
Compression mode : Lossy
Delay relative to video : 40 ms
Stream size : 29.4 MiB (5%)
Language : Spanish
Default : No
Forced : No

Audio #5
ID : 6
Format : AAC
Format/Info : Advanced Audio Codec
Format profile : HE-AAC / LC
Codec ID : A_AAC
Duration : 21 min 26 s
Bit rate : 192 kb/s
Channel(s) : 6 channels
Channel positions : Front: L C R, Side: L R, LFE
Sampling rate : 48.0 kHz / 24.0 kHz
Frame rate : 23.438 FPS (1024 spf)
Compression mode : Lossy
Delay relative to video : 40 ms
Stream size : 29.4 MiB (5%)
Language : Spanish
Default : No
Forced : No

Subtitle #1
ID : 7
Format : VobSub
Muxing mode : zlib
Codec ID : S_VOBSUB
Codec ID/Info : Picture based subtitle format used on DVDs
Duration : 21 min 6 s
Bit rate : 5 982 b/s
Count of elements : 233
Stream size : 925 KiB (0%)
Language : English
Default : No
Forced : No

Subtitle #2
ID : 8
Format : VobSub
Muxing mode : zlib
Codec ID : S_VOBSUB
Codec ID/Info : Picture based subtitle format used on DVDs
Duration : 21 min 13 s
Bit rate : 5 847 b/s
Count of elements : 203
Stream size : 909 KiB (0%)
Language : French
Default : No
Forced : No

Subtitle #3
ID : 9
Format : VobSub
Muxing mode : zlib
Codec ID : S_VOBSUB
Codec ID/Info : Picture based subtitle format used on DVDs
Duration : 21 min 13 s
Bit rate : 6 661 b/s
Count of elements : 235
Stream size : 1.01 MiB (0%)
Language : German
Default : No
Forced : No

Subtitle #4
ID : 10
Format : VobSub
Muxing mode : zlib
Codec ID : S_VOBSUB
Codec ID/Info : Picture based subtitle format used on DVDs
Duration : 21 min 13 s
Bit rate : 5 176 b/s
Count of elements : 203
Stream size : 805 KiB (0%)
Language : Spanish
Default : No
Forced : No

Subtitle #5
ID : 11
Format : VobSub
Muxing mode : zlib
Codec ID : S_VOBSUB
Codec ID/Info : Picture based subtitle format used on DVDs
Duration : 21 min 22 s
Bit rate : 5 496 b/s
Count of elements : 204
Stream size : 860 KiB (0%)
Language : Spanish
Default : No
Forced : No

Menu
00:00:00.000 : en:Chapter 01
00:05:46.721 : en:Chapter 02
00:14:06.887 : en:Chapter 03
00:20:46.787 : en:Chapter 04

Screens

Download

Season: Google Drive (11.38 GB)

Extras: Google Drive (4.52 GB)

Season 1

Star Wars The Clone Wars (2008) Season 5 S05 + Extras (1080p BluRay x265 HEVC 10bit AAC 5.1 RCVR)

Files

Star Wars The Clone Wars (2008) Season 5 S05 + Extras (1080p BluRay x265 HEVC 10bit AAC 5.1 RCVR)

  • Star Wars The Clone Wars (2008) – S05E01 – Revival (1080p BluRay x265 RCVR).mkv (551.3 MB)
  • Star Wars The Clone Wars (2008) – S05E02 – A War on Two Fronts (1080p BluRay x265 RCVR).mkv (588.8 MB)
  • Star Wars The Clone Wars (2008) – S05E03 – Front Runners (1080p BluRay x265 RCVR).mkv (497.7 MB)
  • Star Wars The Clone Wars (2008) – S05E04 – The Soft War (1080p BluRay x265 RCVR).mkv (537.1 MB)
  • Star Wars The Clone Wars (2008) – S05E05 – Tipping Points (1080p BluRay x265 RCVR).mkv (646.1 MB)
  • Star Wars The Clone Wars (2008) – S05E06 – The Gathering (1080p BluRay x265 RCVR).mkv (517.5 MB)
  • Star Wars The Clone Wars (2008) – S05E07 – A Test of Strength (1080p BluRay x265 RCVR).mkv (504.9 MB)
  • Star Wars The Clone Wars (2008) – S05E08 – Bound for Rescue (1080p BluRay x265 RCVR).mkv (574.1 MB)
  • Star Wars The Clone Wars (2008) – S05E09 – A Necessary Bond (1080p BluRay x265 RCVR).mkv (550.0 MB)
  • Star Wars The Clone Wars (2008) – S05E10 – Secret Weapons (1080p BluRay x265 RCVR).mkv (471.7 MB)
  • Star Wars The Clone Wars (2008) – S05E11 – A Sunny Day in the Void (1080p BluRay x265 RCVR).mkv (571.6 MB)
  • Star Wars The Clone Wars (2008) – S05E12 – Missing in Action (1080p BluRay x265 RCVR).mkv (580.6 MB)
  • Star Wars The Clone Wars (2008) – S05E13 – Point of No Return (1080p BluRay x265 RCVR).mkv (546.3 MB)
  • Star Wars The Clone Wars (2008) – S05E14 – Eminence (1080p BluRay x265 RCVR).mkv (455.8 MB)
  • Star Wars The Clone Wars (2008) – S05E15 – Shades of Reason (1080p BluRay x265 RCVR).mkv (532.5 MB)
  • Star Wars The Clone Wars (2008) – S05E16 – The Lawless (1080p BluRay x265 RCVR).mkv (524.4 MB)
  • Star Wars The Clone Wars (2008) – S05E17 – Sabotage (1080p BluRay x265 RCVR).mkv (483.8 MB)
  • Star Wars The Clone Wars (2008) – S05E18 – The Jedi Who Knew Too Much (1080p BluRay x265 RCVR).mkv (535.6 MB)
  • Star Wars The Clone Wars (2008) – S05E19 – To Catch a Jedi (1080p BluRay x265 RCVR).mkv (522.1 MB)
  • Star Wars The Clone Wars (2008) – S05E20 – The Wrong Jedi (1080p BluRay x265 RCVR).mkv (423.9 MB)

Featurettes

  • Jedi Temple Archives – Disk 1.mkv (640.3 MB)
  • Jedi Temple Archives – Disk 2.mkv (790.6 MB)

Easter Eggs

  • A Jedi’s Journey (on Ahsoka Tano).mkv (16.1 MB)
  • The Dark Path – Artwork By Dave Filoni.mkv (2.9 MB)

Mediainfo

General
Format : Matroska
Format version : Version 4 / Version 2
File size : 551 MiB
Duration : 22 min 19 s
Overall bit rate : 3 451 kb/s
Encoded date : UTC 2018-08-10 19:22:56
Writing application : mkvmerge v12.0.0 ('Trust / Lust') 64bit
Writing library : libebml v1.3.4 + libmatroska v1.4.5
Cover : Yes
Attachments : cover.jpg

Video
ID : 1
Format : HEVC
Format/Info : High Efficiency Video Coding
Format profile : Main [email protected]@Main
Codec ID : V_MPEGH/ISO/HEVC
Duration : 22 min 19 s
Bit rate : 2 175 kb/s
Width : 1 920 pixels
Height : 816 pixels
Display aspect ratio : 2.35:1
Frame rate mode : Constant
Frame rate : 23.976 (24000/1001) FPS
Color space : YUV
Chroma subsampling : 4:2:0
Bit depth : 10 bits
Bits/(Pixel*Frame) : 0.058
Stream size : 347 MiB (63%)
Writing library : x265 2.8+56-613074c6714f:[Windows][MSVC 1900][64 bit] 10bit
Encoding settings : cpuid=1111039 / frame-threads=3 / numa-pools=8 / wpp / no-pmode / no-pme / no-psnr / no-ssim / log-level=2 / input-csp=1 / input-res=1920x816 / interlace=0 / total-frames=32123 / level-idc=0 / high-tier=1 / uhd-bd=0 / ref=5 / no-allow-non-conformance / no-repeat-headers / annexb / no-aud / no-hrd / info / hash=0 / no-temporal-layers / open-gop / min-keyint=23 / keyint=250 / gop-lookahead=0 / bframes=8 / b-adapt=2 / b-pyramid / bframe-bias=0 / rc-lookahead=80 / lookahead-slices=4 / scenecut=40 / radl=0 / no-intra-refresh / ctu=64 / min-cu-size=8 / rect / no-amp / max-tu-size=32 / tu-inter-depth=1 / tu-intra-depth=1 / limit-tu=0 / rdoq-level=2 / dynamic-rd=0.00 / no-ssim-rd / signhide / no-tskip / nr-intra=0 / nr-inter=0 / no-constrained-intra / no-strong-intra-smoothing / max-merge=4 / limit-refs=3 / limit-modes / me=3 / subme=5 / merange=57 / temporal-mvp / weightp / weightb / no-analyze-src-pics / deblock=-3:-3 / no-sao / no-sao-non-deblock / rd=5 / no-early-skip / no-rskip / no-fast-intra / no-tskip-fast / no-cu-lossless / no-b-intra / no-splitrd-skip / rdpenalty=0 / psy-rd=1.50 / psy-rdoq=2.00 / no-rd-refine / no-lossless / cbqpoffs=0 / crqpoffs=0 / rc=crf / crf=21.5 / qcomp=0.60 / qpstep=4 / stats-write=0 / stats-read=0 / ipratio=1.40 / pbratio=1.30 / aq-mode=3 / aq-strength=1.00 / cutree / zone-count=0 / no-strict-cbr / qg-size=32 / no-rc-grain / qpmax=69 / qpmin=0 / no-const-vbv / sar=0 / overscan=0 / videoformat=5 / range=0 / colorprim=2 / transfer=2 / colormatrix=2 / chromaloc=0 / display-window=0 / max-cll=0,0 / min-luma=0 / max-luma=1023 / log2-max-poc-lsb=8 / vui-timing-info / vui-hrd-info / slices=1 / no-opt-qp-pps / no-opt-ref-list-length-pps / no-multi-pass-opt-rps / scenecut-bias=0.05 / no-opt-cu-delta-qp / no-aq-motion / no-hdr / no-hdr-opt / no-dhdr10-opt / no-idr-recovery-sei / analysis-reuse-level=5 / scale-factor=0 / refine-intra=0 / refine-inter=0 / refine-mv=0 / no-limit-sao / ctu-info=0 / no-lowpass-dct / refine-mv-type=0 / copy-pic=1 / max-ausize-factor=1.0 / no-dynamic-refine / no-single-sei
Default : Yes
Forced : No

Audio #1
ID : 2
Format : AAC
Format/Info : Advanced Audio Codec
Format profile : LC
Codec ID : A_AAC
Duration : 22 min 19 s
Bit rate : 477 kb/s
Channel(s) : 6 channels
Channel positions : Front: L C R, Side: L R, LFE
Sampling rate : 48.0 kHz
Frame rate : 46.875 FPS (1024 spf)
Compression mode : Lossy
Delay relative to video : 20 ms
Stream size : 76.2 MiB (14%)
Language : English
Default : Yes
Forced : No

Audio #2
ID : 3
Format : AAC
Format/Info : Advanced Audio Codec
Format profile : HE-AAC / LC
Codec ID : A_AAC
Duration : 22 min 18 s
Bit rate : 192 kb/s
Channel(s) : 6 channels
Channel positions : Front: L C R, Side: L R, LFE
Sampling rate : 48.0 kHz / 24.0 kHz
Frame rate : 23.438 FPS (1024 spf)
Compression mode : Lossy
Delay relative to video : 40 ms
Stream size : 30.6 MiB (6%)
Language : French
Default : No
Forced : No

Audio #3
ID : 4
Format : AAC
Format/Info : Advanced Audio Codec
Format profile : HE-AAC / LC
Codec ID : A_AAC
Duration : 22 min 18 s
Bit rate : 192 kb/s
Channel(s) : 6 channels
Channel positions : Front: L C R, Side: L R, LFE
Sampling rate : 48.0 kHz / 24.0 kHz
Frame rate : 23.438 FPS (1024 spf)
Compression mode : Lossy
Delay relative to video : 40 ms
Stream size : 30.6 MiB (6%)
Language : German
Default : No
Forced : No

Audio #4
ID : 5
Format : AAC
Format/Info : Advanced Audio Codec
Format profile : HE-AAC / LC
Codec ID : A_AAC
Duration : 22 min 18 s
Bit rate : 192 kb/s
Channel(s) : 6 channels
Channel positions : Front: L C R, Side: L R, LFE
Sampling rate : 48.0 kHz / 24.0 kHz
Frame rate : 23.438 FPS (1024 spf)
Compression mode : Lossy
Delay relative to video : 40 ms
Stream size : 30.6 MiB (6%)
Language : Spanish
Default : No
Forced : No

Audio #5
ID : 6
Format : AAC
Format/Info : Advanced Audio Codec
Format profile : HE-AAC / LC
Codec ID : A_AAC
Duration : 22 min 18 s
Bit rate : 192 kb/s
Channel(s) : 6 channels
Channel positions : Front: L C R, Side: L R, LFE
Sampling rate : 48.0 kHz / 24.0 kHz
Frame rate : 23.438 FPS (1024 spf)
Compression mode : Lossy
Delay relative to video : 40 ms
Stream size : 30.6 MiB (6%)
Language : Spanish
Default : No
Forced : No

Subtitle #1
ID : 7
Format : VobSub
Muxing mode : zlib
Codec ID : S_VOBSUB
Codec ID/Info : Picture based subtitle format used on DVDs
Duration : 21 min 58 s
Bit rate : 5 218 b/s
Count of elements : 211
Stream size : 840 KiB (0%)
Language : English
Default : No
Forced : No

Subtitle #2
ID : 8
Format : VobSub
Muxing mode : zlib
Codec ID : S_VOBSUB
Codec ID/Info : Picture based subtitle format used on DVDs
Duration : 22 min 4 s
Bit rate : 6 193 b/s
Count of elements : 204
Stream size : 1 002 KiB (0%)
Language : French
Default : No
Forced : No

Subtitle #3
ID : 9
Format : VobSub
Muxing mode : zlib
Codec ID : S_VOBSUB
Codec ID/Info : Picture based subtitle format used on DVDs
Duration : 22 min 4 s
Bit rate : 6 060 b/s
Count of elements : 212
Stream size : 980 KiB (0%)
Language : German
Default : No
Forced : No

Subtitle #4
ID : 10
Format : VobSub
Muxing mode : zlib
Codec ID : S_VOBSUB
Codec ID/Info : Picture based subtitle format used on DVDs
Duration : 22 min 4 s
Bit rate : 5 142 b/s
Count of elements : 204
Stream size : 832 KiB (0%)
Language : Spanish
Default : No
Forced : No

Subtitle #5
ID : 11
Format : VobSub
Muxing mode : zlib
Codec ID : S_VOBSUB
Codec ID/Info : Picture based subtitle format used on DVDs
Duration : 22 min 14 s
Bit rate : 5 020 b/s
Count of elements : 205
Stream size : 818 KiB (0%)
Language : Spanish
Default : No
Forced : No

Menu
00:00:00.000 : en:Chapter 01
00:07:11.514 : en:Chapter 02
00:16:53.887 : en:Chapter 03
00:21:39.006 : en:Chapter 04

Screens

Download

Season: Google Drive (10.37 GB)

Extras: Google Drive (1.42 GB)

Season 6

Star Wars The Clone Wars (2008) Season 6 S06 + Extras (1080p BluRay x265 HEVC 10bit AAC 5.1 RCVR)

Files

Star Wars The Clone Wars (2008) Season 6 S06 + Extras (1080p BluRay x265 HEVC 10bit AAC 5.1 RCVR)

  • Star Wars The Clone Wars (2008) – S06E01 – The Unknown (1080p BluRay x265 RCVR).mkv (588.3 MB)
  • Star Wars The Clone Wars (2008) – S06E02 – Conspiracy (1080p BluRay x265 RCVR).mkv (444.6 MB)
  • Star Wars The Clone Wars (2008) – S06E03 – Fugitive (1080p BluRay x265 RCVR).mkv (477.1 MB)
  • Star Wars The Clone Wars (2008) – S06E04 – Orders (1080p BluRay x265 RCVR).mkv (483.1 MB)
  • Star Wars The Clone Wars (2008) – S06E05 – An Old Friend (1080p BluRay x265 RCVR).mkv (435.9 MB)
  • Star Wars The Clone Wars (2008) – S06E06 – The Rise of Clovis (1080p BluRay x265 RCVR).mkv (363.1 MB)
  • Star Wars The Clone Wars (2008) – S06E07 – Crisis at the Heart (1080p BluRay x265 RCVR).mkv (473.9 MB)
  • Star Wars The Clone Wars (2008) – S06E08 – The Disappeared (1) (1080p BluRay x265 RCVR).mkv (465.7 MB)
  • Star Wars The Clone Wars (2008) – S06E09 – The Disappeared (2) (1080p BluRay x265 RCVR).mkv (446.0 MB)
  • Star Wars The Clone Wars (2008) – S06E10 – The Lost One (1080p BluRay x265 RCVR).mkv (536.7 MB)
  • Star Wars The Clone Wars (2008) – S06E11 – Voices (1080p BluRay x265 RCVR).mkv (439.0 MB)
  • Star Wars The Clone Wars (2008) – S06E12 – Destiny (1080p BluRay x265 RCVR).mkv (476.3 MB)
  • Star Wars The Clone Wars (2008) – S06E13 – Sacrifice (1080p BluRay x265 RCVR).mkv (456.5 MB)

Featurettes

  • Menu Art.mkv (13.8 MB)
  • Star Wars Rebels – Season 1 – Trailer.mkv (84.0 MB)
  • The Clone Wars Declassified.mkv (670.2 MB)

Story Reel – Utapau Arc

  • Story Reel – A Death on Utapau.mkv (575.0 MB)
  • Story Reel – Crystal Crisis.mkv (598.1 MB)
  • Story Reel – In Search of the Crystal.mkv (609.3 MB)
  • Story Reel – The Big Bang.mkv (615.4 MB)

Mediainfo

General
Format : Matroska
Format version : Version 4 / Version 2
File size : 588 MiB
Duration : 22 min 29 s
Overall bit rate : 3 657 kb/s
Encoded date : UTC 2018-08-18 13:24:58
Writing application : mkvmerge v12.0.0 ('Trust / Lust') 64bit
Writing library : libebml v1.3.4 + libmatroska v1.4.5
Cover : Yes
Attachments : cover.jpg

Video
ID : 1
Format : HEVC
Format/Info : High Efficiency Video Coding
Format profile : Main [email protected]@Main
Codec ID : V_MPEGH/ISO/HEVC
Duration : 22 min 29 s
Bit rate : 2 582 kb/s
Width : 1 920 pixels
Height : 816 pixels
Display aspect ratio : 2.35:1
Frame rate mode : Constant
Frame rate : 23.976 (24000/1001) FPS
Color space : YUV
Chroma subsampling : 4:2:0
Bit depth : 10 bits
Bits/(Pixel*Frame) : 0.069
Stream size : 415 MiB (71%)
Writing library : x265 2.8+56-613074c6714f:[Windows][MSVC 1900][64 bit] 10bit
Encoding settings : cpuid=1111039 / frame-threads=3 / numa-pools=8 / wpp / no-pmode / no-pme / no-psnr / no-ssim / log-level=2 / input-csp=1 / input-res=1920x816 / interlace=0 / total-frames=32356 / level-idc=0 / high-tier=1 / uhd-bd=0 / ref=5 / no-allow-non-conformance / no-repeat-headers / annexb / no-aud / no-hrd / info / hash=0 / no-temporal-layers / open-gop / min-keyint=23 / keyint=250 / gop-lookahead=0 / bframes=8 / b-adapt=2 / b-pyramid / bframe-bias=0 / rc-lookahead=80 / lookahead-slices=4 / scenecut=40 / radl=0 / no-intra-refresh / ctu=64 / min-cu-size=8 / rect / no-amp / max-tu-size=32 / tu-inter-depth=1 / tu-intra-depth=1 / limit-tu=0 / rdoq-level=2 / dynamic-rd=0.00 / no-ssim-rd / signhide / no-tskip / nr-intra=0 / nr-inter=0 / no-constrained-intra / no-strong-intra-smoothing / max-merge=4 / limit-refs=3 / limit-modes / me=3 / subme=5 / merange=57 / temporal-mvp / weightp / weightb / no-analyze-src-pics / deblock=-3:-3 / no-sao / no-sao-non-deblock / rd=5 / no-early-skip / no-rskip / no-fast-intra / no-tskip-fast / no-cu-lossless / no-b-intra / no-splitrd-skip / rdpenalty=0 / psy-rd=1.50 / psy-rdoq=2.00 / no-rd-refine / no-lossless / cbqpoffs=0 / crqpoffs=0 / rc=crf / crf=21.5 / qcomp=0.60 / qpstep=4 / stats-write=0 / stats-read=0 / ipratio=1.40 / pbratio=1.30 / aq-mode=3 / aq-strength=1.00 / cutree / zone-count=0 / no-strict-cbr / qg-size=32 / no-rc-grain / qpmax=69 / qpmin=0 / no-const-vbv / sar=0 / overscan=0 / videoformat=5 / range=0 / colorprim=2 / transfer=2 / colormatrix=2 / chromaloc=0 / display-window=0 / max-cll=0,0 / min-luma=0 / max-luma=1023 / log2-max-poc-lsb=8 / vui-timing-info / vui-hrd-info / slices=1 / no-opt-qp-pps / no-opt-ref-list-length-pps / no-multi-pass-opt-rps / scenecut-bias=0.05 / no-opt-cu-delta-qp / no-aq-motion / no-hdr / no-hdr-opt / no-dhdr10-opt / no-idr-recovery-sei / analysis-reuse-level=5 / scale-factor=0 / refine-intra=0 / refine-inter=0 / refine-mv=0 / no-limit-sao / ctu-info=0 / no-lowpass-dct / refine-mv-type=0 / copy-pic=1 / max-ausize-factor=1.0 / no-dynamic-refine / no-single-sei
Default : Yes
Forced : No

Audio #1
ID : 2
Format : AAC
Format/Info : Advanced Audio Codec
Format profile : LC
Codec ID : A_AAC
Duration : 22 min 29 s
Bit rate : 472 kb/s
Channel(s) : 6 channels
Channel positions : Front: L C R, Side: L R, LFE
Sampling rate : 48.0 kHz
Frame rate : 46.875 FPS (1024 spf)
Compression mode : Lossy
Delay relative to video : 20 ms
Stream size : 75.9 MiB (13%)
Language : English
Default : Yes
Forced : No

Audio #2
ID : 3
Format : AAC
Format/Info : Advanced Audio Codec
Format profile : HE-AAC / LC
Codec ID : A_AAC
Duration : 22 min 29 s
Bit rate : 192 kb/s
Channel(s) : 6 channels
Channel positions : Front: L C R, Side: L R, LFE
Sampling rate : 48.0 kHz / 24.0 kHz
Frame rate : 23.438 FPS (1024 spf)
Compression mode : Lossy
Delay relative to video : 40 ms
Stream size : 30.9 MiB (5%)
Language : French
Default : No
Forced : No

Audio #3
ID : 4
Format : AAC
Format/Info : Advanced Audio Codec
Format profile : HE-AAC / LC
Codec ID : A_AAC
Duration : 22 min 29 s
Bit rate : 192 kb/s
Channel(s) : 6 channels
Channel positions : Front: L C R, Side: L R, LFE
Sampling rate : 48.0 kHz / 24.0 kHz
Frame rate : 23.438 FPS (1024 spf)
Compression mode : Lossy
Delay relative to video : 40 ms
Stream size : 30.9 MiB (5%)
Language : Spanish
Default : No
Forced : No

Audio #4
ID : 5
Format : AAC
Format/Info : Advanced Audio Codec
Format profile : HE-AAC / LC
Codec ID : A_AAC
Duration : 22 min 29 s
Bit rate : 192 kb/s
Channel(s) : 6 channels
Channel positions : Front: L C R, Side: L R, LFE
Sampling rate : 48.0 kHz / 24.0 kHz
Frame rate : 23.438 FPS (1024 spf)
Compression mode : Lossy
Delay relative to video : 40 ms
Stream size : 30.9 MiB (5%)
Language : German
Default : No
Forced : No

Subtitle #1
ID : 6
Format : VobSub
Muxing mode : zlib
Codec ID : S_VOBSUB
Codec ID/Info : Picture based subtitle format used on DVDs
Duration : 21 min 30 s
Bit rate : 6 306 b/s
Count of elements : 254
Stream size : 993 KiB (0%)
Language : English
Default : No
Forced : No

Subtitle #2
ID : 7
Format : VobSub
Muxing mode : zlib
Codec ID : S_VOBSUB
Codec ID/Info : Picture based subtitle format used on DVDs
Duration : 21 min 30 s
Bit rate : 5 407 b/s
Count of elements : 224
Stream size : 852 KiB (0%)
Language : English
Default : No
Forced : No

Subtitle #3
ID : 8
Format : VobSub
Muxing mode : zlib
Codec ID : S_VOBSUB
Codec ID/Info : Picture based subtitle format used on DVDs
Duration : 21 min 46 s
Bit rate : 6 018 b/s
Count of elements : 238
Stream size : 960 KiB (0%)
Language : French
Default : No
Forced : No

Subtitle #4
ID : 9
Format : VobSub
Muxing mode : zlib
Codec ID : S_VOBSUB
Codec ID/Info : Picture based subtitle format used on DVDs
Duration : 21 min 46 s
Bit rate : 5 384 b/s
Count of elements : 225
Stream size : 859 KiB (0%)
Language : Spanish
Default : No
Forced : No

Menu
00:00:00.000 : en:Chapter 01
00:05:14.981 : en:Chapter 02
00:10:46.687 : en:Chapter 03
00:16:01.335 : en:Chapter 04
00:21:40.257 : en:Chapter 05

Screens

Download

Season: Google Drive (5.94 GB)

Extras: Google Drive (3.09 GB)

Season 7

Star Wars The Clone Wars (2008) Season 7 S07 (1080p DSNP WEB-DL x265 HEVC 10bit EAC3 5.1 YOGI)

Files

Star Wars The Clone Wars (2008) Season 7 S07 (1080p DSNP WEB-DL x265 HEVC 10bit EAC3 5.1 YOGI)

 

  • Star Wars The Clone Wars (2008) – S07E01 – The Bad Batch (1080p DSNP WEB-DL x265 YOGI).mkv (552.3 MB)
  • Star Wars The Clone Wars (2008) – S07E02 – A Distant Echo (1080p DSNP WEB-DL x265 YOGI).mkv (535.6 MB)
  • Star Wars The Clone Wars (2008) – S07E03 – On the Wings of Keeradaks (1080p DSNP WEB-DL x265 YOGI).mkv (416.9 MB)
  • Star Wars The Clone Wars (2008) – S07E04 – Unfinished Business (1080p DSNP WEB-DL x265 YOGI).mkv (519.1 MB)
  • Star Wars The Clone Wars (2008) – S07E05 – Gone With a Trace (1080p DSNP WEB-DL x265 YOGI).mkv (460.3 MB)
  • Star Wars The Clone Wars (2008) – S07E06 – Deal No Deal (1080p DSNP WEB-DL x265 YOGI).mkv (551.5 MB)
  • Star Wars The Clone Wars (2008) – S07E07 – Dangerous Debt (1080p DSNP WEB-DL x265 YOGI).mkv (525.8 MB)
  • Star Wars The Clone Wars (2008) – S07E08 – Together Again (1080p DSNP WEB-DL x265 YOGI).mkv (499.5 MB)
  • Star Wars The Clone Wars (2008) – S07E09 – Old Friends Not Forgotten (1) (1080p DSNP WEB-DL x265 YOGI).mkv (640.3 MB)
  • Star Wars The Clone Wars (2008) – S07E10 – The Phantom Apprentice (2) (1080p DSNP WEB-DL x265 YOGI).mkv (555.3 MB)
  • Star Wars The Clone Wars (2008) – S07E11 – Shattered (3) (1080p DSNP WEB-DL x265 YOGI).mkv (517.6 MB)
  • Star Wars The Clone Wars (2008) – S07E12 – Victory and Death (4) (1080p DSNP WEB-DL x265 YOGI).mkv (535.8 MB)

Mediainfo

General
Format : Matroska
File Size : 552 MiB
Duration : 23 min 51 s
Overall Bit Rate : 3235 kb/s

Video
Format : HEVC
Format Profile : Main [email protected]@Main
Bit Rate : 2978 kb/s
Dimensions : 1920 pixels x 816 pixels
Display Aspect Ratio : 2.35:1
Frame Rate : 23.976 (24000/1001) FPS
Writing Library : x265 3.3+21-6bb2d88029c2:[Windows][GCC 10.0.1][64 bit] 10bit
Encoding Settings : cpuid=1111039 / frame-threads=4 / numa-pools=16 / wpp / no-pmode / no-pme / no-psnr / no-ssim / log-level=2 / input-csp=1 / input-res=1920x816 / interlace=0 / total-frames=34329 / level-idc=0 / high-tier=1 / uhd-bd=0 / ref=5 / no-allow-non-conformance / no-repeat-headers / annexb / no-aud / no-hrd / info / hash=0 / no-temporal-layers / open-gop / min-keyint=23 / keyint=250 / gop-lookahead=0 / bframes=8 / b-adapt=2 / b-pyramid / bframe-bias=0 / rc-lookahead=80 / lookahead-slices=0 / scenecut=40 / hist-scenecut=0 / radl=0 / no-splice / no-intra-refresh / ctu=64 / min-cu-size=8 / rect / no-amp / max-tu-size=32 / tu-inter-depth=3 / tu-intra-depth=3 / limit-tu=4 / rdoq-level=2 / dynamic-rd=0.00 / no-ssim-rd / signhide / no-tskip / nr-intra=0 / nr-inter=0 / no-constrained-intra / no-strong-intra-smoothing / max-merge=4 / limit-refs=1 / limit-modes / me=3 / subme=5 / merange=57 / temporal-mvp / no-frame-dup / no-hme / weightp / weightb / no-analyze-src-pics / deblock=-3:-3 / no-sao / no-sao-non-deblock / rd=6 / selective-sao=0 / no-early-skip / rskip / no-fast-intra / no-tskip-fast / no-cu-lossless / b-intra / no-splitrd-skip / rdpenalty=0 / psy-rd=2.00 / psy-rdoq=1.00 / no-rd-refine / no-lossless / cbqpoffs=0 / crqpoffs=0 / rc=abr / bitrate=2977 / qcomp=0.60 / qpstep=4 / stats-write=0 / stats-read=2 / cplxblur=20.0 / qblur=0.5 / ipratio=1.40 / pbratio=1.30 / aq-mode=4 / aq-strength=1.00 / cutree / zone-count=0 / no-strict-cbr / qg-size=32 / no-rc-grain / qpmax=69 / qpmin=0 / no-const-vbv / sar=0 / overscan=0 / videoformat=5 / range=0 / colorprim=1 / transfer=1 / colormatrix=1 / chromaloc=0 / display-window=0 / cll=0,0 / min-luma=0 / max-luma=1023 / log2-max-poc-lsb=8 / vui-timing-info / vui-hrd-info / slices=1 / no-opt-qp-pps / no-opt-ref-list-length-pps / no-multi-pass-opt-rps / scenecut-bias=0.05 / hist-threshold=0.01 / no-opt-cu-delta-qp / no-aq-motion / no-hdr10 / no-hdr10-opt / no-dhdr10-opt / no-idr-recovery-sei / analysis-reuse-level=0 / analysis-save-reuse-level=0 / analysis-load-reuse-level=0 / scale-factor=0 / refine-intra=0 / refine-inter=0 / refine-mv=1 / refine-ctu-distortion=0 / no-limit-sao / ctu-info=0 / no-lowpass-dct / refine-analysis-type=0 / copy-pic=1 / max-ausize-factor=1.0 / no-dynamic-refine / no-single-sei / no-hevc-aq / no-svt / no-field / qp-adaptation-range=1.00 / no-scenecut-aware-qpconformance-window-offsets / right=0 / bottom=0 / decoder-max-rate=0

Audio #1 : English / E-AC-3 / 6 channels / 256 kb/s

Subtitle #1 : English / UTF-8 / 59 b/s / English (SDH)

Screens

Download

Season: Google Drive (6.16 GB)

8 thoughts on “Star Wars: The Clone Wars (2008) Season 1-7 (1080p Mixed x265 HEVC 10bit AAC 5.1)

  1. 😮 I didn’t even know there was also a tv show about the clone wars thnx!!!!
    Would you also maybe consider doing the Chronicles of Narnia next from Silence?

Leave a Reply