Space Force (2020) Season 1 (1080p + 2160p NF WEB-DL x265 HEVC 10bit AAC 5.1 Joy)

Plot: On June 18, 2018 the federal government announced the creation of a 6th major division of the United States Armed Forces. The Goal of the new branch is “to defend satellites from attack” and “perform other space-related tasks.” Or something. This is the story of the men and women who have to figure it out.

1080p

Space Force (2020) Season 01 S01 (1080p NF WEB-DL x265 HEVC 10bit AAC 5.1 Joy) [UTR]

Files

Space Force Season 1 [1080p x265 10bit S93 Joy]

  • Space Force S01E01 The Launch [1080p x265 10bit Joy].mkv (361.1 MB)
  • Space Force S01E02 Save Epsilon 6! [1080p x265 10bit Joy].mkv (315.9 MB)
  • Space Force S01E03 Mark and Mallory Go to Washington [1080p x265 10bit Joy].mkv (298.4 MB)
  • Space Force S01E04 Lunar Habitat [1080p x265 10bit Joy].mkv (320.3 MB)
  • Space Force S01E05 Space Flag [1080p x265 10bit Joy].mkv (300.0 MB)
  • Space Force S01E06 The Spy [1080p x265 10bit Joy].mkv (341.5 MB)
  • Space Force S01E07 Edison Jaymes [1080p x265 10bit Joy].mkv (270.2 MB)
  • Space Force S01E08 Conjugal Visit [1080p x265 10bit Joy].mkv (315.3 MB)
  • Space Force S01E09 It’s Good to Be Back on the Moon [1080p x265 10bit Joy].mkv (346.4 MB)
  • Space Force S01E10 Proportionate Response [1080p x265 10bit Joy].mkv (354.9 MB)

Mediainfo

General
Format : Matroska
Format version : Version 4 / Version 2
File size : 361 MiB
Duration : 36 min 38 s
Overall bit rate : 1 378 kb/s
Movie name : Space Force S01E01 The Launch [1080p x265 10bit Joy][UTR]
Encoded date : UTC 2020-05-31 16:57:43
Writing application : mkvmerge v39.0.0 ('In The Waiting Line') 64-bit
Writing library : libebml v1.3.9 + libmatroska v1.5.2

Video
ID : 1
Format : HEVC
Format/Info : High Efficiency Video Coding
Format profile : Main [email protected]@Main
Codec ID : V_MPEGH/ISO/HEVC
Duration : 36 min 38 s
Bit rate : 1 204 kb/s
Width : 1 920 pixels
Height : 872 pixels
Display aspect ratio : 2.2:1
Frame rate mode : Constant
Frame rate : 23.976 (24000/1001) FPS
Color space : YUV
Chroma subsampling : 4:2:0
Bit depth : 10 bits
Bits/(Pixel*Frame) : 0.030
Stream size : 316 MiB (87%)
Writing library : x265 3.2+9-971180b100f8:[Windows][GCC 9.2.0][64 bit] 10bit
Encoding settings : cpuid=1111039 / frame-threads=4 / numa-pools=16 / wpp / no-pmode / no-pme / no-psnr / ssim / log-level=2 / input-csp=1 / input-res=1920x872 / interlace=0 / total-frames=52715 / level-idc=0 / high-tier=1 / uhd-bd=0 / ref=4 / no-allow-non-conformance / no-repeat-headers / annexb / no-aud / no-hrd / info / hash=0 / no-temporal-layers / open-gop / min-keyint=23 / keyint=250 / gop-lookahead=0 / bframes=8 / b-adapt=2 / b-pyramid / bframe-bias=40 / rc-lookahead=80 / lookahead-slices=4 / scenecut=40 / radl=0 / no-splice / no-intra-refresh / ctu=64 / min-cu-size=8 / rect / no-amp / max-tu-size=32 / tu-inter-depth=1 / tu-intra-depth=1 / limit-tu=0 / rdoq-level=2 / dynamic-rd=0.00 / ssim-rd / signhide / no-tskip / nr-intra=0 / nr-inter=0 / constrained-intra / strong-intra-smoothing / max-merge=3 / limit-refs=3 / limit-modes / me=3 / subme=3 / merange=57 / temporal-mvp / no-frame-dup / no-hme / weightp / no-weightb / no-analyze-src-pics / deblock=0:0 / sao / no-sao-non-deblock / rd=4 / selective-sao=4 / early-skip / rskip / no-fast-intra / no-tskip-fast / no-cu-lossless / no-b-intra / splitrd-skip / rdpenalty=0 / psy-rd=3.50 / psy-rdoq=2.50 / no-rd-refine / no-lossless / cbqpoffs=0 / crqpoffs=0 / rc=abr / bitrate=1200 / qcomp=0.60 / qpstep=4 / stats-write=0 / stats-read=2 / cplxblur=20.0 / qblur=0.5 / ipratio=1.40 / pbratio=1.30 / aq-mode=3 / aq-strength=0.40 / cutree / zone-count=0 / no-strict-cbr / qg-size=32 / no-rc-grain / qpmax=69 / qpmin=0 / no-const-vbv / sar=0 / overscan=0 / videoformat=5 / range=0 / colorprim=2 / transfer=2 / colormatrix=2 / chromaloc=0 / display-window=0 / cll=0,0 / min-luma=0 / max-luma=1023 / log2-max-poc-lsb=8 / vui-timing-info / vui-hrd-info / slices=1 / no-opt-qp-pps / no-opt-ref-list-length-pps / multi-pass-opt-rps / scenecut-bias=0.05 / no-opt-cu-delta-qp / no-aq-motion / no-hdr / no-hdr-opt / no-dhdr10-opt / no-idr-recovery-sei / analysis-load / analysis-reuse-level=10 / scale-factor=0 / refine-intra=0 / refine-inter=0 / refine-mv=1 / refine-ctu-distortion=0 / limit-sao / ctu-info=0 / no-lowpass-dct / refine-analysis-type=0 / copy-pic=1 / max-ausize-factor=1.0 / no-dynamic-refine / no-single-sei / no-hevc-aq / no-svt / no-field / qp-adaptation-range=1.00
Default : Yes
Forced : No

Audio
ID : 2
Format : AAC
Format/Info : Advanced Audio Codec
Format profile : HE-AAC / LC
Codec ID : A_AAC
Duration : 36 min 38 s
Bit rate : 167 kb/s
Channel(s) : 6 channels
Channel positions : Front: L C R, Side: L R, LFE
Sampling rate : 48.0 kHz / 24.0 kHz
Frame rate : 23.438 FPS (1024 spf)
Compression mode : Lossy
Delay relative to video : 31 ms
Stream size : 43.8 MiB (12%)
Title : English
Language : English
Default : No
Forced : No

Subtitle #1
ID : 3
Format : UTF-8
Codec ID : S_TEXT/UTF8
Codec ID/Info : UTF-8 Plain Text
Duration : 35 min 10 s
Bit rate : 96 b/s
Count of elements : 724
Stream size : 24.9 KiB (0%)
Title : SDH
Language : English
Default : No
Forced : No

Subtitle #2
ID : 4
Format : UTF-8
Codec ID : S_TEXT/UTF8
Codec ID/Info : UTF-8 Plain Text
Duration : 34 min 3 s
Bit rate : 134 b/s
Count of elements : 625
Stream size : 33.5 KiB (0%)
Language : Arabic
Default : No
Forced : No

Subtitle #3
ID : 5
Format : UTF-8
Codec ID : S_TEXT/UTF8
Codec ID/Info : UTF-8 Plain Text
Duration : 35 min 10 s
Bit rate : 75 b/s
Count of elements : 608
Stream size : 19.3 KiB (0%)
Language : Czech
Default : No
Forced : No

Subtitle #4
ID : 6
Format : UTF-8
Codec ID : S_TEXT/UTF8
Codec ID/Info : UTF-8 Plain Text
Duration : 35 min 10 s
Bit rate : 68 b/s
Count of elements : 440
Stream size : 17.7 KiB (0%)
Language : Danish
Default : No
Forced : No

Subtitle #5
ID : 7
Format : UTF-8
Codec ID : S_TEXT/UTF8
Codec ID/Info : UTF-8 Plain Text
Duration : 35 min 10 s
Bit rate : 69 b/s
Count of elements : 580
Stream size : 18.0 KiB (0%)
Language : German
Default : No
Forced : No

Subtitle #6
ID : 8
Format : UTF-8
Codec ID : S_TEXT/UTF8
Codec ID/Info : UTF-8 Plain Text
Duration : 35 min 10 s
Bit rate : 127 b/s
Count of elements : 616
Stream size : 32.7 KiB (0%)
Language : Greek
Default : No
Forced : No

Subtitle #7
ID : 9
Format : UTF-8
Codec ID : S_TEXT/UTF8
Codec ID/Info : UTF-8 Plain Text
Duration : 35 min 10 s
Bit rate : 73 b/s
Count of elements : 572
Stream size : 18.9 KiB (0%)
Language : Spanish
Default : No
Forced : No

Subtitle #8
ID : 10
Format : UTF-8
Codec ID : S_TEXT/UTF8
Codec ID/Info : UTF-8 Plain Text
Duration : 35 min 10 s
Bit rate : 72 b/s
Count of elements : 591
Stream size : 18.6 KiB (0%)
Title : European
Language : Spanish
Default : No
Forced : No

Subtitle #9
ID : 11
Format : UTF-8
Codec ID : S_TEXT/UTF8
Codec ID/Info : UTF-8 Plain Text
Duration : 35 min 10 s
Bit rate : 71 b/s
Count of elements : 569
Stream size : 18.5 KiB (0%)
Language : Finnish
Default : No
Forced : No

Subtitle #10
ID : 12
Format : UTF-8
Codec ID : S_TEXT/UTF8
Codec ID/Info : UTF-8 Plain Text
Duration : 35 min 10 s
Bit rate : 69 b/s
Count of elements : 566
Stream size : 18.0 KiB (0%)
Language : French
Default : No
Forced : No

Subtitle #11
ID : 13
Format : UTF-8
Codec ID : S_TEXT/UTF8
Codec ID/Info : UTF-8 Plain Text
Duration : 35 min 10 s
Bit rate : 124 b/s
Count of elements : 620
Stream size : 32.1 KiB (0%)
Language : Hebrew
Default : No
Forced : No

Subtitle #12
ID : 14
Format : UTF-8
Codec ID : S_TEXT/UTF8
Codec ID/Info : UTF-8 Plain Text
Duration : 35 min 10 s
Bit rate : 73 b/s
Count of elements : 534
Stream size : 19.0 KiB (0%)
Language : Hungarian
Default : No
Forced : No

Subtitle #13
ID : 15
Format : UTF-8
Codec ID : S_TEXT/UTF8
Codec ID/Info : UTF-8 Plain Text
Duration : 35 min 12 s
Bit rate : 72 b/s
Count of elements : 625
Stream size : 18.6 KiB (0%)
Language : Indonesian
Default : No
Forced : No

Subtitle #14
ID : 16
Format : UTF-8
Codec ID : S_TEXT/UTF8
Codec ID/Info : UTF-8 Plain Text
Duration : 35 min 10 s
Bit rate : 72 b/s
Count of elements : 575
Stream size : 18.8 KiB (0%)
Language : Italian
Default : No
Forced : No

Subtitle #15
ID : 17
Format : UTF-8
Codec ID : S_TEXT/UTF8
Codec ID/Info : UTF-8 Plain Text
Duration : 35 min 10 s
Bit rate : 73 b/s
Count of elements : 591
Stream size : 18.8 KiB (0%)
Language : Japanese
Default : No
Forced : No

Subtitle #16
ID : 18
Format : UTF-8
Codec ID : S_TEXT/UTF8
Codec ID/Info : UTF-8 Plain Text
Duration : 35 min 10 s
Bit rate : 93 b/s
Count of elements : 629
Stream size : 24.1 KiB (0%)
Language : Korean
Default : No
Forced : No

Subtitle #17
ID : 19
Format : UTF-8
Codec ID : S_TEXT/UTF8
Codec ID/Info : UTF-8 Plain Text
Duration : 35 min 10 s
Bit rate : 70 b/s
Count of elements : 549
Stream size : 18.2 KiB (0%)
Language : Norwegian Bokmal
Default : No
Forced : No

Subtitle #18
ID : 20
Format : UTF-8
Codec ID : S_TEXT/UTF8
Codec ID/Info : UTF-8 Plain Text
Duration : 35 min 10 s
Bit rate : 69 b/s
Count of elements : 508
Stream size : 17.9 KiB (0%)
Language : Dutch
Default : No
Forced : No

Subtitle #19
ID : 21
Format : UTF-8
Codec ID : S_TEXT/UTF8
Codec ID/Info : UTF-8 Plain Text
Duration : 35 min 11 s
Bit rate : 68 b/s
Count of elements : 609
Stream size : 17.6 KiB (0%)
Language : Polish
Default : No
Forced : No

Subtitle #20
ID : 22
Format : UTF-8
Codec ID : S_TEXT/UTF8
Codec ID/Info : UTF-8 Plain Text
Duration : 35 min 11 s
Bit rate : 81 b/s
Count of elements : 598
Stream size : 21.0 KiB (0%)
Language : Portuguese
Default : No
Forced : No

Subtitle #21
ID : 23
Format : UTF-8
Codec ID : S_TEXT/UTF8
Codec ID/Info : UTF-8 Plain Text
Duration : 35 min 10 s
Bit rate : 73 b/s
Count of elements : 573
Stream size : 18.9 KiB (0%)
Title : Brazilian
Language : Portuguese
Default : No
Forced : No

Subtitle #22
ID : 24
Format : UTF-8
Codec ID : S_TEXT/UTF8
Codec ID/Info : UTF-8 Plain Text
Duration : 35 min 10 s
Bit rate : 85 b/s
Count of elements : 598
Stream size : 22.1 KiB (0%)
Language : Romanian
Default : No
Forced : No

Subtitle #23
ID : 25
Format : UTF-8
Codec ID : S_TEXT/UTF8
Codec ID/Info : UTF-8 Plain Text
Duration : 35 min 12 s
Bit rate : 119 b/s
Count of elements : 619
Stream size : 30.9 KiB (0%)
Language : Russian
Default : No
Forced : No

Subtitle #24
ID : 26
Format : UTF-8
Codec ID : S_TEXT/UTF8
Codec ID/Info : UTF-8 Plain Text
Duration : 35 min 10 s
Bit rate : 69 b/s
Count of elements : 571
Stream size : 17.9 KiB (0%)
Language : Swedish
Default : No
Forced : No

Subtitle #25
ID : 27
Format : UTF-8
Codec ID : S_TEXT/UTF8
Codec ID/Info : UTF-8 Plain Text
Duration : 35 min 10 s
Bit rate : 196 b/s
Count of elements : 632
Stream size : 50.7 KiB (0%)
Language : Thai
Default : No
Forced : No

Subtitle #26
ID : 28
Format : UTF-8
Codec ID : S_TEXT/UTF8
Codec ID/Info : UTF-8 Plain Text
Duration : 35 min 10 s
Bit rate : 73 b/s
Count of elements : 618
Stream size : 18.9 KiB (0%)
Language : Turkish
Default : No
Forced : No

Subtitle #27
ID : 29
Format : UTF-8
Codec ID : S_TEXT/UTF8
Codec ID/Info : UTF-8 Plain Text
Duration : 35 min 10 s
Bit rate : 97 b/s
Count of elements : 590
Stream size : 25.2 KiB (0%)
Language : Vietnamese
Default : No
Forced : No

Subtitle #28
ID : 30
Format : UTF-8
Codec ID : S_TEXT/UTF8
Codec ID/Info : UTF-8 Plain Text
Duration : 35 min 10 s
Bit rate : 90 b/s
Count of elements : 651
Stream size : 23.3 KiB (0%)
Title : Simplified
Language : Chinese
Default : No
Forced : No

Subtitle #29
ID : 31
Format : UTF-8
Codec ID : S_TEXT/UTF8
Codec ID/Info : UTF-8 Plain Text
Duration : 35 min 10 s
Bit rate : 80 b/s
Count of elements : 650
Stream size : 20.7 KiB (0%)
Title : Traditional
Language : Chinese
Default : No
Forced : No

Screens

Download

Download: Google Drive

2160p

Space Force (2020) Season 01 S01 (2160p NF WEB-DL NVENC HEVC 10bit AAC 5.1 Joy) [UTR]

Files

Space Force Season 1 [2160p NV 10bit S90 Joy]

  • Space Force S01E01 The Launch [2160p NV 10bit Joy].mkv (1.0 GB)
  • Space Force S01E02 Save Epsilon 6! [2160p NV 10bit Joy].mkv (912.9 MB)
  • Space Force S01E03 Mark and Mallory Go to Washington [2160p NV 10bit Joy].mkv (867.2 MB)
  • Space Force S01E04 Lunar Habitat [2160p NV 10bit Joy].mkv (941.8 MB)
  • Space Force S01E05 Space Flag [2160p NV 10bit Joy].mkv (864.1 MB)
  • Space Force S01E06 The Spy [2160p NV 10bit Joy].mkv (992.2 MB)
  • Space Force S01E07 Edison Jaymes [2160p NV 10bit Joy].mkv (772.1 MB)
  • Space Force S01E08 Conjugal Visit [2160p NV 10bit Joy].mkv (918.2 MB)
  • Space Force S01E09 It’s Good to Be Back on the Moon [2160p NV 10bit Joy].mkv (1,013.9 MB)
  • Space Force S01E10 Proportionate Response [2160p NV 10bit Joy].mkv (1.0 GB)

Mediainfo

General
Format                                   : Matroska
Format version                           : Version 4 / Version 2
File size                                : 1.04 GiB
Duration                                 : 36 min 38 s
Overall bit rate                         : 4 061 kb/s
Movie name                               : Space Force S01E01 The Launch  [2160p NV 10bit Joy][UTR]
Encoded date                             : UTC 2020-05-31 05:40:54
Writing application                      : mkvmerge v44.0.0 ('Domino') 64-bit
Writing library                          : libebml v1.3.10 + libmatroska v1.5.2

Video
ID                                       : 1
Format                                   : HEVC
Format/Info                              : High Efficiency Video Coding
Format profile                           : Main [email protected]@High
Codec ID                                 : V_MPEGH/ISO/HEVC
Duration                                 : 36 min 38 s
Bit rate                                 : 3 822 kb/s
Width                                    : 3 840 pixels
Height                                   : 1 744 pixels
Display aspect ratio                     : 2.2:1
Frame rate mode                          : Constant
Frame rate                               : 23.976 (24000/1001) FPS
Color space                              : YUV
Chroma subsampling                       : 4:2:0
Bit depth                                : 10 bits
Bits/(Pixel*Frame)                       : 0.024
Stream size                              : 1 002 MiB (94%)
Default                                  : Yes
Forced                                   : No
Color range                              : Limited
Matrix coefficients                      : BT.709

Audio
ID                                       : 2
Format                                   : AAC
Format/Info                              : Advanced Audio Codec
Format profile                           : LC
Codec ID                                 : A_AAC
Duration                                 : 36 min 38 s
Bit rate                                 : 232 kb/s
Channel(s)                               : 6 channels
Channel positions                        : Front: L C R, Side: L R, LFE
Sampling rate                            : 48.0 kHz
Frame rate                               : 46.875 FPS (1024 spf)
Compression mode                         : Lossy
Delay relative to video                  : 9 ms
Stream size                              : 60.8 MiB (6%)
Title                                    : English
Language                                 : English
Default                                  : No
Forced                                   : No

Subtitle #1
ID                                       : 3
Format                                   : UTF-8
Codec ID                                 : S_TEXT/UTF8
Codec ID/Info                            : UTF-8 Plain Text
Duration                                 : 35 min 10 s
Bit rate                                 : 96 b/s
Count of elements                        : 724
Stream size                              : 24.9 KiB (0%)
Title                                    : SDH
Language                                 : English
Default                                  : No
Forced                                   : No

Subtitle #2
ID                                       : 4
Format                                   : UTF-8
Codec ID                                 : S_TEXT/UTF8
Codec ID/Info                            : UTF-8 Plain Text
Duration                                 : 34 min 3 s
Bit rate                                 : 134 b/s
Count of elements                        : 625
Stream size                              : 33.5 KiB (0%)
Language                                 : Arabic
Default                                  : No
Forced                                   : No

Subtitle #3
ID                                       : 5
Format                                   : UTF-8
Codec ID                                 : S_TEXT/UTF8
Codec ID/Info                            : UTF-8 Plain Text
Duration                                 : 35 min 10 s
Bit rate                                 : 75 b/s
Count of elements                        : 608
Stream size                              : 19.3 KiB (0%)
Language                                 : Czech
Default                                  : No
Forced                                   : No

Subtitle #4
ID                                       : 6
Format                                   : UTF-8
Codec ID                                 : S_TEXT/UTF8
Codec ID/Info                            : UTF-8 Plain Text
Duration                                 : 35 min 10 s
Bit rate                                 : 68 b/s
Count of elements                        : 440
Stream size                              : 17.7 KiB (0%)
Language                                 : Danish
Default                                  : No
Forced                                   : No

Subtitle #5
ID                                       : 7
Format                                   : UTF-8
Codec ID                                 : S_TEXT/UTF8
Codec ID/Info                            : UTF-8 Plain Text
Duration                                 : 35 min 10 s
Bit rate                                 : 69 b/s
Count of elements                        : 580
Stream size                              : 18.0 KiB (0%)
Language                                 : German
Default                                  : No
Forced                                   : No

Subtitle #6
ID                                       : 8
Format                                   : UTF-8
Codec ID                                 : S_TEXT/UTF8
Codec ID/Info                            : UTF-8 Plain Text
Duration                                 : 35 min 10 s
Bit rate                                 : 127 b/s
Count of elements                        : 616
Stream size                              : 32.7 KiB (0%)
Language                                 : Greek
Default                                  : No
Forced                                   : No

Subtitle #7
ID                                       : 9
Format                                   : UTF-8
Codec ID                                 : S_TEXT/UTF8
Codec ID/Info                            : UTF-8 Plain Text
Duration                                 : 35 min 10 s
Bit rate                                 : 73 b/s
Count of elements                        : 572
Stream size                              : 18.9 KiB (0%)
Language                                 : Spanish
Default                                  : No
Forced                                   : No

Subtitle #8
ID                                       : 10
Format                                   : UTF-8
Codec ID                                 : S_TEXT/UTF8
Codec ID/Info                            : UTF-8 Plain Text
Duration                                 : 35 min 10 s
Bit rate                                 : 72 b/s
Count of elements                        : 591
Stream size                              : 18.6 KiB (0%)
Title                                    : European
Language                                 : Spanish
Default                                  : No
Forced                                   : No

Subtitle #9
ID                                       : 11
Format                                   : UTF-8
Codec ID                                 : S_TEXT/UTF8
Codec ID/Info                            : UTF-8 Plain Text
Duration                                 : 35 min 10 s
Bit rate                                 : 71 b/s
Count of elements                        : 569
Stream size                              : 18.5 KiB (0%)
Language                                 : Finnish
Default                                  : No
Forced                                   : No

Subtitle #10
ID                                       : 12
Format                                   : UTF-8
Codec ID                                 : S_TEXT/UTF8
Codec ID/Info                            : UTF-8 Plain Text
Duration                                 : 35 min 10 s
Bit rate                                 : 69 b/s
Count of elements                        : 566
Stream size                              : 18.0 KiB (0%)
Language                                 : French
Default                                  : No
Forced                                   : No

Subtitle #11
ID                                       : 13
Format                                   : UTF-8
Codec ID                                 : S_TEXT/UTF8
Codec ID/Info                            : UTF-8 Plain Text
Duration                                 : 35 min 10 s
Bit rate                                 : 124 b/s
Count of elements                        : 620
Stream size                              : 32.1 KiB (0%)
Language                                 : Hebrew
Default                                  : No
Forced                                   : No

Subtitle #12
ID                                       : 14
Format                                   : UTF-8
Codec ID                                 : S_TEXT/UTF8
Codec ID/Info                            : UTF-8 Plain Text
Duration                                 : 35 min 10 s
Bit rate                                 : 73 b/s
Count of elements                        : 534
Stream size                              : 19.0 KiB (0%)
Language                                 : Hungarian
Default                                  : No
Forced                                   : No

Subtitle #13
ID                                       : 15
Format                                   : UTF-8
Codec ID                                 : S_TEXT/UTF8
Codec ID/Info                            : UTF-8 Plain Text
Duration                                 : 35 min 12 s
Bit rate                                 : 72 b/s
Count of elements                        : 625
Stream size                              : 18.6 KiB (0%)
Language                                 : Indonesian
Default                                  : No
Forced                                   : No

Subtitle #14
ID                                       : 16
Format                                   : UTF-8
Codec ID                                 : S_TEXT/UTF8
Codec ID/Info                            : UTF-8 Plain Text
Duration                                 : 35 min 10 s
Bit rate                                 : 72 b/s
Count of elements                        : 575
Stream size                              : 18.8 KiB (0%)
Language                                 : Italian
Default                                  : No
Forced                                   : No

Subtitle #15
ID                                       : 17
Format                                   : UTF-8
Codec ID                                 : S_TEXT/UTF8
Codec ID/Info                            : UTF-8 Plain Text
Duration                                 : 35 min 10 s
Bit rate                                 : 73 b/s
Count of elements                        : 591
Stream size                              : 18.8 KiB (0%)
Language                                 : Japanese
Default                                  : No
Forced                                   : No

Subtitle #16
ID                                       : 18
Format                                   : UTF-8
Codec ID                                 : S_TEXT/UTF8
Codec ID/Info                            : UTF-8 Plain Text
Duration                                 : 35 min 10 s
Bit rate                                 : 93 b/s
Count of elements                        : 629
Stream size                              : 24.1 KiB (0%)
Language                                 : Korean
Default                                  : No
Forced                                   : No

Subtitle #17
ID                                       : 19
Format                                   : UTF-8
Codec ID                                 : S_TEXT/UTF8
Codec ID/Info                            : UTF-8 Plain Text
Duration                                 : 35 min 10 s
Bit rate                                 : 70 b/s
Count of elements                        : 549
Stream size                              : 18.2 KiB (0%)
Language                                 : Norwegian Bokmal
Default                                  : No
Forced                                   : No

Subtitle #18
ID                                       : 20
Format                                   : UTF-8
Codec ID                                 : S_TEXT/UTF8
Codec ID/Info                            : UTF-8 Plain Text
Duration                                 : 35 min 10 s
Bit rate                                 : 69 b/s
Count of elements                        : 508
Stream size                              : 17.9 KiB (0%)
Language                                 : Dutch
Default                                  : No
Forced                                   : No

Subtitle #19
ID                                       : 21
Format                                   : UTF-8
Codec ID                                 : S_TEXT/UTF8
Codec ID/Info                            : UTF-8 Plain Text
Duration                                 : 35 min 11 s
Bit rate                                 : 68 b/s
Count of elements                        : 609
Stream size                              : 17.6 KiB (0%)
Language                                 : Polish
Default                                  : No
Forced                                   : No

Subtitle #20
ID                                       : 22
Format                                   : UTF-8
Codec ID                                 : S_TEXT/UTF8
Codec ID/Info                            : UTF-8 Plain Text
Duration                                 : 35 min 11 s
Bit rate                                 : 81 b/s
Count of elements                        : 598
Stream size                              : 21.0 KiB (0%)
Language                                 : Portuguese
Default                                  : No
Forced                                   : No

Subtitle #21
ID                                       : 23
Format                                   : UTF-8
Codec ID                                 : S_TEXT/UTF8
Codec ID/Info                            : UTF-8 Plain Text
Duration                                 : 35 min 10 s
Bit rate                                 : 73 b/s
Count of elements                        : 573
Stream size                              : 18.9 KiB (0%)
Title                                    : Brazilian
Language                                 : Portuguese
Default                                  : No
Forced                                   : No

Subtitle #22
ID                                       : 24
Format                                   : UTF-8
Codec ID                                 : S_TEXT/UTF8
Codec ID/Info                            : UTF-8 Plain Text
Duration                                 : 35 min 10 s
Bit rate                                 : 85 b/s
Count of elements                        : 598
Stream size                              : 22.1 KiB (0%)
Language                                 : Romanian
Default                                  : No
Forced                                   : No

Subtitle #23
ID                                       : 25
Format                                   : UTF-8
Codec ID                                 : S_TEXT/UTF8
Codec ID/Info                            : UTF-8 Plain Text
Duration                                 : 35 min 12 s
Bit rate                                 : 119 b/s
Count of elements                        : 619
Stream size                              : 30.9 KiB (0%)
Language                                 : Russian
Default                                  : No
Forced                                   : No

Subtitle #24
ID                                       : 26
Format                                   : UTF-8
Codec ID                                 : S_TEXT/UTF8
Codec ID/Info                            : UTF-8 Plain Text
Duration                                 : 35 min 10 s
Bit rate                                 : 69 b/s
Count of elements                        : 571
Stream size                              : 17.9 KiB (0%)
Language                                 : Swedish
Default                                  : No
Forced                                   : No

Subtitle #25
ID                                       : 27
Format                                   : UTF-8
Codec ID                                 : S_TEXT/UTF8
Codec ID/Info                            : UTF-8 Plain Text
Duration                                 : 35 min 10 s
Bit rate                                 : 196 b/s
Count of elements                        : 632
Stream size                              : 50.7 KiB (0%)
Language                                 : Thai
Default                                  : No
Forced                                   : No

Subtitle #26
ID                                       : 28
Format                                   : UTF-8
Codec ID                                 : S_TEXT/UTF8
Codec ID/Info                            : UTF-8 Plain Text
Duration                                 : 35 min 10 s
Bit rate                                 : 73 b/s
Count of elements                        : 618
Stream size                              : 18.9 KiB (0%)
Language                                 : Turkish
Default                                  : No
Forced                                   : No

Subtitle #27
ID                                       : 29
Format                                   : UTF-8
Codec ID                                 : S_TEXT/UTF8
Codec ID/Info                            : UTF-8 Plain Text
Duration                                 : 35 min 10 s
Bit rate                                 : 97 b/s
Count of elements                        : 590
Stream size                              : 25.2 KiB (0%)
Language                                 : Vietnamese
Default                                  : No
Forced                                   : No

Subtitle #28
ID                                       : 30
Format                                   : UTF-8
Codec ID                                 : S_TEXT/UTF8
Codec ID/Info                            : UTF-8 Plain Text
Duration                                 : 35 min 10 s
Bit rate                                 : 90 b/s
Count of elements                        : 651
Stream size                              : 23.3 KiB (0%)
Title                                    : Simplified
Language                                 : Chinese
Default                                  : No
Forced                                   : No

Subtitle #29
ID                                       : 31
Format                                   : UTF-8
Codec ID                                 : S_TEXT/UTF8
Codec ID/Info                            : UTF-8 Plain Text
Duration                                 : 35 min 10 s
Bit rate                                 : 80 b/s
Count of elements                        : 650
Stream size                              : 20.7 KiB (0%)
Title                                    : Traditional
Language                                 : Chinese
Default                                  : No
Forced                                   : No

Screens

Download

Download: Google Drive

19 thoughts on “Space Force (2020) Season 1 (1080p + 2160p NF WEB-DL x265 HEVC 10bit AAC 5.1 Joy)

    1. Yes, I’m cleaning up older posts and that’s a sign for it, as it has new seasons older post was deleted.
      It’s close to done and you can expect the new post very soon.

  1. Bro Can you fix links for Brooklyn Nine Nine… Also it would be great if you upload these comedy shows:

    1️⃣ Veep (2012) Season 1-7 S01-S07 (1080p BluRay x265 HEVC 10bit AAC 5.1 Silence) 61.5GB

    2️⃣ Parks and Recreation (2009) Season 1-7 S01-S07 (1080p AMZN WEBRip x265 HEVC 10bit AAC 5.1 Silence) 69.2GB

    3️⃣ 30 Rock (2006) Season 1-7 S01-S07 (1080p AMZN WEBRip x265 HEVC 10bit AAC 5.1 Silence) 75.8GB

    1. Nice.. I recently watched The Office. These shows are kinda similar to The Office, I think so..
      @Admin i need these shows too.. Upload whenever you can.. tnx

  2. Hey admin, Please upload some south indian movies, by the encoder bandi. Seriously deprived here. Much love.

    1. South Indian is niche so it’s doubtful.
      Will add Hindi ones by Bandi though.

      Anyways, wait till a Request link is open. Not going to act on any which are requested currently.

    1. It was released recently afterall.
      QxR doesn’t really post newest TV series in general. You might expect once they are in BluRay.
      Vyndros posts limited shows of his choice as well.

      1. Ok. Thanks.. Do you know Any of these Vyndros, Silence, RZeroX erc guys personally?? Please ask them to encode Space Force in bigger size and HQ Quality

Leave a Reply