Sense8 (2015) Season 1-2 (1080p WEB-DL x265 HEVC 10bit AAC 5.1 D0ct0rLew)

Summary: A group of people around the world are suddenly linked mentally, and must find a way to survive being hunted by those who see them as a threat to the world’s order.

Season 1

Sense8 (2015) Season 1 S01 (1080p WEB-DL x265 HEVC 10bit AAC 5.1 D0ct0rLew) [UTR]

Files

Sense8 Season 1 1080p 5.1 webdl x265 HEVC D0ctorLew[UTR]
Sense8 S01E01 Webdl 1080p10bit 5.1 x265 HEVC D0ct0rLew[UTR].mkv (914.0 MB)
Sense8 S01E02 Webdl 1080p10bit 5.1 x265 HEVC D0ct0rLew[UTR].mkv (793.8 MB)
Sense8 S01E03 Webdl 1080p10bit 5.1 x265 HEVC D0ct0rLew[UTR].mkv (773.5 MB)
Sense8 S01E04 Webdl 1080p10bit 5.1 x265 HEVC D0ct0rLew[UTR].mkv (716.4 MB)
Sense8 S01E05 Webdl 1080p10bit 5.1 x265 HEVC D0ct0rLew[UTR].mkv (860.3 MB)
Sense8 S01E06 Webdl 1080p10bit 5.1 x265 HEVC D0ct0rLew[UTR].mkv (638.0 MB)
Sense8 S01E07 Webdl 1080p10bit 5.1 x265 HEVC D0ct0rLew[UTR].mkv (793.4 MB)
Sense8 S01E08 Webdl 1080p10bit 5.1 x265 HEVC D0ct0rLew[UTR].mkv (701.2 MB)
Sense8 S01E09 Webdl 1080p10bit 5.1 x265 HEVC D0ct0rLew[UTR].mkv (579.2 MB)
Sense8 S01E10 Webdl 1080p10bit 5.1 x265 HEVC D0ct0rLew[UTR].mkv (839.8 MB)
Sense8 S01E11 Webdl 1080p10bit 5.1 x265 HEVC D0ct0rLew[UTR].mkv (707.0 MB)
Sense8 S01E12 Webdl 1080p10bit 5.1 x265 HEVC D0ct0rLew[UTR].mkv (805.4 MB)

Mediainfo

General 
Unique ID                                : 231644025681388658213553921290170230010 (0xAE45043C9BE4581F8C2D19306F9364FA) 
Format                                   : Matroska 
Format version                           : Version 4 / Version 2 
File size                                : 805 MiB 
Duration                                 : 54 min 32 s 
Overall bit rate                         : 2 065 kb/s 
Movie name                               : Sense8 S01E12 I Cant Leave Her 1080p NF WEBRip DD5 1 x264-NTb 
Encoded date                             : UTC 2016-01-19 04:18:25 
Writing application                      : mkvmerge v8.6.1 ('Flying') 32bit 
Writing library                          : libebml v1.3.3 + libmatroska v1.4.4 

Video 
ID                                       : 1 
Format                                   : HEVC 
Format/Info                              : High Efficiency Video Coding 
Format profile                           : Main [email protected]@Main 
Codec ID                                 : V_MPEGH/ISO/HEVC 
Duration                                 : 54 min 32 s 
Bit rate                                 : 1 871 kb/s 
Width                                    : 1 920 pixels 
Height                                   : 1 080 pixels 
Display aspect ratio                     : 16:9 
Frame rate mode                          : Constant 
Frame rate                               : 23.976 (24000/1001) FPS 
Color space                              : YUV 
Chroma subsampling                       : 4:2:0 
Bit depth                                : 10 bits 
Bits/(Pixel*Frame)                       : 0.038 
Stream size                              : 730 MiB (91%) 
Writing library                          : x265 1.8+187-da48f2690076:[Windows][GCC 5.2.0][64 bit] 10bit 
Encoding settings                        : wpp / ctu=64 / min-cu-size=8 / max-tu-size=32 / tu-intra-depth=2 / tu-inter-depth=2 / me=3 / subme=3 / merange=57 / no-rect / no-amp / max-merge=3 / temporal-mvp / no-early-skip / rdpenalty=0 / no-tskip / no-tskip-fast / strong-intra-smoothing / no-lossless / no-cu-lossless / no-constrained-intra / no-fast-intra / open-gop / no-temporal-layers / interlace=0 / keyint=240 / min-keyint=24 / scenecut=40 / rc-lookahead=30 / lookahead-slices=4 / bframes=8 / bframe-bias=0 / b-adapt=2 / ref=4 / limit-refs=2 / limit-modes / weightp / weightb / aq-mode=1 / qg-size=32 / aq-strength=1.00 / cbqpoffs=0 / crqpoffs=0 / rd=6 / psy-rd=0.30 / rdoq-level=2 / psy-rdoq=1.00 / signhide / deblock / sao / no-sao-non-deblock / b-pyramid / cutree / no-intra-refresh / rc=crf / crf=22.5 / qcomp=0.60 / qpmin=0 / qpmax=51 / qpstep=4 / ipratio=1.40 / pbratio=1.30 
Default                                  : Yes 
Forced                                   : No 

Audio 
ID                                       : 2 
Format                                   : AAC 
Format/Info                              : Advanced Audio Codec 
Format profile                           : HE-AAC / LC 
Codec ID                                 : A_AAC 
Duration                                 : 54 min 32 s 
Bit rate                                 : 192 kb/s 
Channel(s)                               : 6 channels 
Channel positions                        : Front: L C R, Side: L R, LFE 
Sampling rate                            : 48.0 kHz / 24.0 kHz 
Frame rate                               : 23.438 FPS (1024 spf) 
Compression mode                         : Lossy 
Stream size                              : 74.9 MiB (9%) 
Language                                 : English 
Default                                  : Yes 
Forced                                   : No

Download

Download: Google Drive (8.91 GB)

Season 2

Sense8 (2015) Season 2 S02 (1080p WEBRip x265 HEVC 10bit AAC 5 1 D0ct0rLew) [UTR]

Files

Sense8 S02 WEBRip 1080p10bit DD5.1 x265 HEVC D0ct0rLew[UTR]
Sense8 S02E01 WEBRip 1080p10bit DD5.1 x265 HEVC D0ct0rLew[UTR].mkv (5.7 GB)
Sense8 S02E02 WEBRip 1080p10bit DD5.1 x265 HEVC D0ct0rLew[UTR].mkv (1.4 GB)
Sense8 S02E03 WEBRip 1080p10bit DD5.1 x265 HEVC D0ct0rLew[UTR].mkv (1.3 GB)
Sense8 S02E04 WEBRip 1080p10bit DD5.1 x265 HEVC D0ct0rLew[UTR].mkv (2.6 GB)
Sense8 S02E05 WEBRip 1080p10bit DD5.1 x265 HEVC D0ct0rLew[UTR].mkv (1.6 GB)
Sense8 S02E06 WEBRip 1080p10bit DD5.1 x265 HEVC D0ct0rLew[UTR].mkv (2.9 GB)
Sense8 S02E07 WEBRip 1080p10bit DD5.1 x265 HEVC D0ct0rLew[UTR].mkv (2.0 GB)
Sense8 S02E08 WEBRip 1080p10bit DD5.1 x265 HEVC D0ct0rLew[UTR].mkv (2.3 GB)
Sense8 S02E09 WEBRip 1080p10bit DD5.1 x265 HEVC D0ct0rLew[UTR].mkv (2.2 GB)
Sense8 S02E10 WEBRip 1080p10bit DD5.1 x265 HEVC D0ct0rLew[UTR].mkv (2.6 GB)
Sense8 S02E11 WEBRip 1080p10bit DD5.1 x265 HEVC D0ct0rLew[UTR].mkv (3.6 GB)

Mediainfo

General 
Unique ID                                : 178040750126057589684908510819529104461 (0x85F166B4F880DB33AF0F3BE5DEF19C4D) 
Name                            : Sense8 S02E09 WEBRip 1080p10bit DD5.1 x265 HEVC D0ct0rLew[UTR].mkv 
Format                                   : Matroska 
Format version                           : Version 4 / Version 2 
File size                                : 2.21 GiB 
Duration                                 : 57 min 47 s 
Overall bit rate                         : 5 484 kb/s 
Encoded date                             : UTC 2017-07-21 00:40:07 
Writing application                      : mkvmerge v12.0.0 ('Trust / Lust') 64bit 
Writing library                          : libebml v1.3.4 + libmatroska v1.4.5 

Video 
ID                                       : 1 
Format                                   : HEVC 
Format/Info                              : High Efficiency Video Coding 
Format profile                           : Main [email protected]@Main 
Codec ID                                 : V_MPEGH/ISO/HEVC 
Duration                                 : 57 min 19 s 
Bit rate                                 : 5 140 kb/s 
Width                                    : 1 920 pixels 
Height                                   : 1 080 pixels 
Display aspect ratio                     : 16:9 
Frame rate mode                          : Constant 
Frame rate                               : 23.976 (24000/1001) FPS 
Color space                              : YUV 
Chroma subsampling                       : 4:2:0 
Bit depth                                : 10 bits 
Bits/(Pixel*Frame)                       : 0.103 
Stream size                              : 2.06 GiB (93%) 
Writing library                          : x265 2.4+26-355cf3582263:[Windows][GCC 7.1.0][64 bit] 10bit 
Encoding settings                        : cpuid=1050111 / frame-threads=3 / numa-pools=8 / wpp / no-pmode / no-pme / no-psnr / no-ssim / log-level=2 / input-csp=1 / input-res=1920x1080 / interlace=0 / total-frames=82472 / level-idc=0 / high-tier=1 / uhd-bd=0 / ref=4 / no-allow-non-conformance / no-repeat-headers / annexb / no-aud / no-hrd / info / hash=0 / no-temporal-layers / open-gop / min-keyint=23 / keyint=250 / bframes=8 / b-adapt=2 / b-pyramid / bframe-bias=0 / rc-lookahead=80 / lookahead-slices=4 / scenecut=40 / no-intra-refresh / ctu=64 / min-cu-size=8 / rect / no-amp / max-tu-size=32 / tu-inter-depth=1 / tu-intra-depth=1 / limit-tu=0 / rdoq-level=2 / dynamic-rd=0.00 / no-ssim-rd / signhide / no-tskip / nr-intra=0 / nr-inter=0 / no-constrained-intra / strong-intra-smoothing / max-merge=3 / limit-refs=3 / limit-modes / me=3 / subme=3 / merange=57 / temporal-mvp / weightp / no-weightb / no-analyze-src-pics / deblock=0:0 / no-sao / no-sao-non-deblock / rd=4 / no-early-skip / rskip / no-fast-intra / no-tskip-fast / no-cu-lossless / no-b-intra / rdpenalty=0 / psy-rd=1.50 / psy-rdoq=1.00 / no-rd-refine / analysis-mode=0 / no-lossless / cbqpoffs=-3 / crqpoffs=-3 / rc=crf / crf=22.5 / qcomp=0.80 / qpstep=4 / stats-write=0 / stats-read=0 / ipratio=1.40 / pbratio=1.30 / aq-mode=3 / aq-strength=1.00 / cutree / zone-count=0 / no-strict-cbr / qg-size=32 / no-rc-grain / qpmax=69 / qpmin=0 / sar=0 / overscan=0 / videoformat=5 / range=0 / colorprim=2 / transfer=2 / colormatrix=2 / chromaloc=0 / display-window=0 / max-cll=0,0 / min-luma=0 / max-luma=1023 / log2-max-poc-lsb=8 / vui-timing-info / vui-hrd-info / slices=1 / opt-qp-pps / opt-ref-list-length-pps / no-multi-pass-opt-rps / scenecut-bias=0.05 / no-opt-cu-delta-qp / aq-motion / no-hdr / no-hdr-opt / no-dhdr10-opt / refine-level=5 / no-limit-sao / ctu-info=0 
Default                                  : Yes 
Forced                                   : No 

Audio 
ID                                       : 2 
Format                                   : AC-3 
Format/Info                              : Audio Coding 3 
Mode extension                           : CM (complete main) 
Format settings, Endianness              : Big 
Codec ID                                 : A_AC3 
Duration                                 : 57 min 47 s 
Bit rate mode                            : Constant 
Bit rate                                 : 384 kb/s 
Channel(s)                               : 6 channels 
Channel positions                        : Front: L C R, Side: L R, LFE 
Sampling rate                            : 48.0 kHz 
Frame rate                               : 31.250 FPS (1536 spf) 
Bit depth                                : 16 bits 
Compression mode                         : Lossy 
Stream size                              : 159 MiB (7%) 
Language                                 : English 
Default                                  : Yes 
Forced                                   : No 

Text #1 
ID                                       : 3 
Format                                   : UTF-8 
Codec ID                                 : S_TEXT/UTF8 
Codec ID/Info                            : UTF-8 Plain Text 
Duration                                 : 53 min 33 s 
Bit rate                                 : 58 b/s 
Count of elements                        : 681 
Stream size                              : 22.8 KiB (0%) 
Language                                 : English 
Default                                  : Yes 
Forced                                   : No 

Text #2 
ID                                       : 4 
Format                                   : UTF-8 
Codec ID                                 : S_TEXT/UTF8 
Codec ID/Info                            : UTF-8 Plain Text 
Duration                                 : 54 min 6 s 
Bit rate                                 : 49 b/s 
Count of elements                        : 623 
Stream size                              : 19.7 KiB (0%) 
Language                                 : Spanish 
Default                                  : No 
Forced                                   : No 

Text #3 
ID                                       : 5 
Format                                   : UTF-8 
Codec ID                                 : S_TEXT/UTF8 
Codec ID/Info                            : UTF-8 Plain Text 
Duration                                 : 57 min 11 s 
Bit rate                                 : 51 b/s 
Count of elements                        : 606 
Stream size                              : 21.5 KiB (0%) 
Language                                 : French 
Default                                  : No 
Forced                                   : No 

Text #4 
ID                                       : 6 
Format                                   : UTF-8 
Codec ID                                 : S_TEXT/UTF8 
Codec ID/Info                            : UTF-8 Plain Text 
Duration                                 : 54 min 6 s 
Bit rate                                 : 51 b/s 
Count of elements                        : 616 
Stream size                              : 20.4 KiB (0%) 
Title                                    : Traditional 
Language                                 : Chinese 
Default                                  : No 
Forced                                   : No 

Text #5 
ID                                       : 7 
Format                                   : UTF-8 
Codec ID                                 : S_TEXT/UTF8 
Codec ID/Info                            : UTF-8 Plain Text 
Duration                                 : 54 min 6 s 
Bit rate                                 : 51 b/s 
Count of elements                        : 623 
Stream size                              : 20.5 KiB (0%) 
Title                                    : Simplified 
Language                                 : Chinese 
Default                                  : No 
Forced                                   : No

Download

Download: Google Drive (28.18 GB)

4 thoughts on “Sense8 (2015) Season 1-2 (1080p WEB-DL x265 HEVC 10bit AAC 5.1 D0ct0rLew)

  1. Can you please upload the following tv series?

    (i) vikings – all 5 seasons.
    (ii) narcos – all 3 seasons.
    (iii) sense8 – 2 seasons.
    (ii) season 2 of westworld.

    It seems that sense8 and narcos gdrive links are working. Please confirm if it’s so. I’m asking this because with old links sometimes the download gets interrupted.

    1. Those two have working links. I had just updated and made sure of that yesterday.
      Westworld S2 should be fixed soon as well.

Leave a Reply