Rick and Morty (2013) Season 1-4 (1080p + 2160p Mixed x265 HEVC 10bit AAC 5.1 Joy)

Summary: An animated series that follows the misadventures of an alcoholic scientist Rick and his overly nervous grandson Morty, who split their time between domestic family life and intergalactic travel. Often finding themselves in a heap of trouble that more often than not is created through their own actions.

Season 1 (1080p)

Rick and Morty Season 1 S01 (1080p BluRay x265 HEVC 10bit AAC 5.1 Q22 Joy) [UTR]

Files

Rick and Morty Season 1 (1080p BD x265 q22 S100 Joy)

  • Rick and Morty S01E01 Pilot (1080p x265 q22 S100 Joy).mkv (366.2 MB)
  • Rick and Morty S01E02 Lawnmower Dog (1080p x265 q22 S100 Joy).mkv (418.2 MB)
  • Rick and Morty S01E03 Anatomy Park (1080p x265 q22 S99 Joy).mkv (458.0 MB)
  • Rick and Morty S01E04 M Night Shaym-Aliens! (1080p x265 q22 S98 Joy).mkv (492.3 MB)
  • Rick and Morty S01E05 Meeseeks and Destroy (1080p x265 q22 S100 Joy).mkv (393.6 MB)
  • Rick and Morty S01E06 Rick Potion #9 (1080p x265 q22 S100 Joy).mkv (403.9 MB)
  • Rick and Morty S01E07 Raising Gazorpazorp (1080p x265 q22 S100 Joy).mkv (400.3 MB)
  • Rick and Morty S01E08 Rixty Minutes (1080p x265 q22 S100 Joy).mkv (343.5 MB)
  • Rick and Morty S01E09 Something Ricked This Way Comes (1080p x265 q22 S100 Joy).mkv (357.3 MB)
  • Rick and Morty S01E10 Close Rick-counters of the Rick Kind (1080p x265 q22 S100 Joy).mkv (493.9 MB)
  • Rick and Morty S01E11 Ricksy Business (1080p x265 q22 S100 Joy).mkv (476.7 MB)

Extras

  • Episode 1 Full Animatic.mkv (54.3 MB)
  • Episode 2 Full Animatic.mkv (51.3 MB)
  • Episode 3 Full Animatic.mkv (51.3 MB)
  • Episode 4 Full Animatic.mkv (50.6 MB)
  • Episode 4 Morty Improv Raps.mkv (1.3 MB)
  • Episode 5 Cloud Trial.mkv (2.3 MB)
  • Episode 5 Full Animatic.mkv (49.6 MB)
  • Episode 5 Getting Booked.mkv (2.0 MB)
  • Episode 6 Full Animatic.mkv (50.3 MB)
  • Episode 6 Iinfinite Earths.mkv (2.9 MB)
  • Episode 7 Full Animatic.mkv (51.3 MB)
  • Episode 8 Deleted Show.mkv (1.3 MB)
  • Episode 8 Full Animatic.mkv (52.0 MB)
  • Episode 8 Interdimensional Cable.mkv (1.2 MB)
  • Episode 8 The Big Feels.mkv (2.7 MB)
  • Episode 9 Full Animatic.mkv (54.0 MB)
  • Episode 10 Full Animatic.mkv (52.8 MB)
  • Episode 11 Full Animatic.mkv (53.5 MB)
  • Morty Helps Rick in the Garage.mkv (3.8 MB)
  • Rick and Morty – Behind the Scenes.mkv (132.5 MB)
  • Title Screen.mkv (9.9 MB)

Mediainfo

Includes all extras and featurettes as well as the audio commentary tracks.

General
Format : Matroska
Format version : Version 4 / Version 2
File size : 400 MiB
Duration : 22 min 1 s
Overall bit rate : 2 541 kb/s
Movie name : Rick and Morty S01E07 Raising Gazorpazorp (1080p x265 q22 Joy)
Encoded date : UTC 2018-12-12 21:35:52
Writing application : mkvmerge v26.0.0 ('In The Game') 64-bit
Writing library : libebml v1.3.6 + libmatroska v1.4.9
Cover : Yes
Attachments : cover.jpg
Writing frontend : StaxRip v1.9.0.0, a JoyBell Encode

Video
ID : 1
Format : HEVC
Format/Info : High Efficiency Video Coding
Format profile : Main [email protected]@Main
Codec ID : V_MPEGH/ISO/HEVC
Duration : 22 min 1 s
Bit rate : 2 257 kb/s
Width : 1 920 pixels
Height : 1 080 pixels
Display aspect ratio : 16:9
Frame rate mode : Constant
Frame rate : 23.976 (24000/1001) FPS
Color space : YUV
Chroma subsampling : 4:2:0
Bit depth : 10 bits
Bits/(Pixel*Frame) : 0.045
Stream size : 356 MiB (89%)
Writing library : x265 2.8+69-856f056d392e:[Windows][MSVC 1915][64 bit] 10bit
Encoding settings : cpuid=1111039 / frame-threads=4 / numa-pools=16 / wpp / no-pmode / no-pme / no-psnr / ssim / log-level=2 / input-csp=1 / input-res=1920x1080 / interlace=0 / total-frames=31686 / level-idc=0 / high-tier=1 / uhd-bd=0 / ref=4 / no-allow-non-conformance / no-repeat-headers / annexb / no-aud / no-hrd / info / hash=0 / no-temporal-layers / open-gop / min-keyint=23 / keyint=250 / gop-lookahead=0 / bframes=8 / b-adapt=2 / b-pyramid / bframe-bias=0 / rc-lookahead=25 / lookahead-slices=4 / scenecut=40 / radl=0 / no-intra-refresh / ctu=64 / min-cu-size=8 / rect / no-amp / max-tu-size=32 / tu-inter-depth=1 / tu-intra-depth=1 / limit-tu=0 / rdoq-level=2 / dynamic-rd=0.00 / ssim-rd / signhide / no-tskip / nr-intra=0 / nr-inter=0 / no-constrained-intra / strong-intra-smoothing / max-merge=3 / limit-refs=3 / limit-modes / me=3 / subme=3 / merange=57 / temporal-mvp / weightp / no-weightb / no-analyze-src-pics / deblock=0:0 / sao / no-sao-non-deblock / rd=4 / early-skip / rskip / no-fast-intra / no-tskip-fast / no-cu-lossless / no-b-intra / no-splitrd-skip / rdpenalty=0 / psy-rd=1.20 / psy-rdoq=0.80 / no-rd-refine / no-lossless / cbqpoffs=0 / crqpoffs=0 / rc=crf / crf=22.0 / qcomp=0.60 / qpstep=4 / stats-write=0 / stats-read=0 / ipratio=1.40 / pbratio=1.30 / aq-mode=1 / aq-strength=1.00 / cutree / zone-count=0 / no-strict-cbr / qg-size=32 / no-rc-grain / qpmax=69 / qpmin=0 / no-const-vbv / sar=0 / overscan=0 / videoformat=5 / range=0 / colorprim=2 / transfer=2 / colormatrix=2 / chromaloc=0 / display-window=0 / max-cll=0,0 / min-luma=0 / max-luma=1023 / log2-max-poc-lsb=8 / vui-timing-info / vui-hrd-info / slices=1 / no-opt-qp-pps / no-opt-ref-list-length-pps / no-multi-pass-opt-rps / scenecut-bias=0.05 / no-opt-cu-delta-qp / no-aq-motion / no-hdr / no-hdr-opt / no-dhdr10-opt / no-idr-recovery-sei / analysis-reuse-level=5 / scale-factor=0 / refine-intra=0 / refine-inter=0 / refine-mv=0 / no-limit-sao / ctu-info=0 / no-lowpass-dct / refine-mv-type=0 / copy-pic=1 / max-ausize-factor=1.0 / no-dynamic-refine / no-single-sei
Default : Yes
Forced : No

Audio #1
ID : 2
Format : AAC
Format/Info : Advanced Audio Codec
Format profile : HE-AAC / LC
Codec ID : A_AAC
Duration : 22 min 1 s
Bit rate : 211 kb/s
Channel(s) : 6 channels
Channel positions : Front: L C R, Side: L R, LFE
Sampling rate : 48.0 kHz / 24.0 kHz
Frame rate : 23.438 FPS (1024 spf)
Compression mode : Lossy
Delay relative to video : 31 ms
Stream size : 33.3 MiB (8%)
Language : English
Default : No
Forced : No

Audio #2
ID : 3
Format : AAC
Format/Info : Advanced Audio Codec
Format profile : HE-AAC / LC
Codec ID : A_AAC
Duration : 22 min 1 s
Bit rate : 41.9 kb/s
Channel(s) : 2 channels
Channel positions : Front: L R
Sampling rate : 48.0 kHz / 24.0 kHz
Frame rate : 23.438 FPS (1024 spf)
Compression mode : Lossy
Delay relative to video : 31 ms
Stream size : 6.59 MiB (2%)
Title : Commentary
Language : English
Default : No
Forced : No

Subtitle
ID : 4
Format : PGS
Muxing mode : zlib
Codec ID : S_HDMV/PGS
Codec ID/Info : Picture based subtitle format used on BDs/HD-DVDs
Duration : 21 min 56 s
Bit rate : 68.9 kb/s
Count of elements : 1148
Stream size : 10.8 MiB (3%)
Title : English
Language : English
Default : No
Forced : No

Menu
00:00:00.000 : en:Chapter 01
00:01:09.069 : en:Chapter 02
00:01:41.017 : en:Chapter 03
00:09:09.215 : en:Chapter 04
00:20:39.238 : en:Chapter 05
00:21:09.268 : en:Chapter 06

Download

Download: Google Drive

Season 1 (2160p)

Rick and Morty (2013) Season 01 S01 (2160p BluRay x265 HEVC 10bit AAC 5.1 REPACK Joy) [UTR]

Files

Rick and Morty Season 1 (2160p BD x265 10bit S99 Joy)

  • Rick and Morty S01E01 Pilot (2160p x265 10bit FS97 Joy).mkv (689.8 MB)
  • Rick and Morty S01E02 Lawnmower Dog (2160p x265 10bit FS98 Joy).mkv (675.5 MB)
  • Rick and Morty S01E03 Anatomy Park (2160p x265 10bit FS95 Joy).mkv (675.1 MB)
  • Rick and Morty S01E04 M Night Shaym-Aliens! (2160p x265 10bit FS99 Joy).mkv (648.1 MB)
  • Rick and Morty S01E05 Meeseeks and Destroy (2160p x265 10bit FS100 Joy).mkv (652.6 MB)
  • Rick and Morty S01E06 Rick Potion #9 (2160p x265 10bit FS100 Joy).mkv (668.4 MB)
  • Rick and Morty S01E07 Raising Gazorpazorp (2160p x265 10bit FS100 Joy).mkv (678.7 MB)
  • Rick and Morty S01E08 Rixty Minutes (2160p x265 10bit FS100 Joy).mkv (853.1 MB)
  • Rick and Morty S01E09 Something Ricked This Way Comes (2160p x265 10bit FS100 Joy).mkv (687.4 MB)
  • Rick and Morty S01E10 Close Rick-counters of the Rick Kind (2160p x265 10bit FS99 Joy).mkv (699.6 MB)
  • Rick and Morty S01E11 Ricksy Business (2160p x265 10bit FS100 Joy).mkv (688.8 MB)

Extras

  • Episode 1 Full Animatic.mkv (54.3 MB)
  • Episode 2 Full Animatic.mkv (51.3 MB)
  • Episode 3 Full Animatic.mkv (51.3 MB)
  • Episode 4 Full Animatic.mkv (50.6 MB)
  • Episode 4 Morty Improv Raps.mkv (1.3 MB)
  • Episode 5 Cloud Trial.mkv (2.3 MB)
  • Episode 5 Full Animatic.mkv (49.6 MB)
  • Episode 5 Getting Booked.mkv (2.0 MB)
  • Episode 6 Full Animatic.mkv (50.3 MB)
  • Episode 6 Iinfinite Earths.mkv (2.9 MB)
  • Episode 7 Full Animatic.mkv (51.3 MB)
  • Episode 8 Deleted Show.mkv (1.3 MB)
  • Episode 8 Full Animatic.mkv (52.0 MB)
  • Episode 8 Interdimensional Cable.mkv (1.2 MB)
  • Episode 8 The Big Feels.mkv (2.7 MB)
  • Episode 9 Full Animatic.mkv (54.0 MB)
  • Episode 10 Full Animatic.mkv (52.8 MB)
  • Episode 11 Full Animatic.mkv (53.5 MB)
  • Morty Helps Rick in the Garage.mkv (3.8 MB)
  • Rick and Morty – Behind the Scenes.mkv (132.5 MB)
  • Title Screen.mkv (9.9 MB)

Mediainfo

This is an UPSAMPLE, I worked hard on this one. There is no 2160p source at this time. Enjoy.
Comparison of This vs 1080p Bluray:
https://slowpics.org/comparison/cc043a43-e043-45c8-8fec-55c31da5f0ab

General
Format                                   : Matroska
Format version                           : Version 4 / Version 2
File size                                : 690 MiB
Duration                                 : 22 min 1 s
Overall bit rate                         : 4 378 kb/s
Movie name                               : S01E01.Pilot  (1080p x265 10bit Joy)[UTR]
Encoded date                             : UTC 2019-08-07 17:00:48
Writing application                      : mkvmerge v34.0.0 ('Sight and Seen') 64-bit
Writing library                          : libebml v1.3.7 + libmatroska v1.5.0
Writing frontend                         : StaxRip v2.0.2.0, a JoyBell Encode

Video
ID                                       : 1
Format                                   : HEVC
Format/Info                              : High Efficiency Video Coding
Format profile                           : Main [email protected]@Main
Codec ID                                 : V_MPEGH/ISO/HEVC
Duration                                 : 22 min 1 s
Bit rate                                 : 3 998 kb/s
Width                                    : 3 840 pixels
Height                                   : 2 160 pixels
Display aspect ratio                     : 16:9
Frame rate mode                          : Constant
Frame rate                               : 23.976 (24000/1001) FPS
Color space                              : YUV
Chroma subsampling                       : 4:2:0
Bit depth                                : 10 bits
Bits/(Pixel*Frame)                       : 0.020
Stream size                              : 630 MiB (91%)
Writing library                          : x265 3.0_Au+24-4217e691387c:[Windows][GCC 9.1.1][64 bit] 10bit
Encoding settings                        : rc=abr / bitrate=4000 / qcomp=0.50 / qpstep=4 / stats-write=0 / stats-read=2 / cplxblur=20.0 / qblur=0.5 / qpmax=69 / qpmin=0 / no-lossless / no-cu-lossless / no-hevc-aq / no-aq-motion / aq-mode=3 / aq-strength=0.80 / cbqpoffs=0 / crqpoffs=0 / ipratio=1.40 / pbratio=1.30 / psy-rd=2.20 / psy-rdoq=1.15 / no-deblock / ref=4 / limit-refs=3 / limit-modes / bframes=8 / b-adapt=2 / bframe-bias=40 / b-pyramid / no-b-intra / weightp / no-weightb / keyint=250 / min-keyint=23 / rc-lookahead=80 / gop-lookahead=0 / scenecut=40 / scenecut-bias=0.05 / ctu=64 / min-cu-size=8 / me=3 / subme=5 / merange=57 / rd=4 / no-rd-refine / ssim-rd / dynamic-rd=0.00 / rdoq-level=2 / rdpenalty=0 / cutree / no-sao / no-limit-sao / no-sao-non-deblock / no-rect / no-amp / open-gop / max-tu-size=32 / tu-inter-depth=1 / tu-intra-depth=1 / limit-tu=0 / qg-size=32 / wpp / no-pmode / no-pme / no-psnr / ssim / no-tskip / constrained-intra / strong-intra-smoothing / max-merge=3 / nr-intra=0 / nr-inter=0 / input-csp=1 / input-res=3840x2160 / interlace=0 / total-frames=31683 / level-idc=0 / high-tier=1cpuid=1111039 / frame-threads=3 / numa-pools=12 / log-level=2 / uhd-bd=0 / lookahead-slices=4 / radl=0 / no-splice / no-intra-refresh / signhide / temporal-mvp / no-analyze-src-pics / early-skip / rskip / no-fast-intra / no-tskip-fast / splitrd-skip / zone-count=0 / no-strict-cbr / no-rc-grain / no-const-vbv / no-allow-non-conformance / no-repeat-headers / annexb / no-aud / no-hrd / info / hash=0 / no-temporal-layers / sar=0 / overscan=0 / videoformat=5 / range=0 / colorprim=2 / transfer=2 / colormatrix=2 / chromaloc=0 / display-window=0 / max-cll=0,0 / min-luma=0 / max-luma=1023 / log2-max-poc-lsb=8 / vui-timing-info / vui-hrd-info / slices=1 / no-opt-qp-pps / no-opt-ref-list-length-pps / multi-pass-opt-rps / no-opt-cu-delta-qp / no-hdr / no-hdr-opt / no-dhdr10-opt / no-idr-recovery-sei / analysis-reuse-level=10 / scale-factor=0 / refine-intra=0 / refine-inter=0 / refine-mv=0 / refine-ctu-distortion=0 / ctu-info=0 / no-lowpass-dct / refine-analysis-type=0 / copy-pic=1 / max-ausize-factor=1.0 / no-dynamic-refine / no-single-sei / no-svt / qp-adaptation-range=1.00
Default                                  : Yes
Forced                                   : No

Audio #1
ID                                       : 2
Format                                   : AAC
Format/Info                              : Advanced Audio Codec
Format profile                           : LC
Codec ID                                 : A_AAC
Duration                                 : 22 min 1 s
Bit rate                                 : 324 kb/s
Channel(s)                               : 6 channels
Channel positions                        : Front: L C R, Side: L R, LFE
Sampling rate                            : 48.0 kHz
Frame rate                               : 46.875 FPS (1024 spf)
Compression mode                         : Lossy
Delay relative to video                  : 9 ms
Stream size                              : 51.0 MiB (7%)
Language                                 : English
Default                                  : No
Forced                                   : No

Audio #2
ID                                       : 3
Format                                   : AAC
Format/Info                              : Advanced Audio Codec
Format profile                           : HE-AAC / LC
Codec ID                                 : A_AAC
Duration                                 : 22 min 1 s
Bit rate                                 : 42.2 kb/s
Channel(s)                               : 2 channels
Channel positions                        : Front: L R
Sampling rate                            : 48.0 kHz / 24.0 kHz
Frame rate                               : 23.438 FPS (1024 spf)
Compression mode                         : Lossy
Delay relative to video                  : 31 ms
Stream size                              : 6.64 MiB (1%)
Title                                    : Commentary
Language                                 : English
Default                                  : No
Forced                                   : No

Subtitle
ID                                       : 4
Format                                   : VobSub
Muxing mode                              : zlib
Codec ID                                 : S_VOBSUB
Codec ID/Info                            : Picture based subtitle format used on DVDs
Duration                                 : 21 min 55 s
Bit rate                                 : 19.0 kb/s
Count of elements                        : 719
Stream size                              : 2.98 MiB (0%)
Language                                 : English
Default                                  : No
Forced                                   : No

Menu
00:00:00.000                             : en:Chapter 01
00:02:07.961                             : en:Chapter 02
00:02:39.826                             : en:Chapter 03
00:08:35.348                             : en:Chapter 04
00:21:35.294                             : en:Chapter 05

Download

Download: Google Drive

Season 2 (1080p)

Rick and Morty Season 2 S02 (1080p BluRay x265 HEVC 10bit AAC 5.1 Q22 Joy) [UTR]

Files

Rick and Morty Season 2 (1080p BD x265 q22 S100 Joy)

  • Rick and Morty S02E01 A Rickle in Time (1080p x265 q22 S97 Joy).mkv (640.3 MB)
  • Rick and Morty S02E02 Mortynight Run (1080p x265 q22 S98 Joy).mkv (578.2 MB)
  • Rick and Morty S02E03 Auto Erotic Assimilation (1080p x265 q22 S100 Joy).mkv (447.4 MB)
  • Rick and Morty S02E04 Total Rickall (1080p x265 q22 S100 Joy).mkv (473.9 MB)
  • Rick and Morty S02E05 Get Schwifty (1080p x265 q22 S100 Joy).mkv (437.7 MB)
  • Rick and Morty S02E06 The Ricks Must Be Crazy (1080p x265 q22 S100 Joy).mkv (464.4 MB)
  • Rick and Morty S02E07 Big Trouble in Little Sanchez (1080p x265 q22 S100 Joy).mkv (416.9 MB)
  • Rick and Morty S02E08 Interdimensional Cable 2 Tempting Fate (1080p x265 q22 S100 Joy).mkv (403.0 MB)
  • Rick and Morty S02E09 Look Whos Purging Now (1080p x265 q22 S100 Joy).mkv (350.5 MB)
  • Rick and Morty S02E10 The Wedding Squanchers (1080p x265 q22 S100 Joy).mkv (410.1 MB)

Extras

  • Chaos Chaos.mkv (405.2 MB)
  • Episode 1 Full Animatic.mkv (53.6 MB)
  • Episode 1 Unaired Full Animatic.mkv (46.6 MB)
  • Episode 2 Full Animatic.mkv (52.9 MB)
  • Episode 3 Full Animatic.mkv (53.9 MB)
  • Episode 4 Full Animatic.mkv (52.0 MB)
  • Episode 5 Full Animatic.mkv (52.3 MB)
  • Episode 6 Full Animatic.mkv (53.4 MB)
  • Episode 7 Full Animatic.mkv (54.0 MB)
  • Episode 8 Full Animatic.mkv (53.5 MB)
  • Episode 8 Interdimensional Cable 2 Deleted Scenes.mkv (5.5 MB)
  • Episode 9 Full Animatic.mkv (55.7 MB)
  • Episode 10 Full Animatic.mkv (54.2 MB)

Mediainfo

Includes all extras and featurettes as well as the audio commentary tracks.

General
Format : Matroska
Format version : Version 4 / Version 2
File size : 350 MiB
Duration : 22 min 5 s
Overall bit rate : 2 217 kb/s
Movie name : Rick and Morty S02E09 Look Whos Purging Now (1080p x265 q22 Joy)[UTR]
Encoded date : UTC 2018-12-19 13:39:59
Writing application : mkvmerge v28.2.0 ('The Awakening') 64-bit
Writing library : libebml v1.3.6 + libmatroska v1.4.9
Writing frontend : StaxRip v1.8.2.0, A JoyBell Encode

Video
ID : 1
Format : HEVC
Format/Info : High Efficiency Video Coding
Format profile : Main [email protected]@Main
Codec ID : V_MPEGH/ISO/HEVC
Duration : 22 min 5 s
Bit rate : 1 938 kb/s
Width : 1 920 pixels
Height : 1 080 pixels
Display aspect ratio : 16:9
Frame rate mode : Constant
Frame rate : 23.976 (24000/1001) FPS
Color space : YUV
Chroma subsampling : 4:2:0
Bit depth : 10 bits
Bits/(Pixel*Frame) : 0.039
Stream size : 306 MiB (87%)
Writing library : x265 2.8+69-856f056d392e:[Windows][MSVC 1915][64 bit] 10bit
Encoding settings : cpuid=1111039 / frame-threads=4 / numa-pools=16 / wpp / no-pmode / no-pme / no-psnr / ssim / log-level=2 / input-csp=1 / input-res=1920x1080 / interlace=0 / total-frames=31791 / level-idc=0 / high-tier=1 / uhd-bd=0 / ref=4 / no-allow-non-conformance / no-repeat-headers / annexb / no-aud / no-hrd / info / hash=0 / no-temporal-layers / open-gop / min-keyint=23 / keyint=250 / gop-lookahead=0 / bframes=8 / b-adapt=2 / b-pyramid / bframe-bias=0 / rc-lookahead=25 / lookahead-slices=4 / scenecut=40 / radl=0 / no-intra-refresh / ctu=64 / min-cu-size=8 / rect / no-amp / max-tu-size=32 / tu-inter-depth=1 / tu-intra-depth=1 / limit-tu=0 / rdoq-level=2 / dynamic-rd=0.00 / ssim-rd / signhide / no-tskip / nr-intra=0 / nr-inter=0 / no-constrained-intra / strong-intra-smoothing / max-merge=3 / limit-refs=3 / limit-modes / me=3 / subme=3 / merange=57 / temporal-mvp / weightp / no-weightb / no-analyze-src-pics / deblock=0:0 / sao / no-sao-non-deblock / rd=4 / early-skip / rskip / no-fast-intra / no-tskip-fast / no-cu-lossless / no-b-intra / no-splitrd-skip / rdpenalty=0 / psy-rd=1.20 / psy-rdoq=0.80 / no-rd-refine / no-lossless / cbqpoffs=0 / crqpoffs=0 / rc=crf / crf=22.0 / qcomp=0.60 / qpstep=4 / stats-write=0 / stats-read=0 / ipratio=1.40 / pbratio=1.30 / aq-mode=1 / aq-strength=1.00 / cutree / zone-count=0 / no-strict-cbr / qg-size=32 / no-rc-grain / qpmax=69 / qpmin=0 / no-const-vbv / sar=0 / overscan=0 / videoformat=5 / range=0 / colorprim=2 / transfer=2 / colormatrix=2 / chromaloc=0 / display-window=0 / max-cll=0,0 / min-luma=0 / max-luma=1023 / log2-max-poc-lsb=8 / vui-timing-info / vui-hrd-info / slices=1 / no-opt-qp-pps / no-opt-ref-list-length-pps / no-multi-pass-opt-rps / scenecut-bias=0.05 / no-opt-cu-delta-qp / no-aq-motion / no-hdr / no-hdr-opt / no-dhdr10-opt / no-idr-recovery-sei / analysis-reuse-level=5 / scale-factor=0 / refine-intra=0 / refine-inter=0 / refine-mv=0 / no-limit-sao / ctu-info=0 / no-lowpass-dct / refine-mv-type=0 / copy-pic=1 / max-ausize-factor=1.0 / no-dynamic-refine / no-single-sei
Default : Yes
Forced : No

Audio #1
ID : 2
Format : AAC
Format/Info : Advanced Audio Codec
Format profile : HE-AACv2 / HE-AAC / LC
Codec ID : A_AAC
Duration : 22 min 5 s
Bit rate : 206 kb/s
Channel(s) : 2 channels / 6 channels / 6 channels
Channel positions : Front: L R / Front: L C R, Side: L R, LFE / Front: L C R, Side: L R, LFE
Sampling rate : 48.0 kHz / 48.0 kHz / 24.0 kHz
Frame rate : 23.438 FPS (1024 spf)
Compression mode : Lossy
Delay relative to video : 31 ms
Stream size : 32.5 MiB (9%)
Language : English
Default : No
Forced : No

Audio #2
ID : 3
Format : AAC
Format/Info : Advanced Audio Codec
Format profile : HE-AAC / LC
Codec ID : A_AAC
Duration : 22 min 5 s
Bit rate : 42.1 kb/s
Channel(s) : 2 channels
Channel positions : Front: L R
Sampling rate : 48.0 kHz / 24.0 kHz
Frame rate : 23.438 FPS (1024 spf)
Compression mode : Lossy
Delay relative to video : 31 ms
Stream size : 6.66 MiB (2%)
Language : English
Default : No
Forced : No

Subtitle
ID : 4
Format : PGS
Muxing mode : zlib
Codec ID : S_HDMV/PGS
Codec ID/Info : Picture based subtitle format used on BDs/HD-DVDs
Duration : 22 min 0 s
Bit rate : 73.9 kb/s
Count of elements : 1198
Stream size : 11.6 MiB (3%)
Language : English
Default : No
Forced : No

Download

Download: Google Drive

Season 2 (2160p)

Rick and Morty (2013) Season 02 S02 (2160p UPRES BluRay x265 HEVC 10bit AAC 5.1 Joy) [UTR]

Files

Rick and Morty Season 2 (2160p BD x265 10bit S99 Joy)

  • Rick and Morty S02E01 A Rickle in Time (2160p x265 10bit Joy).mkv (700.6 MB)
  • Rick and Morty S02E02 Mortynight Run (2160p x265 10bit Joy).mkv (699.3 MB)
  • Rick and Morty S02E03 Auto Erotic Assimilation (2160p x265 10bit Joy).mkv (704.8 MB)
  • Rick and Morty S02E04 Total Rickall (2160p x265 10bit Joy).mkv (673.7 MB)
  • Rick and Morty S02E05 Get Schwifty (2160p x265 10bit Joy).mkv (706.2 MB)
  • Rick and Morty S02E06 The Ricks Must Be Crazy (2160p x265 10bit Joy).mkv (686.8 MB)
  • Rick and Morty S02E07 Big Trouble in Little Sanchez (2160p x265 10bit Joy).mkv (703.5 MB)
  • Rick and Morty S02E08 Interdimensional Cable 2 Tempting Fate (2160p x265 10bit Joy).mkv (691.5 MB)
  • Rick and Morty S02E09 Look Whos Purging Now (2160p x265 10bit Joy).mkv (678.6 MB)
  • Rick and Morty S02E10 The Wedding Squanchers (2160p x265 10bit Joy).mkv (704.7 MB)

Extras

  • Chaos Chaos.mkv (405.2 MB)
  • Episode 1 Full Animatic.mkv (53.6 MB)
  • Episode 1 Unaired Full Animatic.mkv (46.6 MB)
  • Episode 2 Full Animatic.mkv (52.9 MB)
  • Episode 3 Full Animatic.mkv (53.9 MB)
  • Episode 4 Full Animatic.mkv (52.0 MB)
  • Episode 5 Full Animatic.mkv (52.3 MB)
  • Episode 6 Full Animatic.mkv (53.4 MB)
  • Episode 7 Full Animatic.mkv (54.0 MB)
  • Episode 8 Full Animatic.mkv (53.5 MB)
  • Episode 8 Interdimensional Cable 2 Deleted Scenes.mkv (5.5 MB)
  • Episode 9 Full Animatic.mkv (55.7 MB)
  • Episode 10 Full Animatic.mkv (54.2 MB)

Mediainfo

General
Format : Matroska
Format version : Version 4 / Version 2
File size : 705 MiB
Duration : 23 min 2 s
Overall bit rate : 4 275 kb/s
Movie name : Rick and Morty S02E10 The Wedding Squanchers (2160p x265 10bit Joy)[UTR]
Encoded date : UTC 2019-09-02 18:41:50
Writing application : mkvmerge v34.0.0 ('Sight and Seen') 64-bit
Writing library : libebml v1.3.7 + libmatroska v1.5.0
Writing frontend : StaxRip v2.0.2.0, Encoded by JoyBell

Video
ID : 1
Format : HEVC
Format/Info : High Efficiency Video Coding
Format profile : Main [email protected]@Main
Codec ID : V_MPEGH/ISO/HEVC
Duration : 23 min 2 s
Bit rate : 3 998 kb/s
Width : 3 840 pixels
Height : 2 160 pixels
Display aspect ratio : 16:9
Frame rate mode : Constant
Frame rate : 23.976 (24000/1001) FPS
Color space : YUV
Chroma subsampling : 4:2:0
Bit depth : 10 bits
Bits/(Pixel*Frame) : 0.020
Stream size : 659 MiB (94%)
Writing library : x265 3.0_Au+24-4217e691387c:[Windows][GCC 9.1.1][64 bit] 10bit
Encoding settings : rc=abr / bitrate=4000 / qcomp=0.50 / qpstep=4 / stats-write=0 / stats-read=2 / cplxblur=20.0 / qblur=0.5 / qpmax=69 / qpmin=0 / no-lossless / no-cu-lossless / no-hevc-aq / no-aq-motion / aq-mode=3 / aq-strength=0.80 / cbqpoffs=0 / crqpoffs=0 / ipratio=1.40 / pbratio=1.30 / psy-rd=0.00 / psy-rdoq=1.35 / deblock=0:0 / ref=4 / limit-refs=3 / limit-modes / bframes=8 / b-adapt=2 / bframe-bias=40 / b-pyramid / no-b-intra / weightp / no-weightb / keyint=250 / min-keyint=23 / rc-lookahead=80 / gop-lookahead=0 / scenecut=40 / scenecut-bias=0.05 / ctu=64 / min-cu-size=8 / me=3 / subme=3 / merange=57 / rd=4 / no-rd-refine / ssim-rd / dynamic-rd=0.00 / rdoq-level=2 / rdpenalty=0 / cutree / sao / limit-sao / no-sao-non-deblock / no-rect / no-amp / open-gop / max-tu-size=32 / tu-inter-depth=1 / tu-intra-depth=1 / limit-tu=0 / qg-size=32 / wpp / no-pmode / no-pme / no-psnr / ssim / no-tskip / constrained-intra / strong-intra-smoothing / max-merge=3 / nr-intra=0 / nr-inter=0 / input-csp=1 / input-res=3840x2160 / interlace=0 / total-frames=33149 / level-idc=0 / high-tier=1cpuid=1111039 / frame-threads=4 / numa-pools=16 / log-level=2 / uhd-bd=0 / lookahead-slices=4 / radl=0 / no-splice / no-intra-refresh / signhide / temporal-mvp / no-analyze-src-pics / early-skip / rskip / no-fast-intra / no-tskip-fast / splitrd-skip / zone-count=0 / no-strict-cbr / no-rc-grain / no-const-vbv / no-allow-non-conformance / no-repeat-headers / annexb / no-aud / no-hrd / info / hash=0 / no-temporal-layers / sar=0 / overscan=0 / videoformat=5 / range=0 / colorprim=2 / transfer=2 / colormatrix=2 / chromaloc=0 / display-window=0 / max-cll=0,0 / min-luma=0 / max-luma=1023 / log2-max-poc-lsb=8 / vui-timing-info / vui-hrd-info / slices=1 / no-opt-qp-pps / no-opt-ref-list-length-pps / multi-pass-opt-rps / no-opt-cu-delta-qp / no-hdr / no-hdr-opt / no-dhdr10-opt / no-idr-recovery-sei / analysis-reuse-level=10 / scale-factor=0 / refine-intra=0 / refine-inter=0 / refine-mv=0 / refine-ctu-distortion=0 / ctu-info=0 / no-lowpass-dct / refine-analysis-type=0 / copy-pic=1 / max-ausize-factor=1.0 / no-dynamic-refine / no-single-sei / no-svt / qp-adaptation-range=1.00
Default : Yes
Forced : No

Audio #1
ID : 2
Format : AAC
Format/Info : Advanced Audio Codec
Format profile : LC
Codec ID : A_AAC
Duration : 23 min 2 s
Bit rate : 223 kb/s
Channel(s) : 6 channels
Channel positions : Front: L C R, Side: L R, LFE
Sampling rate : 48.0 kHz
Frame rate : 46.875 FPS (1024 spf)
Compression mode : Lossy
Delay relative to video : 9 ms
Stream size : 36.7 MiB (5%)
Language : English
Default : No
Forced : No

Audio #2
ID : 3
Format : AAC
Format/Info : Advanced Audio Codec
Format profile : HE-AAC / LC
Codec ID : A_AAC
Duration : 23 min 2 s
Bit rate : 42.6 kb/s
Channel(s) : 2 channels
Channel positions : Front: L R
Sampling rate : 48.0 kHz / 24.0 kHz
Frame rate : 23.438 FPS (1024 spf)
Compression mode : Lossy
Delay relative to video : 31 ms
Stream size : 7.02 MiB (1%)
Title : Commentary
Language : English
Default : No
Forced : No

Subtitle
ID : 4
Format : VobSub
Muxing mode : zlib
Codec ID : S_VOBSUB
Codec ID/Info : Picture based subtitle format used on DVDs
Duration : 22 min 56 s
Bit rate : 15.1 kb/s
Count of elements : 560
Stream size : 2.48 MiB (0%)
Language : English
Default : No
Forced : No

Menu
00:00:00.000 : en:Chapter 01
00:01:23.666 : en:Chapter 02
00:01:55.115 : en:Chapter 03
00:11:13.673 : en:Chapter 04
00:21:24.241 : en:Chapter 05
00:21:48.849 : en:Chapter 06

Download

Download: Google Drive

Season 3 (1080p)

Rick and Morty (2013) Season 03 S03 (1080p BluRay x265 HEVC 10bit AAC 5.1 Q22 Joy) [UTR]

Files

Rick and Morty Season 3 (1080p BD x265 q22 x265 S101 Joy)

  • Rick and Morty S03E01 The Rickshank Rickdemption (1080p x265 q22 S101 Joy).mkv (456.6 MB)
  • Rick and Morty S03E02 Rickmancing the Stone (1080p x265 q22 S101 Joy).mkv (346.5 MB)
  • Rick and Morty S03E03 Pickle Rick (1080p x265 q22 S102 Joy).mkv (306.5 MB)
  • Rick and Morty S03E05 The Whirly Dirly Conspiracy (1080p x265 q22 S101 Joy).mkv (476.0 MB)
  • Rick and Morty S03E04 Vindicators 3 The Return of Worldender (1080p x265 q22 S100 Joy).mkv (380.6 MB)
  • Rick and Morty S03E06 Rest and Ricklaxation (1080p x265 q22 S101 Joy).mkv (374.4 MB)
  • Rick and Morty S03E07 The Ricklantis Mixup (1080p x265 q22 S102 Joy).mkv (350.5 MB)
  • Rick and Morty S03E08 Mortys Mind Blowers (1080p x265 q22 S101 Joy).mkv (366.8 MB)
  • Rick and Morty S03E09 The ABCs of Beth (1080p x265 q22 S102 Joy).mkv (330.2 MB)
  • Rick and Morty S03E10 The Rickchurian Mortydate (1080p x265 q22 S102 Joy).mkv (339.3 MB)

Extras

  • Animatic -S03E01 The Rickshank Rickdemption-1.mkv (20.5 MB)
  • Animatic -S03E01 The Rickshank Rickdemption.mkv (118.6 MB)
  • Animatic -S03E02 Rickmancing the Stone.mkv (83.3 MB)
  • Animatic -S03E03 Pickle Rick.mkv (86.5 MB)
  • Animatic -S03E04 Vindicators 3 The Return of Worldender.mkv (81.3 MB)
  • Animatic -S03E05 The Whirly Dirly Conspiracy.mkv (126.5 MB)
  • Animatic -S03E06 Rest and Ricklaxation.mkv (84.7 MB)
  • Animatic -S03E07 The Ricklantis Mixup.mkv (95.6 MB)
  • Animatic -S03E08 Mortys Mind Blowers.mkv (88.4 MB)
  • Animatic -S03E09 The ABCs of Beth.mkv (89.4 MB)
  • Animatic -S03E10 The Rickchurian Mortydate.mkv (85.8 MB)
  • Directing the Voice Actors.mkv (35.9 MB)
  • Drunk Rick Method Acting.mkv (12.3 MB)
  • Inside Morty’s Mind Blowers.mkv (10.3 MB)
  • Inside Pickle Rick.mkv (15.2 MB)
  • Inside Rest and Ricklaxation.mkv (11.6 MB)
  • Inside Rickmancing the Stone.mkv (14.6 MB)
  • Inside Tales from the Citidel.mkv (12.4 MB)
  • Inside The ABC’s of Beth.mkv (11.3 MB)
  • Inside The Rickchurian Mortydate.mkv (15.5 MB)
  • Inside The Ricklantis Mixup.mkv (12.4 MB)
  • Inside The Rickshank Rickdemption.mkv (15.1 MB)
  • Inside The Whirly Dirly Conspiracy.mkv (12.9 MB)
  • Inside Vindicators 3 The Return of Worldender.mkv (12.0 MB)
  • Rick and Morty Bushworld Adventures (1080p x265 10bit S97 Joy).mkv (80.1 MB)
  • Rick and Morty Origins – Part One.mkv (28.4 MB)
  • Rick and Morty Origins – Part Two.mkv (26.7 MB)
  • Secrets to Directing Actors.mkv (12.0 MB)
  • The Search for Meaning.mkv (17.5 MB)

Mediainfo

General
Format                                   : Matroska
Format version                           : Version 4 / Version 2
File size                                : 457 MiB
Duration                                 : 23 min 22 s
Overall bit rate                         : 2 731 kb/s
Movie name                               : Rick and Morty S03E01 The Rickshank Rickdemption  (1080p x265 q22 S101 Joy){UTR)
Encoded date                             : UTC 2018-07-24 03:47:01
Writing application                      : mkvmerge v25.0.0 ('Prog Noir') 64-bit
Writing library                          : libebml v1.3.6 + libmatroska v1.4.9
Writing frontend                         : StaxRip v1.8.2.0

Video
ID                                       : 1
Format                                   : HEVC
Format/Info                              : High Efficiency Video Coding
Format profile                           : Main [email protected]@Main
Codec ID                                 : V_MPEGH/ISO/HEVC
Duration                                 : 23 min 22 s
Bit rate                                 : 2 419 kb/s
Width                                    : 1 920 pixels
Height                                   : 1 080 pixels
Display aspect ratio                     : 16:9
Frame rate mode                          : Constant
Frame rate                               : 23.976 (24000/1001) FPS
Color space                              : YUV
Chroma subsampling                       : 4:2:0
Bit depth                                : 10 bits
Bits/(Pixel*Frame)                       : 0.049
Stream size                              : 404 MiB (89%)
Writing library                          : x265 2.8+19-bcdc610cf5f0:[Windows][MSVC 1914][64 bit] 10bit
Encoding settings                        : cpuid=1111039 / frame-threads=3 / numa-pools=8 / wpp / no-pmode / no-pme / no-psnr / ssim / log-level=2 / input-csp=1 / input-res=1920x1080 / interlace=0 / total-frames=33626 / level-idc=0 / high-tier=1 / uhd-bd=0 / ref=4 / no-allow-non-conformance / no-repeat-headers / annexb / no-aud / no-hrd / info / hash=0 / no-temporal-layers / open-gop / min-keyint=23 / keyint=250 / gop-lookahead=0 / bframes=4 / b-adapt=2 / b-pyramid / bframe-bias=0 / rc-lookahead=25 / lookahead-slices=4 / scenecut=40 / radl=0 / no-intra-refresh / ctu=64 / min-cu-size=8 / rect / no-amp / max-tu-size=32 / tu-inter-depth=1 / tu-intra-depth=1 / limit-tu=0 / rdoq-level=2 / dynamic-rd=0.00 / ssim-rd / signhide / no-tskip / nr-intra=0 / nr-inter=0 / no-constrained-intra / strong-intra-smoothing / max-merge=3 / limit-refs=3 / limit-modes / me=3 / subme=3 / merange=57 / temporal-mvp / weightp / no-weightb / no-analyze-src-pics / deblock=-2:-2 / sao / sao-non-deblock / rd=4 / early-skip / rskip / no-fast-intra / no-tskip-fast / no-cu-lossless / no-b-intra / no-splitrd-skip / rdpenalty=0 / psy-rd=0.00 / psy-rdoq=1.00 / no-rd-refine / no-lossless / cbqpoffs=0 / crqpoffs=0 / rc=crf / crf=21.5 / qcomp=0.60 / qpstep=4 / stats-write=0 / stats-read=0 / ipratio=1.40 / pbratio=1.30 / aq-mode=3 / aq-strength=1.00 / cutree / zone-count=0 / no-strict-cbr / qg-size=32 / no-rc-grain / qpmax=69 / qpmin=0 / no-const-vbv / sar=0 / overscan=0 / videoformat=5 / range=0 / colorprim=2 / transfer=2 / colormatrix=2 / chromaloc=0 / display-window=0 / max-cll=0,0 / min-luma=0 / max-luma=1023 / log2-max-poc-lsb=8 / vui-timing-info / vui-hrd-info / slices=1 / no-opt-qp-pps / no-opt-ref-list-length-pps / no-multi-pass-opt-rps / scenecut-bias=0.05 / no-opt-cu-delta-qp / no-aq-motion / no-hdr / no-hdr-opt / no-dhdr10-opt / no-idr-recovery-sei / analysis-reuse-level=5 / scale-factor=0 / refine-intra=0 / refine-inter=0 / refine-mv=0 / no-limit-sao / ctu-info=0 / no-lowpass-dct / refine-mv-type=0 / copy-pic=1 / max-ausize-factor=1.0 / no-dynamic-refine / no-single-sei
Default                                  : Yes
Forced                                   : No

Audio #1
ID                                       : 2
Format                                   : AAC
Format/Info                              : Advanced Audio Codec
Format profile                           : HE-AAC / LC
Codec ID                                 : A_AAC
Duration                                 : 23 min 22 s
Bit rate                                 : 210 kb/s
Channel(s)                               : 6 channels
Channel positions                        : Front: L C R, Side: L R, LFE
Sampling rate                            : 48.0 kHz / 24.0 kHz
Frame rate                               : 23.438 FPS (1024 spf)
Compression mode                         : Lossy
Delay relative to video                  : 31 ms
Stream size                              : 35.2 MiB (8%)
Language                                 : English
Default                                  : No
Forced                                   : No

Audio #2
ID                                       : 3
Format                                   : AAC
Format/Info                              : Advanced Audio Codec
Format profile                           : HE-AAC / LC
Codec ID                                 : A_AAC
Duration                                 : 23 min 22 s
Bit rate                                 : 41.8 kb/s
Channel(s)                               : 2 channels
Channel positions                        : Front: L R
Sampling rate                            : 48.0 kHz / 24.0 kHz
Frame rate                               : 23.438 FPS (1024 spf)
Compression mode                         : Lossy
Delay relative to video                  : 31 ms
Stream size                              : 6.99 MiB (2%)
Title                                    : Commentary
Language                                 : English
Default                                  : No
Forced                                   : No

Audio #3
ID                                       : 4
Format                                   : AAC
Format/Info                              : Advanced Audio Codec
Format profile                           : HE-AAC / LC
Codec ID                                 : A_AAC
Duration                                 : 23 min 22 s
Bit rate                                 : 43.7 kb/s
Channel(s)                               : 2 channels
Channel positions                        : Front: L R
Sampling rate                            : 48.0 kHz / 24.0 kHz
Frame rate                               : 23.438 FPS (1024 spf)
Compression mode                         : Lossy
Delay relative to video                  : 31 ms
Stream size                              : 7.31 MiB (2%)
Title                                    : Commentary
Language                                 : English
Default                                  : No
Forced                                   : No

Subtitle
ID                                       : 5
Format                                   : VobSub
Muxing mode                              : zlib
Codec ID                                 : S_VOBSUB
Codec ID/Info                            : Picture based subtitle format used on DVDs
Duration                                 : 23 min 12 s
Bit rate                                 : 24.5 kb/s
Count of elements                        : 641
Stream size                              : 4.07 MiB (1%)
Language                                 : English
Default                                  : No
Forced                                   : No

Menu
00:00:00.000                             : en:Chapter 01
00:01:22.999                             : en:Chapter 02
00:01:54.823                             : en:Chapter 03
00:09:55.553                             : en:Chapter 04
00:22:13.540                             : en:Chapter 05
00:23:21.108                             : en:Chapter 06

Download

Download: Google Drive

Season 3 (2160p)

Rick and Morty (2013) Season 03 S03 (2160p UPRES BluRay x265 HEVC 10bit AAC 5.1 Joy) [UTR]

Files

Rick and Morty Season 3 (2160p BD x265 10bit S100 Joy)

  • Rick and Morty S03E01 The Rickshank Rickdemption (2160p x265 10bit Joy).mkv (724.5 MB)
  • Rick and Morty S03E02 Rickmancing the Stone (2160p x265 10bit Joy).mkv (695.0 MB)
  • Rick and Morty S03E03 Pickle Rick (2160p x265 10bit Joy).mkv (734.8 MB)
  • Rick and Morty S03E04 Vindicators 3 The Return of Worldender (2160p x265 10bit Joy).mkv (713.6 MB)
  • Rick and Morty S03E05 The Whirly Dirly Conspiracy (2160p x265 10bit Joy).mkv (692.4 MB)
  • Rick and Morty S03E06 Rest and Ricklaxation (2160p x265 10bit Joy).mkv (697.9 MB)
  • Rick and Morty S03E07 The Ricklantis Mixup (2160p x265 10bit Joy).mkv (686.2 MB)
  • Rick and Morty S03E08 Mortys Mind Blowers (2160p x265 10bit Joy).mkv (681.3 MB)
  • Rick and Morty S03E09 The ABCs of Beth (2160p x265 10bit Joy).mkv (686.3 MB)
  • Rick and Morty S03E10 The Rickchurian Mortydate (2160p x265 10bit Joy).mkv (699.6 MB)

Extras

  • Animatic -S03E01 The Rickshank Rickdemption-1.mkv (20.5 MB)
  • Animatic -S03E01 The Rickshank Rickdemption.mkv (118.6 MB)
  • Animatic -S03E02 Rickmancing the Stone.mkv (83.3 MB)
  • Animatic -S03E03 Pickle Rick.mkv (86.5 MB)
  • Animatic -S03E04 Vindicators 3 The Return of Worldender.mkv (81.3 MB)
  • Animatic -S03E05 The Whirly Dirly Conspiracy.mkv (126.5 MB)
  • Animatic -S03E06 Rest and Ricklaxation.mkv (84.7 MB)
  • Animatic -S03E07 The Ricklantis Mixup.mkv (95.6 MB)
  • Animatic -S03E08 Mortys Mind Blowers.mkv (88.4 MB)
  • Animatic -S03E09 The ABCs of Beth.mkv (89.4 MB)
  • Animatic -S03E10 The Rickchurian Mortydate.mkv (85.8 MB)
  • Directing the Voice Actors.mkv (35.9 MB)
  • Drunk Rick Method Acting.mkv (12.3 MB)
  • Inside Morty’s Mind Blowers.mkv (10.3 MB)
  • Inside Pickle Rick.mkv (15.2 MB)
  • Inside Rest and Ricklaxation.mkv (11.6 MB)
  • Inside Rickmancing the Stone.mkv (14.6 MB)
  • Inside Tales from the Citidel.mkv (12.4 MB)
  • Inside The ABC’s of Beth.mkv (11.3 MB)
  • Inside The Rickchurian Mortydate.mkv (15.5 MB)
  • Inside The Ricklantis Mixup.mkv (12.4 MB)
  • Inside The Rickshank Rickdemption.mkv (15.1 MB)
  • Inside The Whirly Dirly Conspiracy.mkv (12.9 MB)
  • Inside Vindicators 3 The Return of Worldender.mkv (12.0 MB)
  • Rick and Morty Bushworld Adventures (1080p x265 10bit S97 Joy).mkv (80.1 MB)
  • Rick and Morty Origins – Part One.mkv (28.4 MB)
  • Rick and Morty Origins – Part Two.mkv (26.7 MB)
  • Secrets to Directing Actors.mkv (12.0 MB)
  • The Search for Meaning.mkv (17.5 MB)

Mediainfo

This is an UPSAMPLE, I worked hard on this one. There is no 2160p source at this time. Enjoy.
Comparison of This vs 1080p Bluray:
https://slowpics.org/comparison/cc043a43-e043-45c8-8fec-55c31da5f0ab

General
Format : Matroska
Format version : Version 4 / Version 2
File size : 725 MiB
Duration : 23 min 22 s
Overall bit rate : 4 333 kb/s
Movie name : Rick and Morty S03E01 The Rickshank Rickdemption (2160p x265 10bit Joy)[UTR]
Encoded date : UTC 2019-09-12 20:25:00
Writing application : mkvmerge v32.0.0 ('Astral Progressions') 64-bit
Writing library : libebml v1.3.7 + libmatroska v1.5.0

Video
ID : 1
Format : HEVC
Format/Info : High Efficiency Video Coding
Format profile : Main [email protected]@Main
Codec ID : V_MPEGH/ISO/HEVC
Duration : 23 min 22 s
Bit rate : 4 000 kb/s
Width : 3 840 pixels
Height : 2 160 pixels
Display aspect ratio : 16:9
Frame rate mode : Constant
Frame rate : 23.976 (24000/1001) FPS
Color space : YUV
Chroma subsampling : 4:2:0
Bit depth : 10 bits
Bits/(Pixel*Frame) : 0.020
Stream size : 669 MiB (92%)
Writing library : x265 3.0_Au+24-4217e691387c:[Windows][GCC 9.1.1][64 bit] 10bit
Encoding settings : rc=abr / bitrate=4000 / qcomp=0.50 / qpstep=4 / stats-write=0 / stats-read=2 / cplxblur=20.0 / qblur=0.5 / qpmax=69 / qpmin=0 / no-lossless / no-cu-lossless / no-hevc-aq / no-aq-motion / aq-mode=3 / aq-strength=0.80 / cbqpoffs=0 / crqpoffs=0 / ipratio=1.40 / pbratio=1.30 / psy-rd=0.00 / psy-rdoq=1.35 / deblock=0:0 / ref=4 / limit-refs=3 / limit-modes / bframes=8 / b-adapt=2 / bframe-bias=40 / b-pyramid / no-b-intra / weightp / no-weightb / keyint=250 / min-keyint=23 / rc-lookahead=80 / gop-lookahead=0 / scenecut=40 / scenecut-bias=0.05 / ctu=64 / min-cu-size=8 / me=3 / subme=3 / merange=57 / rd=4 / no-rd-refine / ssim-rd / dynamic-rd=0.00 / rdoq-level=2 / rdpenalty=0 / cutree / sao / limit-sao / no-sao-non-deblock / no-rect / no-amp / open-gop / max-tu-size=32 / tu-inter-depth=1 / tu-intra-depth=1 / limit-tu=0 / qg-size=32 / wpp / no-pmode / no-pme / no-psnr / ssim / no-tskip / constrained-intra / strong-intra-smoothing / max-merge=3 / nr-intra=0 / nr-inter=0 / input-csp=1 / input-res=3840x2160 / interlace=0 / total-frames=33626 / level-idc=0 / high-tier=1cpuid=1111039 / frame-threads=4 / numa-pools=16 / log-level=2 / uhd-bd=0 / lookahead-slices=4 / radl=0 / no-splice / no-intra-refresh / signhide / temporal-mvp / no-analyze-src-pics / early-skip / rskip / no-fast-intra / no-tskip-fast / splitrd-skip / zone-count=0 / no-strict-cbr / no-rc-grain / no-const-vbv / no-allow-non-conformance / no-repeat-headers / annexb / no-aud / no-hrd / info / hash=0 / no-temporal-layers / sar=0 / overscan=0 / videoformat=5 / range=0 / colorprim=2 / transfer=2 / colormatrix=2 / chromaloc=0 / display-window=0 / max-cll=0,0 / min-luma=0 / max-luma=1023 / log2-max-poc-lsb=8 / vui-timing-info / vui-hrd-info / slices=1 / no-opt-qp-pps / no-opt-ref-list-length-pps / multi-pass-opt-rps / no-opt-cu-delta-qp / no-hdr / no-hdr-opt / no-dhdr10-opt / no-idr-recovery-sei / analysis-reuse-level=10 / scale-factor=0 / refine-intra=0 / refine-inter=0 / refine-mv=0 / refine-ctu-distortion=0 / ctu-info=0 / no-lowpass-dct / refine-analysis-type=0 / copy-pic=1 / max-ausize-factor=1.0 / no-dynamic-refine / no-single-sei / no-svt / qp-adaptation-range=1.00
Default : Yes
Forced : No

Audio #1
ID : 2
Format : AAC
Format/Info : Advanced Audio Codec
Format profile : LC
Codec ID : A_AAC
Duration : 23 min 22 s
Bit rate : 245 kb/s
Channel(s) : 6 channels
Channel positions : Front: L C R, Side: L R, LFE
Sampling rate : 48.0 kHz
Frame rate : 46.875 FPS (1024 spf)
Compression mode : Lossy
Delay relative to video : 9 ms
Stream size : 40.9 MiB (6%)
Language : English
Default : No
Forced : No

Audio #2
ID : 3
Format : AAC
Format/Info : Advanced Audio Codec
Format profile : HE-AAC / LC
Codec ID : A_AAC
Duration : 23 min 22 s
Bit rate : 41.8 kb/s
Channel(s) : 2 channels
Channel positions : Front: L R
Sampling rate : 48.0 kHz / 24.0 kHz
Frame rate : 23.438 FPS (1024 spf)
Compression mode : Lossy
Delay relative to video : 31 ms
Stream size : 6.99 MiB (1%)
Title : Commentary
Language : English
Default : No
Forced : No

Audio #3
ID : 4
Format : AAC
Format/Info : Advanced Audio Codec
Format profile : HE-AAC / LC
Codec ID : A_AAC
Duration : 23 min 22 s
Bit rate : 43.7 kb/s
Channel(s) : 2 channels
Channel positions : Front: L R
Sampling rate : 48.0 kHz / 24.0 kHz
Frame rate : 23.438 FPS (1024 spf)
Compression mode : Lossy
Delay relative to video : 31 ms
Stream size : 7.31 MiB (1%)
Title : Commentary
Language : English
Default : No
Forced : No

Download

Download: Google Drive

Season 4 (1080p)

Rick and Morty (2013) Season 04 S04 (1080p AMZN WEB-DL x265 HEVC 10bit AI AAC 5.1 Q18 Joy) [UTR]

Files

Rick and Morty Season 4 [1080p AI x265 q18 Joy]

 

  • Rick and Morty S04E01 Edge of Tomorty Rick Die Rickpeat [1080p x265 q18 S100 Joy].mkv (615.5 MB)
  • Rick and Morty S04E02 The Old Man And The Seat [1080p x265 q18 S100 Joy].mkv (500.2 MB)
  • Rick and Morty S04E03 One Crew Over The Crewcoos Morty [1080p x265 q18 S100 Joy].mkv (501.4 MB)
  • Rick and Morty S04E04 Claw and Hoarder Special Ricktims Morty [1080p x265 q18 S100 Joy].mkv (564.3 MB)
  • Rick and Morty S04E05 Rattlestar Ricklactica [1080p x265 q18 S100 Joy].mkv (488.9 MB)
  • Rick and Morty S04E06 Never Ricking Morty [1080p x265 q18 S100 Joy].mkv (589.6 MB)
  • Rick and Morty S04E07 Promortyus [1080p x265 q18 S100 Joy].mkv (732.3 MB)
  • Rick and Morty S04E08 The Vat of Acid Episode [1080p x265 q18 S100 Joy].mkv (563.8 MB)
  • Rick and Morty S04E09 Childrick of Mort [1080p x265 q18 S100 Joy].mkv (734.4 MB)
  • Rick and Morty S04E10 Star Mort Rickturn of the Jerri [1080p x265 q18 S100 Joy].mkv (610.2 MB)

Mediainfo

I refuse to be limited to the sources that the studios let us have. As such I used AI Inference Software and days of processing to create a new souce sharp and clean of compression artifacts. Enjoy this world exclusive 4K Source from the good people at UTR – JoyBell

General
Format : Matroska
Format version : Version 4 / Version 2
File size : 734 MiB
Duration : 22 min 35 s
Overall bit rate : 4 546 kb/s
Movie name : Rick and Morty S04E09 Childrick of Mort [1080p x265 q18 Joy]
Encoded date : UTC 2020-05-27 03:51:49
Writing application : mkvmerge v39.0.0 ('In The Waiting Line') 64-bit
Writing library : libebml v1.3.9 + libmatroska v1.5.2

Video
ID : 1
Format : HEVC
Format/Info : High Efficiency Video Coding
Format profile : Main [email protected]@Main
Codec ID : V_MPEGH/ISO/HEVC
Duration : 22 min 35 s
Bit rate : 4 097 kb/s
Width : 1 920 pixels
Height : 1 080 pixels
Display aspect ratio : 16:9
Frame rate mode : Constant
Frame rate : 23.976 (24000/1001) FPS
Color space : YUV
Chroma subsampling : 4:2:0
Bit depth : 10 bits
Bits/(Pixel*Frame) : 0.082
Stream size : 662 MiB (90%)
Writing library : x265 3.2+9-971180b100f8:[Windows][GCC 9.2.0][64 bit] 10bit
Encoding settings : cpuid=1111039 / frame-threads=3 / numa-pools=12 / wpp / no-pmode / no-pme / no-psnr / ssim / log-level=2 / input-csp=1 / input-res=1920x1080 / interlace=0 / total-frames=32488 / level-idc=0 / high-tier=1 / uhd-bd=0 / ref=4 / no-allow-non-conformance / no-repeat-headers / annexb / no-aud / no-hrd / info / hash=0 / no-temporal-layers / open-gop / min-keyint=23 / keyint=250 / gop-lookahead=0 / bframes=8 / b-adapt=2 / b-pyramid / bframe-bias=40 / rc-lookahead=80 / lookahead-slices=4 / scenecut=40 / radl=0 / no-splice / no-intra-refresh / ctu=64 / min-cu-size=8 / rect / no-amp / max-tu-size=32 / tu-inter-depth=1 / tu-intra-depth=1 / limit-tu=0 / rdoq-level=2 / dynamic-rd=0.00 / ssim-rd / signhide / no-tskip / nr-intra=0 / nr-inter=0 / constrained-intra / strong-intra-smoothing / max-merge=5 / limit-refs=3 / limit-modes / me=3 / subme=7 / merange=57 / temporal-mvp / no-frame-dup / no-hme / weightp / no-weightb / no-analyze-src-pics / deblock=-3:-3 / sao / no-sao-non-deblock / rd=4 / selective-sao=4 / early-skip / rskip / no-fast-intra / no-tskip-fast / no-cu-lossless / no-b-intra / no-splitrd-skip / rdpenalty=0 / psy-rd=3.50 / psy-rdoq=2.50 / no-rd-refine / no-lossless / cbqpoffs=0 / crqpoffs=0 / rc=crf / crf=18.0 / qcomp=0.60 / qpstep=4 / stats-write=0 / stats-read=0 / ipratio=1.40 / pbratio=1.30 / aq-mode=3 / aq-strength=0.40 / cutree / zone-count=0 / no-strict-cbr / qg-size=32 / no-rc-grain / qpmax=69 / qpmin=0 / no-const-vbv / sar=0 / overscan=0 / videoformat=5 / range=0 / colorprim=2 / transfer=2 / colormatrix=2 / chromaloc=0 / display-window=0 / cll=0,0 / min-luma=0 / max-luma=1023 / log2-max-poc-lsb=8 / vui-timing-info / vui-hrd-info / slices=1 / no-opt-qp-pps / no-opt-ref-list-length-pps / no-multi-pass-opt-rps / scenecut-bias=0.05 / no-opt-cu-delta-qp / no-aq-motion / no-hdr / no-hdr-opt / no-dhdr10-opt / no-idr-recovery-sei / analysis-reuse-level=5 / scale-factor=0 / refine-intra=0 / refine-inter=0 / refine-mv=1 / refine-ctu-distortion=0 / no-limit-sao / ctu-info=0 / no-lowpass-dct / refine-analysis-type=0 / copy-pic=1 / max-ausize-factor=1.0 / no-dynamic-refine / no-single-sei / no-hevc-aq / no-svt / no-field / qp-adaptation-range=1.00
Default : Yes
Forced : No

Audio
ID : 2
Format : AAC
Format/Info : Advanced Audio Codec
Format profile : LC
Codec ID : A_AAC
Duration : 22 min 35 s
Bit rate : 447 kb/s
Channel(s) : 6 channels
Channel positions : Front: L C R, Side: L R, LFE
Sampling rate : 48.0 kHz
Frame rate : 46.875 FPS (1024 spf)
Compression mode : Lossy
Delay relative to video : 9 ms
Stream size : 72.1 MiB (10%)
Language : English
Default : No
Forced : No

Subtitle
ID : 3
Format : UTF-8
Codec ID : S_TEXT/UTF8
Codec ID/Info : UTF-8 Plain Text
Duration : 22 min 24 s
Bit rate : 110 b/s
Count of elements : 547
Stream size : 18.1 KiB (0%)
Title : SDH
Language : English
Default : No
Forced : No

Screens

Download

Download: Google Drive

Season 4 (2160p)

Rick and Morty (2013) Season 04 S04 (2160p AMZN WEB-DL x265 HEVC 10bit AI AAC 5.1 Joy) [UTR]

Files

Rick and Morty Season 4 [2160p AI x265 10bit Joy]

  • Rick and Morty S04E01 Edge of Tomorty Rick Die Rickpeat [2160p x265 10bit S98 Joy].mkv (685.2 MB)
  • Rick and Morty S04E02 The Old Man And The Seat [2160p x265 10bit S99 Joy].mkv (705.9 MB)
  • Rick and Morty S04E03 One Crew Over The Crewcoos Morty [2160p x265 10bit S100 Joy].mkv (691.1 MB)
  • Rick and Morty S04E04 Claw and Hoarder Special Ricktims Morty [2160p x265 10bit S99 Joy].mkv (694.8 MB)
  • Rick and Morty S04E05 Rattlestar Ricklactica [2160p x265 10bit S99 Joy].mkv (662.9 MB)
  • Rick and Morty S04E06 Never Ricking Morty [2160p x265 10bit S100 Joy].mkv (654.0 MB)
  • Rick and Morty S04E07 Promortyus [2160p x265 10bit S94 Joy].mkv (645.7 MB)
  • Rick and Morty S04E08 The Vat of Acid Episode [2160p x265 10bit S100 Joy].mkv (688.9 MB)
  • Rick and Morty S04E09 Childrick of Mort [2160p x265 10bit S95 Joy].mkv (688.2 MB)
  • Rick and Morty S04E10 Star Mort Rickturn of the Jerri [2160p x265 10bit FS100 Joy].mkv (695.0 MB)

Mediainfo

I refuse to be limited to the sources that the studios let us have. As such I used AI Inference Software and days of processing to create a new souce sharp and clean of compression artifacts. Enjoy this world exclusive 4K Source from the good people at UTR – JoyBell

General
Format : Matroska
Format version : Version 4 / Version 2
File size : 688 MiB
Duration : 22 min 35 s
Overall bit rate : 4 260 kb/s
Movie name : Rick and Morty S04E09 Childrick of Mort [2160p x265 10bit Joy][UTR]
Encoded date : UTC 2020-05-27 06:42:03
Writing application : mkvmerge v34.0.0 ('Sight and Seen') 64-bit
Writing library : libebml v1.3.7 + libmatroska v1.5.0
Writing frontend : StaxRip v2.0.2.0, a JoyBell Encode

Video
ID : 1
Format : HEVC
Format/Info : High Efficiency Video Coding
Format profile : Main [email protected]@Main
Codec ID : V_MPEGH/ISO/HEVC
Duration : 22 min 35 s
Bit rate : 4 000 kb/s
Width : 3 840 pixels
Height : 2 160 pixels
Display aspect ratio : 16:9
Frame rate mode : Constant
Frame rate : 23.976 (24000/1001) FPS
Color space : YUV
Chroma subsampling : 4:2:0
Bit depth : 10 bits
Bits/(Pixel*Frame) : 0.020
Stream size : 646 MiB (94%)
Writing library : x265 3.2+9-971180b100f8:[Windows][MSVC 1923][64 bit] 10bit
Encoding settings : cpuid=1111039 / frame-threads=3 / numa-pools=12 / wpp / no-pmode / no-pme / no-psnr / ssim / log-level=2 / input-csp=1 / input-res=3840x2160 / interlace=0 / total-frames=32488 / level-idc=0 / high-tier=1 / uhd-bd=0 / ref=4 / no-allow-non-conformance / no-repeat-headers / annexb / no-aud / no-hrd / info / hash=0 / no-temporal-layers / open-gop / min-keyint=23 / keyint=250 / gop-lookahead=0 / bframes=8 / b-adapt=2 / b-pyramid / bframe-bias=40 / rc-lookahead=80 / lookahead-slices=4 / scenecut=40 / radl=0 / no-splice / no-intra-refresh / ctu=64 / min-cu-size=8 / rect / no-amp / max-tu-size=32 / tu-inter-depth=1 / tu-intra-depth=1 / limit-tu=0 / rdoq-level=2 / dynamic-rd=0.00 / ssim-rd / signhide / no-tskip / nr-intra=0 / nr-inter=0 / constrained-intra / strong-intra-smoothing / max-merge=5 / limit-refs=3 / limit-modes / me=4 / subme=7 / merange=57 / temporal-mvp / no-frame-dup / no-hme / weightp / no-weightb / no-analyze-src-pics / deblock=0:0 / sao / no-sao-non-deblock / rd=4 / selective-sao=4 / early-skip / rskip / no-fast-intra / no-tskip-fast / no-cu-lossless / no-b-intra / splitrd-skip / rdpenalty=0 / psy-rd=3.50 / psy-rdoq=2.50 / no-rd-refine / no-lossless / cbqpoffs=0 / crqpoffs=0 / rc=abr / bitrate=4000 / qcomp=0.60 / qpstep=4 / stats-write=0 / stats-read=2 / cplxblur=20.0 / qblur=0.5 / ipratio=1.40 / pbratio=1.30 / aq-mode=3 / aq-strength=0.40 / cutree / zone-count=0 / no-strict-cbr / qg-size=32 / no-rc-grain / qpmax=69 / qpmin=0 / no-const-vbv / sar=0 / overscan=0 / videoformat=5 / range=0 / colorprim=1 / transfer=1 / colormatrix=1 / chromaloc=0 / display-window=0 / cll=0,0 / min-luma=0 / max-luma=1023 / log2-max-poc-lsb=8 / vui-timing-info / vui-hrd-info / slices=1 / no-opt-qp-pps / no-opt-ref-list-length-pps / multi-pass-opt-rps / scenecut-bias=0.05 / no-opt-cu-delta-qp / no-aq-motion / no-hdr / no-hdr-opt / no-dhdr10-opt / no-idr-recovery-sei / analysis-load / analysis-reuse-level=10 / scale-factor=0 / refine-intra=0 / refine-inter=0 / refine-mv=1 / refine-ctu-distortion=0 / limit-sao / ctu-info=0 / no-lowpass-dct / refine-analysis-type=0 / copy-pic=1 / max-ausize-factor=1.0 / no-dynamic-refine / no-single-sei / no-hevc-aq / no-svt / no-field / qp-adaptation-range=1.00
Default : Yes
Forced : No
Color range : Limited
Color primaries : BT.709
Transfer characteristics : BT.709
Matrix coefficients : BT.709

Audio
ID : 2
Format : AAC
Format/Info : Advanced Audio Codec
Format profile : LC
Codec ID : A_AAC
Duration : 22 min 35 s
Bit rate : 258 kb/s
Channel(s) : 6 channels
Channel positions : Front: L C R, Side: L R, LFE
Sampling rate : 48.0 kHz
Frame rate : 46.875 FPS (1024 spf)
Compression mode : Lossy
Delay relative to video : 9 ms
Stream size : 41.7 MiB (6%)
Language : English
Default : No
Forced : No

Subtitle
ID : 3
Format : UTF-8
Codec ID : S_TEXT/UTF8
Codec ID/Info : UTF-8 Plain Text
Duration : 22 min 24 s
Bit rate : 110 b/s
Count of elements : 547
Stream size : 18.1 KiB (0%)
Language : English
Default : No
Forced : No

Screens

Download

Download: Google Drive

17 thoughts on “Rick and Morty (2013) Season 1-4 (1080p + 2160p Mixed x265 HEVC 10bit AAC 5.1 Joy)

  1. ADMIN PLZZ TELL ME IAM SO CONFUSED WHICH ONE I SHOULD DOWNLOAD THE BOYS FROM VYNDROS OR QXR

    BECAUSE SOME ARE SAYING THAT VYNDROS LOW BITRATE

    1. Both have sreenshots on their torrent pages. Compare for yourself and get whichever you like.
      As there’s Silence release posted here, I’d say simply go for that one if can’t choose.

  2. Please admin could you upload the Adventures of tintin : the Secret of the Unicorn in Open Matte??
    Thank you so much

    1. ^what he said.
      Plus there’s only couple of movies available in IMAX version with 1080p.
      I’ll see about uploading them later.

Leave a Reply