Ozark (2016) Season 1-3 (1080p + 2160p NF WEBRip x265 HEVC 10bit AAC 5.1 Joy)

Plot: A financial adviser drags his family from Chicago to the Missouri Ozarks, where he must launder $500 million in five years to appease a drug boss.

Season 1 (1080p)

Ozark (2016) Season 01 S01 (1080p NF WEBRip x265 HEVC 10bit AAC 5.1 Joy) [UTR]

Files

  • Ozark S01E01 Sugarwood (1080p x265 10bit S94 Joy).mkv (440.7 MB)
  • Ozark S01E02 Blue Cat (1080p x265 10bit S90 Joy).mkv (423.3 MB)
  • Ozark S01E03 My Dripping Sleep (1080p x265 10bit S89 Joy).mkv (450.2 MB)
  • Ozark S01E04 Tonight We Improvise (1080p x265 10bit S91 Joy).mkv (446.7 MB)
  • Ozark S01E05 Ruling Days (1080p x265 10bit S85 Joy).mkv (423.7 MB)
  • Ozark S01E06 Book Of Ruth (1080p x265 10bit S85 Joy).mkv (439.0 MB)
  • Ozark S01E07 Nest Box (1080p x265 10bit S88 Joy).mkv (498.8 MB)
  • Ozark S01E08 Kaleidoscope (1080p x265 10bit S90 Joy).mkv (387.9 MB)
  • Ozark S01E09 Coffee Black (1080p x265 10bit S87 Joy).mkv (437.1 MB)
  • Ozark S01E10 The Toll (1080p x265 10bit S87 Joy).mkv (605.8 MB)

Mediainfo

General
Format                                   : Matroska
Format version                           : Version 4 / Version 2
File size                                : 441 MiB
Duration                                 : 58 min 0 s
Overall bit rate                         : 1 062 kb/s
Encoded date                             : UTC 2017-08-20 20:59:31
Writing application                      : mkvmerge v14.0.0 ('Flow') 64bit
Writing library                          : libebml v1.3.4 + libmatroska v1.4.5
Writing frontend                         : StaxRip v1.6.0.1

Video
ID                                       : 1
Format                                   : HEVC
Format/Info                              : High Efficiency Video Coding
Format profile                           : Main [email protected]@Main
Codec ID                                 : V_MPEGH/ISO/HEVC
Duration                                 : 58 min 0 s
Bit rate                                 : 906 kb/s
Width                                    : 1 920 pixels
Height                                   : 960 pixels
Display aspect ratio                     : 2.000
Frame rate mode                          : Constant
Frame rate                               : 23.976 (24000/1001) FPS
Color space                              : YUV
Chroma subsampling                       : 4:2:0
Bit depth                                : 10 bits
Bits/(Pixel*Frame)                       : 0.020
Stream size                              : 376 MiB (85%)
Writing library                          : x265 2.5+6-d11482e5fedb:[Windows][GCC 7.1.0][64 bit] 10bit
Encoding settings                        : cpuid=1173503 / frame-threads=3 / numa-pools=8 / wpp / no-pmode / no-pme / no-psnr / ssim / log-level=2 / input-csp=1 / input-res=1920x960 / interlace=0 / total-frames=83455 / level-idc=0 / high-tier=1 / uhd-bd=0 / ref=3 / no-allow-non-conformance / no-repeat-headers / annexb / no-aud / no-hrd / info / hash=0 / no-temporal-layers / open-gop / min-keyint=23 / keyint=250 / bframes=4 / b-adapt=2 / b-pyramid / bframe-bias=0 / rc-lookahead=20 / lookahead-slices=6 / scenecut=40 / no-intra-refresh / ctu=64 / min-cu-size=8 / no-rect / no-amp / max-tu-size=32 / tu-inter-depth=1 / tu-intra-depth=1 / limit-tu=0 / rdoq-level=1 / dynamic-rd=0.00 / ssim-rd / signhide / no-tskip / nr-intra=0 / nr-inter=0 / no-constrained-intra / strong-intra-smoothing / max-merge=2 / limit-refs=3 / no-limit-modes / me=1 / subme=2 / merange=57 / temporal-mvp / weightp / no-weightb / analyze-src-pics / deblock=0:0 / sao / no-sao-non-deblock / rd=3 / no-early-skip / rskip / no-fast-intra / no-tskip-fast / no-cu-lossless / no-b-intra / rdpenalty=0 / psy-rd=0.90 / psy-rdoq=1.20 / no-rd-refine / analysis-reuse-mode=0 / no-lossless / cbqpoffs=0 / crqpoffs=0 / rc=abr / bitrate=900 / qcomp=0.60 / qpstep=4 / stats-write=0 / stats-read=2 / cplxblur=20.0 / qblur=0.5 / ipratio=1.40 / pbratio=1.30 / aq-mode=3 / aq-strength=1.00 / cutree / zone-count=0 / no-strict-cbr / qg-size=32 / no-rc-grain / qpmax=69 / qpmin=0 / no-const-vbv / sar=0 / overscan=0 / videoformat=5 / range=0 / colorprim=2 / transfer=2 / colormatrix=2 / chromaloc=0 / display-window=0 / max-cll=0,0 / min-luma=0 / max-luma=1023 / log2-max-poc-lsb=8 / vui-timing-info / vui-hrd-info / slices=1 / opt-qp-pps / opt-ref-list-length-pps / multi-pass-opt-rps / scenecut-bias=0.05 / no-opt-cu-delta-qp / no-aq-motion / no-hdr / no-hdr-opt / no-dhdr10-opt / analysis-reuse-level=5 / scale-factor=0 / refine-intra=0 / refine-inter=0 / refine-mv=0 / no-limit-sao / ctu-info=0
Default                                  : Yes
Forced                                   : No

Audio
ID                                       : 2
Format                                   : AAC
Format/Info                              : Advanced Audio Codec
Format profile                           : HE-AAC / LC
Codec ID                                 : A_AAC
Duration                                 : 58 min 0 s
Bit rate                                 : 154 kb/s
Channel(s)                               : 6 channels
Channel positions                        : Front: L C R, Side: L R, LFE
Sampling rate                            : 48.0 kHz / 24.0 kHz
Frame rate                               : 23.438 FPS (1024 spf)
Compression mode                         : Lossy
Delay relative to video                  : 31 ms
Stream size                              : 63.9 MiB (15%)
Language                                 : English
Default                                  : No
Forced                                   : No

Subtitle #1
ID                                       : 3
Format                                   : UTF-8
Codec ID                                 : S_TEXT/UTF8
Codec ID/Info                            : UTF-8 Plain Text
Duration                                 : 3 s 170 ms
Bit rate                                 : 73 b/s
Count of elements                        : 1
Stream size                              : 29.0 Bytes (0%)
Language                                 : English
Default                                  : No
Forced                                   : Yes

Subtitle #2
ID                                       : 4
Format                                   : UTF-8
Codec ID                                 : S_TEXT/UTF8
Codec ID/Info                            : UTF-8 Plain Text
Duration                                 : 56 min 33 s
Bit rate                                 : 75 b/s
Count of elements                        : 863
Stream size                              : 31.1 KiB (0%)
Language                                 : English
Default                                  : No
Forced                                   : No

Subtitle #3
ID                                       : 5
Format                                   : UTF-8
Codec ID                                 : S_TEXT/UTF8
Codec ID/Info                            : UTF-8 Plain Text
Duration                                 : 56 min 53 s
Bit rate                                 : 62 b/s
Count of elements                        : 747
Stream size                              : 25.9 KiB (0%)
Language                                 : Spanish
Default                                  : No
Forced                                   : No

Subtitle #4
ID                                       : 6
Format                                   : UTF-8
Codec ID                                 : S_TEXT/UTF8
Codec ID/Info                            : UTF-8 Plain Text
Duration                                 : 56 min 53 s
Bit rate                                 : 65 b/s
Count of elements                        : 744
Stream size                              : 27.3 KiB (0%)
Language                                 : French
Default                                  : No
Forced                                   : No

Subtitle #5
ID                                       : 7
Format                                   : UTF-8
Codec ID                                 : S_TEXT/UTF8
Codec ID/Info                            : UTF-8 Plain Text
Duration                                 : 56 min 53 s
Bit rate                                 : 65 b/s
Count of elements                        : 714
Stream size                              : 27.2 KiB (0%)
Language                                 : German
Default                                  : No
Forced                                   : No

Subtitle #6
ID                                       : 8
Format                                   : UTF-8
Codec ID                                 : S_TEXT/UTF8
Codec ID/Info                            : UTF-8 Plain Text
Duration                                 : 56 min 53 s
Bit rate                                 : 60 b/s
Count of elements                        : 758
Stream size                              : 25.1 KiB (0%)
Language                                 : Italian
Default                                  : No
Forced                                   : No

Screens

Download

Download: Google Drive

Season 1 (2160p)

Ozark (2016) Season 01 S01 (2160p NF WEBRip x265 HEVC 10bit AAC 5.1 Joy) [UTR]

Files

  • Ozark S01E01 Sugarwood (2160p x265 10bit S96 Joy).mkv (1.8 GB)
  • Ozark S01E02 Blue Cat (2160p x265 10bit S94 Joy).mkv (1.7 GB)
  • Ozark S01E03 My Dripping Sleep (2160p x265 10bit S92 Joy).mkv (1.8 GB)
  • Ozark S01E04 Tonight We Improvise (2160p x265 10bit S94 Joy).mkv (1.8 GB)
  • Ozark S01E05 Ruling Days (2160p x265 10bit S90 Joy).mkv (1.7 GB)
  • Ozark S01E06 Book Of Ruth (2160p x265 10bit S89 Joy).mkv (1.8 GB)
  • Ozark S01E07 Nest Box (2160p x265 10bit S92 Joy).mkv (1.8 GB)
  • Ozark S01E08 Kaleidoscope (2160p x265 10bit S92 Joy).mkv (1.6 GB)
  • Ozark S01E09 Coffee Black (2160p x265 10bit S89 Joy).mkv (1.8 GB)
  • Ozark S01E10 The Toll (2160p x265 10bit S89 Joy).mkv (2.5 GB)

Mediainfo

General
Format                                   : Matroska
Format version                           : Version 4 / Version 2
File size                                : 1.78 GiB
Duration                                 : 58 min 0 s
Overall bit rate                         : 4 395 kb/s
Encoded date                             : UTC 2017-08-15 13:44:27
Writing application                      : mkvmerge v14.0.0 ('Flow') 64bit
Writing library                          : libebml v1.3.4 + libmatroska v1.4.5
Writing frontend                         : StaxRip v1.6.0.1

Video
ID                                       : 1
Format                                   : HEVC
Format/Info                              : High Efficiency Video Coding
Format profile                           : Main [email protected]@Main
Codec ID                                 : V_MPEGH/ISO/HEVC
Duration                                 : 58 min 0 s
Bit rate                                 : 4 009 kb/s
Width                                    : 3 840 pixels
Height                                   : 1 920 pixels
Display aspect ratio                     : 2.000
Frame rate mode                          : Constant
Frame rate                               : 23.976 (24000/1001) FPS
Color space                              : YUV
Chroma subsampling                       : 4:2:0
Bit depth                                : 10 bits
Bits/(Pixel*Frame)                       : 0.023
Stream size                              : 1.62 GiB (91%)
Writing library                          : x265 2.5+6-d11482e5fedb:[Windows][GCC 7.1.0][64 bit] 10bit
Encoding settings                        : cpuid=1173503 / frame-threads=3 / numa-pools=8 / wpp / no-pmode / no-pme / no-psnr / ssim / log-level=2 / input-csp=1 / input-res=3840x1920 / interlace=0 / total-frames=83455 / level-idc=0 / high-tier=1 / uhd-bd=0 / ref=3 / no-allow-non-conformance / no-repeat-headers / annexb / no-aud / no-hrd / info / hash=0 / no-temporal-layers / open-gop / min-keyint=23 / keyint=250 / bframes=4 / b-adapt=2 / b-pyramid / bframe-bias=0 / rc-lookahead=20 / lookahead-slices=8 / scenecut=40 / no-intra-refresh / ctu=64 / min-cu-size=8 / no-rect / no-amp / max-tu-size=32 / tu-inter-depth=1 / tu-intra-depth=1 / limit-tu=0 / rdoq-level=1 / dynamic-rd=0.00 / ssim-rd / signhide / no-tskip / nr-intra=0 / nr-inter=0 / no-constrained-intra / strong-intra-smoothing / max-merge=2 / limit-refs=3 / no-limit-modes / me=1 / subme=2 / merange=57 / temporal-mvp / weightp / no-weightb / analyze-src-pics / deblock=0:0 / sao / no-sao-non-deblock / rd=3 / no-early-skip / rskip / no-fast-intra / no-tskip-fast / no-cu-lossless / no-b-intra / rdpenalty=0 / psy-rd=0.90 / psy-rdoq=1.20 / no-rd-refine / analysis-reuse-mode=0 / no-lossless / cbqpoffs=0 / crqpoffs=0 / rc=abr / bitrate=4000 / qcomp=0.60 / qpstep=4 / stats-write=0 / stats-read=2 / cplxblur=20.0 / qblur=0.5 / ipratio=1.40 / pbratio=1.30 / aq-mode=3 / aq-strength=1.00 / cutree / zone-count=0 / no-strict-cbr / qg-size=32 / no-rc-grain / qpmax=69 / qpmin=0 / no-const-vbv / sar=0 / overscan=0 / videoformat=5 / range=0 / colorprim=2 / transfer=2 / colormatrix=2 / chromaloc=0 / display-window=0 / max-cll=0,0 / min-luma=0 / max-luma=1023 / log2-max-poc-lsb=8 / vui-timing-info / vui-hrd-info / slices=1 / opt-qp-pps / opt-ref-list-length-pps / multi-pass-opt-rps / scenecut-bias=0.05 / no-opt-cu-delta-qp / no-aq-motion / no-hdr / no-hdr-opt / no-dhdr10-opt / analysis-reuse-level=5 / scale-factor=0 / refine-intra=0 / refine-inter=0 / refine-mv=0 / no-limit-sao / ctu-info=0
Default                                  : Yes
Forced                                   : No

Audio
ID                                       : 2
Format                                   : AC-3
Format/Info                              : Audio Coding 3
Mode extension                           : CM (complete main)
Format settings, Endianness              : Big
Codec ID                                 : A_AC3
Duration                                 : 58 min 0 s
Bit rate mode                            : Constant
Bit rate                                 : 384 kb/s
Channel(s)                               : 6 channels
Channel positions                        : Front: L C R, Side: L R, LFE
Sampling rate                            : 48.0 kHz
Frame rate                               : 31.250 FPS (1536 spf)
Bit depth                                : 16 bits
Compression mode                         : Lossy
Stream size                              : 159 MiB (9%)
Language                                 : English
Default                                  : No
Forced                                   : No

Subtitle #1
ID                                       : 3
Format                                   : UTF-8
Codec ID                                 : S_TEXT/UTF8
Codec ID/Info                            : UTF-8 Plain Text
Duration                                 : 3 s 170 ms
Bit rate                                 : 73 b/s
Count of elements                        : 1
Stream size                              : 29.0 Bytes (0%)
Language                                 : English
Default                                  : No
Forced                                   : Yes

Subtitle #2
ID                                       : 4
Format                                   : UTF-8
Codec ID                                 : S_TEXT/UTF8
Codec ID/Info                            : UTF-8 Plain Text
Duration                                 : 56 min 33 s
Bit rate                                 : 75 b/s
Count of elements                        : 863
Stream size                              : 31.1 KiB (0%)
Language                                 : English
Default                                  : No
Forced                                   : No

Subtitle #3
ID                                       : 5
Format                                   : UTF-8
Codec ID                                 : S_TEXT/UTF8
Codec ID/Info                            : UTF-8 Plain Text
Duration                                 : 56 min 53 s
Bit rate                                 : 62 b/s
Count of elements                        : 747
Stream size                              : 25.9 KiB (0%)
Language                                 : Spanish
Default                                  : No
Forced                                   : No

Subtitle #4
ID                                       : 6
Format                                   : UTF-8
Codec ID                                 : S_TEXT/UTF8
Codec ID/Info                            : UTF-8 Plain Text
Duration                                 : 56 min 53 s
Bit rate                                 : 65 b/s
Count of elements                        : 744
Stream size                              : 27.3 KiB (0%)
Language                                 : French
Default                                  : No
Forced                                   : No

Subtitle #5
ID                                       : 7
Format                                   : UTF-8
Codec ID                                 : S_TEXT/UTF8
Codec ID/Info                            : UTF-8 Plain Text
Duration                                 : 56 min 53 s
Bit rate                                 : 65 b/s
Count of elements                        : 714
Stream size                              : 27.2 KiB (0%)
Language                                 : German
Default                                  : No
Forced                                   : No

Subtitle #6
ID                                       : 8
Format                                   : UTF-8
Codec ID                                 : S_TEXT/UTF8
Codec ID/Info                            : UTF-8 Plain Text
Duration                                 : 56 min 53 s
Bit rate                                 : 60 b/s
Count of elements                        : 758
Stream size                              : 25.1 KiB (0%)
Language                                 : Italian
Default                                  : No
Forced                                   : No

Screens

Download

Download: Google Drive

Season 2 (1080p)

Ozark (2016) Season 02 S02 (1080p NF WEBRip NVENC HEVC 10bit AAC 5.1 Joy) [UTR]

Files

  • Ozark S02E01 Reparations (1080p NV 10bit Joy).mkv (686.8 MB)
  • Ozark S02E02 The Precious Blood of Jesus (1080p NV 10bit Joy).mkv (529.2 MB)
  • Ozark S02E03 Once a Langmore (1080p NV 10bit Joy).mkv (496.6 MB)
  • Ozark S02E04 Stag (1080p NV 10bit Joy).mkv (541.4 MB)
  • Ozark S02E05 Game Day (1080p NV 10bit Joy).mkv (526.8 MB)
  • Ozark S02E06 Outer Darkness (1080p NV 10bit Joy).mkv (598.0 MB)
  • Ozark S02E07 One Way Out (1080p NV 10bit Joy).mkv (524.5 MB)
  • Ozark S02E08 The Big Sleep (1080p NV 10bit Joy).mkv (547.8 MB)
  • Ozark S02E09 The Badger (1080p NV 10bit Joy).mkv (566.4 MB)
  • Ozark S02E10 The Gold Coast (1080p NV 10bit Joy).mkv (569.2 MB)

Mediainfo

General
Format                                   : Matroska
Format version                           : Version 4 / Version 2
File size                                : 529 MiB
Duration                                 : 1 h 0 min
Overall bit rate                         : 1 222 kb/s
Movie name                               : Ozark.S02E02.The.Precious.Blood.of.Jesus.2160p.HDR.Netflix.WEBRip.DD.5.1.x265-TrollUHD  (1080p NV 10bit Joy)[UTR]
Encoded date                             : UTC 2019-05-07 19:26:08
Writing application                      : mkvmerge v31.0.0 ('Dolores In A Shoestand') 64-bit
Writing library                          : libebml v1.3.6 + libmatroska v1.4.9
Writing frontend                         : StaxRip v2.0.0.1, a JoyBell Encode

Video
ID                                       : 1
Format                                   : HEVC
Format/Info                              : High Efficiency Video Coding
Format profile                           : Main [email protected]@High
Codec ID                                 : V_MPEGH/ISO/HEVC
Duration                                 : 59 min 39 s
Bit rate                                 : 1 057 kb/s
Width                                    : 1 920 pixels
Height                                   : 960 pixels
Display aspect ratio                     : 2.000
Frame rate mode                          : Constant
Frame rate                               : 23.976 (24000/1001) FPS
Color space                              : YUV
Chroma subsampling                       : 4:2:0
Bit depth                                : 10 bits
Bits/(Pixel*Frame)                       : 0.024
Stream size                              : 451 MiB (85%)
Default                                  : Yes
Forced                                   : No
Color range                              : Limited
Matrix coefficients                      : BT.709

Audio
ID                                       : 2
Format                                   : AAC
Format/Info                              : Advanced Audio Codec
Format profile                           : HE-AAC / LC
Codec ID                                 : A_AAC
Duration                                 : 1 h 0 min
Bit rate                                 : 176 kb/s
Channel(s)                               : 6 channels
Channel positions                        : Front: L C R, Side: L R, LFE
Sampling rate                            : 48.0 kHz / 24.0 kHz
Frame rate                               : 23.438 FPS (1024 spf)
Compression mode                         : Lossy
Delay relative to video                  : 31 ms
Stream size                              : 76.0 MiB (14%)
Language                                 : English
Default                                  : No
Forced                                   : No

Subtitle #1
ID                                       : 3
Format                                   : UTF-8
Codec ID                                 : S_TEXT/UTF8
Codec ID/Info                            : UTF-8 Plain Text
Duration                                 : 57 min 26 s
Bit rate                                 : 65 b/s
Count of elements                        : 831
Stream size                              : 27.7 KiB (0%)
Title                                    : English
Language                                 : English
Default                                  : No
Forced                                   : No

Subtitle #2
ID                                       : 4
Format                                   : UTF-8
Codec ID                                 : S_TEXT/UTF8
Codec ID/Info                            : UTF-8 Plain Text
Duration                                 : 59 min 12 s
Bit rate                                 : 44 b/s
Count of elements                        : 741
Stream size                              : 19.5 KiB (0%)
Title                                    : Japanese
Language                                 : Japanese
Default                                  : No
Forced                                   : No

Subtitle #3
ID                                       : 5
Format                                   : UTF-8
Codec ID                                 : S_TEXT/UTF8
Codec ID/Info                            : UTF-8 Plain Text
Duration                                 : 59 min 18 s
Bit rate                                 : 52 b/s
Count of elements                        : 746
Stream size                              : 22.7 KiB (0%)
Title                                    : Italian
Language                                 : Italian
Default                                  : No
Forced                                   : No

Subtitle #4
ID                                       : 6
Format                                   : UTF-8
Codec ID                                 : S_TEXT/UTF8
Codec ID/Info                            : UTF-8 Plain Text
Duration                                 : 59 min 18 s
Bit rate                                 : 55 b/s
Count of elements                        : 752
Stream size                              : 24.3 KiB (0%)
Title                                    : Portuguese
Language                                 : Portuguese
Default                                  : No
Forced                                   : No

Subtitle #5
ID                                       : 7
Format                                   : UTF-8
Codec ID                                 : S_TEXT/UTF8
Codec ID/Info                            : UTF-8 Plain Text
Duration                                 : 59 min 18 s
Bit rate                                 : 47 b/s
Count of elements                        : 721
Stream size                              : 20.7 KiB (0%)
Title                                    : Polish
Language                                 : Polish
Default                                  : No
Forced                                   : No

Subtitle #6
ID                                       : 8
Format                                   : UTF-8
Codec ID                                 : S_TEXT/UTF8
Codec ID/Info                            : UTF-8 Plain Text
Duration                                 : 57 min 33 s
Bit rate                                 : 50 b/s
Count of elements                        : 722
Stream size                              : 21.5 KiB (0%)
Title                                    : Brazilian Portuguese
Language                                 : Portuguese
Default                                  : No
Forced                                   : No

Subtitle #7
ID                                       : 9
Format                                   : UTF-8
Codec ID                                 : S_TEXT/UTF8
Codec ID/Info                            : UTF-8 Plain Text
Duration                                 : 59 min 18 s
Bit rate                                 : 52 b/s
Count of elements                        : 752
Stream size                              : 22.8 KiB (0%)
Title                                    : Simplified Chinese
Language                                 : Chinese
Default                                  : No
Forced                                   : No

Subtitle #8
ID                                       : 10
Format                                   : UTF-8
Codec ID                                 : S_TEXT/UTF8
Codec ID/Info                            : UTF-8 Plain Text
Duration                                 : 59 min 18 s
Bit rate                                 : 60 b/s
Count of elements                        : 752
Stream size                              : 26.2 KiB (0%)
Title                                    : Korean
Language                                 : Korean
Default                                  : No
Forced                                   : No

Subtitle #9
ID                                       : 11
Format                                   : UTF-8
Codec ID                                 : S_TEXT/UTF8
Codec ID/Info                            : UTF-8 Plain Text
Duration                                 : 59 min 18 s
Bit rate                                 : 49 b/s
Count of elements                        : 742
Stream size                              : 21.6 KiB (0%)
Title                                    : Swedish
Language                                 : Swedish
Default                                  : No
Forced                                   : No

Subtitle #10
ID                                       : 12
Format                                   : UTF-8
Codec ID                                 : S_TEXT/UTF8
Codec ID/Info                            : UTF-8 Plain Text
Duration                                 : 59 min 17 s
Bit rate                                 : 46 b/s
Count of elements                        : 629
Stream size                              : 20.2 KiB (0%)
Title                                    : Finnish
Language                                 : Finnish
Default                                  : No
Forced                                   : No

Subtitle #11
ID                                       : 13
Format                                   : UTF-8
Codec ID                                 : S_TEXT/UTF8
Codec ID/Info                            : UTF-8 Plain Text
Duration                                 : 59 min 18 s
Bit rate                                 : 84 b/s
Count of elements                        : 752
Stream size                              : 36.6 KiB (0%)
Title                                    : Hebrew
Language                                 : Hebrew
Default                                  : No
Forced                                   : No

Subtitle #12
ID                                       : 14
Format                                   : UTF-8
Codec ID                                 : S_TEXT/UTF8
Codec ID/Info                            : UTF-8 Plain Text
Duration                                 : 57 min 4 s
Bit rate                                 : 103 b/s
Count of elements                        : 772
Stream size                              : 43.2 KiB (0%)
Title                                    : Bulgarian
Language                                 : Bulgarian
Default                                  : No
Forced                                   : No

Subtitle #13
ID                                       : 15
Format                                   : UTF-8
Codec ID                                 : S_TEXT/UTF8
Codec ID/Info                            : UTF-8 Plain Text
Duration                                 : 59 min 18 s
Bit rate                                 : 95 b/s
Count of elements                        : 752
Stream size                              : 41.6 KiB (0%)
Title                                    : Arabic
Language                                 : Arabic
Default                                  : No
Forced                                   : No

Subtitle #14
ID                                       : 16
Format                                   : UTF-8
Codec ID                                 : S_TEXT/UTF8
Codec ID/Info                            : UTF-8 Plain Text
Duration                                 : 59 min 18 s
Bit rate                                 : 51 b/s
Count of elements                        : 752
Stream size                              : 22.6 KiB (0%)
Title                                    : Norwegian
Language                                 : Norwegian Bokmal
Default                                  : No
Forced                                   : No

Subtitle #15
ID                                       : 17
Format                                   : UTF-8
Codec ID                                 : S_TEXT/UTF8
Codec ID/Info                            : UTF-8 Plain Text
Duration                                 : 59 min 18 s
Bit rate                                 : 48 b/s
Count of elements                        : 732
Stream size                              : 21.0 KiB (0%)
Title                                    : Danish
Language                                 : Danish
Default                                  : No
Forced                                   : No

Subtitle #16
ID                                       : 18
Format                                   : UTF-8
Codec ID                                 : S_TEXT/UTF8
Codec ID/Info                            : UTF-8 Plain Text
Duration                                 : 59 min 18 s
Bit rate                                 : 52 b/s
Count of elements                        : 750
Stream size                              : 22.6 KiB (0%)
Title                                    : Romanian
Language                                 : Romanian
Default                                  : No
Forced                                   : No

Subtitle #17
ID                                       : 19
Format                                   : UTF-8
Codec ID                                 : S_TEXT/UTF8
Codec ID/Info                            : UTF-8 Plain Text
Duration                                 : 57 min 30 s
Bit rate                                 : 92 b/s
Count of elements                        : 753
Stream size                              : 39.0 KiB (0%)
Title                                    : Greek
Language                                 : Greek
Default                                  : No
Forced                                   : No

Subtitle #18
ID                                       : 20
Format                                   : UTF-8
Codec ID                                 : S_TEXT/UTF8
Codec ID/Info                            : UTF-8 Plain Text
Duration                                 : 59 min 18 s
Bit rate                                 : 52 b/s
Count of elements                        : 679
Stream size                              : 22.8 KiB (0%)
Title                                    : German
Language                                 : German
Default                                  : No
Forced                                   : No

Subtitle #19
ID                                       : 21
Format                                   : UTF-8
Codec ID                                 : S_TEXT/UTF8
Codec ID/Info                            : UTF-8 Plain Text
Duration                                 : 59 min 18 s
Bit rate                                 : 51 b/s
Count of elements                        : 738
Stream size                              : 22.3 KiB (0%)
Title                                    : Spanish
Language                                 : Spanish
Default                                  : No
Forced                                   : No

Subtitle #20
ID                                       : 22
Format                                   : UTF-8
Codec ID                                 : S_TEXT/UTF8
Codec ID/Info                            : UTF-8 Plain Text
Duration                                 : 59 min 18 s
Bit rate                                 : 50 b/s
Count of elements                        : 747
Stream size                              : 22.0 KiB (0%)
Title                                    : European Spanish
Language                                 : Spanish
Default                                  : No
Forced                                   : No

Subtitle #21
ID                                       : 23
Format                                   : UTF-8
Codec ID                                 : S_TEXT/UTF8
Codec ID/Info                            : UTF-8 Plain Text
Duration                                 : 59 min 18 s
Bit rate                                 : 128 b/s
Count of elements                        : 752
Stream size                              : 56.0 KiB (0%)
Title                                    : Thai
Language                                 : Thai
Default                                  : No
Forced                                   : No

Subtitle #22
ID                                       : 24
Format                                   : UTF-8
Codec ID                                 : S_TEXT/UTF8
Codec ID/Info                            : UTF-8 Plain Text
Duration                                 : 59 min 18 s
Bit rate                                 : 45 b/s
Count of elements                        : 752
Stream size                              : 19.7 KiB (0%)
Title                                    : Traditional Chinese
Language                                 : Chinese
Default                                  : No
Forced                                   : No

Subtitle #23
ID                                       : 25
Format                                   : UTF-8
Codec ID                                 : S_TEXT/UTF8
Codec ID/Info                            : UTF-8 Plain Text
Duration                                 : 59 min 18 s
Bit rate                                 : 50 b/s
Count of elements                        : 737
Stream size                              : 22.0 KiB (0%)
Title                                    : French
Language                                 : French
Default                                  : No
Forced                                   : No

Subtitle #24
ID                                       : 26
Format                                   : UTF-8
Codec ID                                 : S_TEXT/UTF8
Codec ID/Info                            : UTF-8 Plain Text
Duration                                 : 59 min 18 s
Bit rate                                 : 55 b/s
Count of elements                        : 750
Stream size                              : 24.1 KiB (0%)
Title                                    : Turkish
Language                                 : Turkish
Default                                  : No
Forced                                   : No

Subtitle #25
ID                                       : 27
Format                                   : UTF-8
Codec ID                                 : S_TEXT/UTF8
Codec ID/Info                            : UTF-8 Plain Text
Duration                                 : 59 min 18 s
Bit rate                                 : 47 b/s
Count of elements                        : 684
Stream size                              : 20.4 KiB (0%)
Title                                    : Dutch
Language                                 : Dutch
Default                                  : No
Forced                                   : No

Screens

Download

Download: Google Drive

Season 2 (2160p)

Ozark (2016) Season 02 S02 (2160p NF WEBRip NVENC HEVC 10bit AAC 5.1 Joy) [UTR]

Files

  • Ozark S02E01 Reparations (2160p NV 10bit Joy).mkv (2.2 GB)
  • Ozark S02E02 The Precious Blood of Jesus (2160p NV 10bit Joy).mkv (2.2 GB)
  • Ozark S02E03 Once a Langmore (2160p NV 10bit Joy).mkv (2.0 GB)
  • Ozark S02E04 Stag (2160p NV 10bit Joy).mkv (2.2 GB)
  • Ozark S02E05 Game Day (2160p NV 10bit Joy).mkv (2.2 GB)
  • Ozark S02E06 Outer Darkness (2160p NV 10bit Joy).mkv (2.5 GB)
  • Ozark S02E07 One Way Out (2160p NV 10bit Joy).mkv (2.2 GB)
  • Ozark S02E08 The Big Sleep (2160p NV 10bit Joy).mkv (2.3 GB)
  • Ozark S02E09 The Badger (2160p NV 10bit Joy).mkv (2.3 GB)
  • Ozark S02E10 The Gold Coast (2160p NV 10bit Joy).mkv (2.3 GB)

Mediainfo

General
Format : Matroska
Format version : Version 4 / Version 2
File size : 2.04 GiB
Duration : 56 min 23 s
Overall bit rate : 5 188 kb/s
Movie name : Ozark.S02E03.Once.a.Langmore.2160p.HDR.Netflix.WEBRip.DD.5.1.x265-TrollUHD (2160p NV 10bit Joy)[UTR]
Encoded date : UTC 2019-05-07 09:11:38
Writing application : mkvmerge v31.0.0 ('Dolores In A Shoestand') 64-bit
Writing library : libebml v1.3.6 + libmatroska v1.4.9
Writing frontend : StaxRip v2.0.0.1, a JoyBell Encode

Video
ID : 1
Format : HEVC
Format/Info : High Efficiency Video Coding
Format profile : Main [email protected]@High
Codec ID : V_MPEGH/ISO/HEVC
Duration : 55 min 30 s
Bit rate : 4 947 kb/s
Width : 3 840 pixels
Height : 1 920 pixels
Display aspect ratio : 2.000
Frame rate mode : Constant
Frame rate : 23.976 (24000/1001) FPS
Color space : YUV
Chroma subsampling : 4:2:0
Bit depth : 10 bits
Bits/(Pixel*Frame) : 0.028
Stream size : 1.92 GiB (94%)
Default : Yes
Forced : No
Color range : Limited
Matrix coefficients : BT.709

Audio
ID : 2
Format : AAC
Format/Info : Advanced Audio Codec
Format profile : LC
Codec ID : A_AAC
Duration : 56 min 23 s
Bit rate : 313 kb/s
Channel(s) : 6 channels
Channel positions : Front: L C R, Side: L R, LFE
Sampling rate : 48.0 kHz
Frame rate : 46.875 FPS (1024 spf)
Compression mode : Lossy
Delay relative to video : 9 ms
Stream size : 126 MiB (6%)
Language : English
Default : No
Forced : No

Subtitle #1
ID : 3
Format : UTF-8
Codec ID : S_TEXT/UTF8
Codec ID/Info : UTF-8 Plain Text
Duration : 53 min 0 s
Bit rate : 74 b/s
Count of elements : 775
Stream size : 28.8 KiB (0%)
Title : English
Language : English
Default : No
Forced : No

Subtitle #2
ID : 4
Format : UTF-8
Codec ID : S_TEXT/UTF8
Codec ID/Info : UTF-8 Plain Text
Duration : 55 min 8 s
Bit rate : 54 b/s
Count of elements : 637
Stream size : 21.8 KiB (0%)
Title : Dutch
Language : Dutch
Default : No
Forced : No

Subtitle #3
ID : 5
Format : UTF-8
Codec ID : S_TEXT/UTF8
Codec ID/Info : UTF-8 Plain Text
Duration : 55 min 3 s
Bit rate : 52 b/s
Count of elements : 705
Stream size : 21.1 KiB (0%)
Title : Japanese
Language : Japanese
Default : No
Forced : No

Subtitle #4
ID : 6
Format : UTF-8
Codec ID : S_TEXT/UTF8
Codec ID/Info : UTF-8 Plain Text
Duration : 55 min 8 s
Bit rate : 59 b/s
Count of elements : 714
Stream size : 24.0 KiB (0%)
Title : Italian
Language : Italian
Default : No
Forced : No

Subtitle #5
ID : 7
Format : UTF-8
Codec ID : S_TEXT/UTF8
Codec ID/Info : UTF-8 Plain Text
Duration : 55 min 8 s
Bit rate : 63 b/s
Count of elements : 720
Stream size : 25.5 KiB (0%)
Title : Portuguese
Language : Portuguese
Default : No
Forced : No

Subtitle #6
ID : 8
Format : UTF-8
Codec ID : S_TEXT/UTF8
Codec ID/Info : UTF-8 Plain Text
Duration : 55 min 8 s
Bit rate : 53 b/s
Count of elements : 689
Stream size : 21.6 KiB (0%)
Title : Polish
Language : Polish
Default : No
Forced : No

Subtitle #7
ID : 9
Format : UTF-8
Codec ID : S_TEXT/UTF8
Codec ID/Info : UTF-8 Plain Text
Duration : 55 min 8 s
Bit rate : 54 b/s
Count of elements : 679
Stream size : 21.9 KiB (0%)
Title : Brazilian Portuguese
Language : Portuguese
Default : No
Forced : No

Subtitle #8
ID : 10
Format : UTF-8
Codec ID : S_TEXT/UTF8
Codec ID/Info : UTF-8 Plain Text
Duration : 55 min 8 s
Bit rate : 59 b/s
Count of elements : 724
Stream size : 24.2 KiB (0%)
Title : Simplified Chinese
Language : Chinese
Default : No
Forced : No

Subtitle #9
ID : 11
Format : UTF-8
Codec ID : S_TEXT/UTF8
Codec ID/Info : UTF-8 Plain Text
Duration : 55 min 8 s
Bit rate : 69 b/s
Count of elements : 725
Stream size : 28.0 KiB (0%)
Title : Korean
Language : Korean
Default : No
Forced : No

Subtitle #10
ID : 12
Format : UTF-8
Codec ID : S_TEXT/UTF8
Codec ID/Info : UTF-8 Plain Text
Duration : 55 min 8 s
Bit rate : 56 b/s
Count of elements : 688
Stream size : 22.8 KiB (0%)
Title : Swedish
Language : Swedish
Default : No
Forced : No

Subtitle #11
ID : 13
Format : UTF-8
Codec ID : S_TEXT/UTF8
Codec ID/Info : UTF-8 Plain Text
Duration : 55 min 8 s
Bit rate : 53 b/s
Count of elements : 604
Stream size : 21.5 KiB (0%)
Title : Finnish
Language : Finnish
Default : No
Forced : No

Subtitle #12
ID : 14
Format : UTF-8
Codec ID : S_TEXT/UTF8
Codec ID/Info : UTF-8 Plain Text
Duration : 55 min 8 s
Bit rate : 94 b/s
Count of elements : 724
Stream size : 38.1 KiB (0%)
Title : Hebrew
Language : Hebrew
Default : No
Forced : No

Subtitle #13
ID : 15
Format : UTF-8
Codec ID : S_TEXT/UTF8
Codec ID/Info : UTF-8 Plain Text
Duration : 55 min 8 s
Bit rate : 104 b/s
Count of elements : 724
Stream size : 42.3 KiB (0%)
Title : Arabic
Language : Arabic
Default : No
Forced : No

Subtitle #14
ID : 16
Format : UTF-8
Codec ID : S_TEXT/UTF8
Codec ID/Info : UTF-8 Plain Text
Duration : 55 min 8 s
Bit rate : 58 b/s
Count of elements : 719
Stream size : 23.6 KiB (0%)
Title : Norwegian
Language : Norwegian Bokmal
Default : No
Forced : No

Subtitle #15
ID : 17
Format : UTF-8
Codec ID : S_TEXT/UTF8
Codec ID/Info : UTF-8 Plain Text
Duration : 55 min 8 s
Bit rate : 53 b/s
Count of elements : 706
Stream size : 21.5 KiB (0%)
Title : Danish
Language : Danish
Default : No
Forced : No

Subtitle #16
ID : 18
Format : UTF-8
Codec ID : S_TEXT/UTF8
Codec ID/Info : UTF-8 Plain Text
Duration : 55 min 8 s
Bit rate : 59 b/s
Count of elements : 717
Stream size : 23.9 KiB (0%)
Title : Romanian
Language : Romanian
Default : No
Forced : No

Subtitle #17
ID : 19
Format : UTF-8
Codec ID : S_TEXT/UTF8
Codec ID/Info : UTF-8 Plain Text
Duration : 55 min 8 s
Bit rate : 102 b/s
Count of elements : 712
Stream size : 41.4 KiB (0%)
Title : Greek
Language : Greek
Default : No
Forced : No

Subtitle #18
ID : 20
Format : UTF-8
Codec ID : S_TEXT/UTF8
Codec ID/Info : UTF-8 Plain Text
Duration : 55 min 8 s
Bit rate : 58 b/s
Count of elements : 647
Stream size : 23.7 KiB (0%)
Title : German
Language : German
Default : No
Forced : No

Subtitle #19
ID : 21
Format : UTF-8
Codec ID : S_TEXT/UTF8
Codec ID/Info : UTF-8 Plain Text
Duration : 55 min 8 s
Bit rate : 58 b/s
Count of elements : 703
Stream size : 23.5 KiB (0%)
Title : Spanish
Language : Spanish
Default : No
Forced : No

Subtitle #20
ID : 22
Format : UTF-8
Codec ID : S_TEXT/UTF8
Codec ID/Info : UTF-8 Plain Text
Duration : 55 min 8 s
Bit rate : 155 b/s
Count of elements : 724
Stream size : 62.7 KiB (0%)
Title : Thai
Language : Thai
Default : No
Forced : No

Subtitle #21
ID : 23
Format : UTF-8
Codec ID : S_TEXT/UTF8
Codec ID/Info : UTF-8 Plain Text
Duration : 55 min 8 s
Bit rate : 51 b/s
Count of elements : 724
Stream size : 20.8 KiB (0%)
Title : Traditional Chinese
Language : Chinese
Default : No
Forced : No

Subtitle #22
ID : 24
Format : UTF-8
Codec ID : S_TEXT/UTF8
Codec ID/Info : UTF-8 Plain Text
Duration : 55 min 8 s
Bit rate : 57 b/s
Count of elements : 719
Stream size : 23.3 KiB (0%)
Title : European Spanish
Language : Spanish
Default : No
Forced : No

Subtitle #23
ID : 25
Format : UTF-8
Codec ID : S_TEXT/UTF8
Codec ID/Info : UTF-8 Plain Text
Duration : 55 min 8 s
Bit rate : 61 b/s
Count of elements : 716
Stream size : 24.9 KiB (0%)
Title : Turkish
Language : Turkish
Default : No
Forced : No

Subtitle #24
ID : 26
Format : UTF-8
Codec ID : S_TEXT/UTF8
Codec ID/Info : UTF-8 Plain Text
Duration : 55 min 8 s
Bit rate : 57 b/s
Count of elements : 711
Stream size : 23.4 KiB (0%)
Title : French
Language : French
Default : No
Forced : No

Screens

Download

Download: Google Drive

Season 3 (1080p)

Ozark (2016) Season 03 S03 (1080p NF WEBRip x265 HEVC 10bit AAC 5.1 Joy) [UTR]

Files

  • Ozark S03E01 War Time [1080p x265 10bit Joy].mkv (599.3 MB)
  • Ozark S03E02 Civil Union [1080p x265 10bit Joy].mkv (631.5 MB)
  • Ozark S03E03 Kevin Cronin Was Here [1080p x265 10bit Joy].mkv (585.8 MB)
  • Ozark S03E04 Boss Fight [1080p x265 10bit Joy].mkv (523.4 MB)
  • Ozark S03E05 It Came from Michoacán [1080p x265 10bit Joy].mkv (622.9 MB)
  • Ozark S03E06 Su Casa Es Mi Casa [1080p x265 10bit Joy].mkv (579.3 MB)
  • Ozark S03E07 In Case of Emergency [1080p x265 10bit Joy].mkv (611.1 MB)
  • Ozark S03E08 BFF [1080p x265 10bit Joy].mkv (570.1 MB)
  • Ozark S03E09 Fire Pink [1080p x265 10bit Joy].mkv (621.2 MB)
  • Ozark S03E10 All In [1080p x265 10bit Joy].mkv (654.9 MB)

Mediainfo

General
Format                                   : Matroska
Format version                           : Version 4 / Version 2
File size                                : 599 MiB
Duration                                 : 1 h 0 min
Overall bit rate                         : 1 379 kb/s
Movie name                               : Ozark S03E01 War Time  [1080p x265 10bit Joy][UTR]
Encoded date                             : UTC 2020-04-01 23:46:43
Writing application                      : mkvmerge v39.0.0 ('In The Waiting Line') 64-bit
Writing library                          : libebml v1.3.9 + libmatroska v1.5.2

Video
ID                                       : 1
Format                                   : HEVC
Format/Info                              : High Efficiency Video Coding
Format profile                           : Main [email protected]@Main
Codec ID                                 : V_MPEGH/ISO/HEVC
Duration                                 : 1 h 0 min
Bit rate                                 : 1 202 kb/s
Width                                    : 1 920 pixels
Height                                   : 872 pixels
Display aspect ratio                     : 2.2:1
Frame rate mode                          : Constant
Frame rate                               : 23.976 (24000/1001) FPS
Color space                              : YUV
Chroma subsampling                       : 4:2:0
Bit depth                                : 10 bits
Bits/(Pixel*Frame)                       : 0.030
Stream size                              : 522 MiB (87%)
Writing library                          : x265 3.2+9-971180b100f8:[Windows][MSVC 1923][64 bit] 10bit
Encoding settings                        : cpuid=1111039 / frame-threads=3 / numa-pools=8 / wpp / no-pmode / no-pme / no-psnr / ssim / log-level=2 / input-csp=1 / input-res=1920x872 / interlace=0 / total-frames=87374 / level-idc=0 / high-tier=1 / uhd-bd=0 / ref=4 / no-allow-non-conformance / no-repeat-headers / annexb / no-aud / no-hrd / info / hash=0 / no-temporal-layers / open-gop / min-keyint=23 / keyint=250 / gop-lookahead=0 / bframes=8 / b-adapt=2 / b-pyramid / bframe-bias=40 / rc-lookahead=80 / lookahead-slices=4 / scenecut=40 / radl=0 / no-splice / no-intra-refresh / ctu=64 / min-cu-size=8 / rect / no-amp / max-tu-size=32 / tu-inter-depth=1 / tu-intra-depth=1 / limit-tu=0 / rdoq-level=2 / dynamic-rd=0.00 / ssim-rd / signhide / no-tskip / nr-intra=0 / nr-inter=0 / constrained-intra / strong-intra-smoothing / max-merge=3 / limit-refs=3 / limit-modes / me=3 / subme=3 / merange=57 / temporal-mvp / no-frame-dup / no-hme / weightp / no-weightb / no-analyze-src-pics / deblock=0:0 / sao / no-sao-non-deblock / rd=4 / selective-sao=4 / early-skip / rskip / no-fast-intra / no-tskip-fast / no-cu-lossless / no-b-intra / splitrd-skip / rdpenalty=0 / psy-rd=2.45 / psy-rdoq=1.50 / no-rd-refine / no-lossless / cbqpoffs=0 / crqpoffs=0 / rc=abr / bitrate=1200 / qcomp=0.60 / qpstep=4 / stats-write=0 / stats-read=2 / cplxblur=20.0 / qblur=0.5 / ipratio=1.40 / pbratio=1.30 / aq-mode=3 / aq-strength=0.40 / cutree / zone-count=0 / no-strict-cbr / qg-size=32 / no-rc-grain / qpmax=69 / qpmin=0 / no-const-vbv / sar=0 / overscan=0 / videoformat=5 / range=0 / colorprim=2 / transfer=2 / colormatrix=2 / chromaloc=0 / display-window=0 / cll=0,0 / min-luma=0 / max-luma=1023 / log2-max-poc-lsb=8 / vui-timing-info / vui-hrd-info / slices=1 / no-opt-qp-pps / no-opt-ref-list-length-pps / multi-pass-opt-rps / scenecut-bias=0.05 / no-opt-cu-delta-qp / no-aq-motion / no-hdr / no-hdr-opt / no-dhdr10-opt / no-idr-recovery-sei / analysis-load / analysis-reuse-level=10 / scale-factor=0 / refine-intra=0 / refine-inter=0 / refine-mv=1 / refine-ctu-distortion=0 / limit-sao / ctu-info=0 / no-lowpass-dct / refine-analysis-type=0 / copy-pic=1 / max-ausize-factor=1.0 / no-dynamic-refine / no-single-sei / no-hevc-aq / no-svt / no-field / qp-adaptation-range=1.00
Default                                  : Yes
Forced                                   : No

Audio
ID                                       : 2
Format                                   : AAC
Format/Info                              : Advanced Audio Codec
Format profile                           : HE-AAC / LC
Codec ID                                 : A_AAC
Duration                                 : 1 h 0 min
Bit rate                                 : 172 kb/s
Channel(s)                               : 6 channels
Channel positions                        : Front: L C R, Side: L R, LFE
Sampling rate                            : 48.0 kHz / 24.0 kHz
Frame rate                               : 23.438 FPS (1024 spf)
Compression mode                         : Lossy
Delay relative to video                  : 31 ms
Stream size                              : 74.9 MiB (13%)
Title                                    : English
Language                                 : English
Default                                  : No
Forced                                   : No

Subtitle #1
ID                                       : 3
Format                                   : UTF-8
Codec ID                                 : S_TEXT/UTF8
Codec ID/Info                            : UTF-8 Plain Text
Duration                                 : 28 s 737 ms
Bit rate                                 : 55 b/s
Count of elements                        : 7
Stream size                              : 200 Bytes (0%)
Title                                    : Forced
Language                                 : English
Default                                  : No
Forced                                   : Yes

Subtitle #2
ID                                       : 4
Format                                   : UTF-8
Codec ID                                 : S_TEXT/UTF8
Codec ID/Info                            : UTF-8 Plain Text
Duration                                 : 57 min 47 s
Bit rate                                 : 69 b/s
Count of elements                        : 827
Stream size                              : 29.3 KiB (0%)
Title                                    : SDH
Language                                 : English
Default                                  : No
Forced                                   : No

Subtitle #3
ID                                       : 5
Format                                   : UTF-8
Codec ID                                 : S_TEXT/UTF8
Codec ID/Info                            : UTF-8 Plain Text
Duration                                 : 59 min 10 s
Bit rate                                 : 95 b/s
Count of elements                        : 739
Stream size                              : 41.3 KiB (0%)
Language                                 : Arabic
Default                                  : No
Forced                                   : No

Subtitle #4
ID                                       : 6
Format                                   : UTF-8
Codec ID                                 : S_TEXT/UTF8
Codec ID/Info                            : UTF-8 Plain Text
Duration                                 : 59 min 18 s
Bit rate                                 : 52 b/s
Count of elements                        : 732
Stream size                              : 23.0 KiB (0%)
Language                                 : Czech
Default                                  : No
Forced                                   : No

Subtitle #5
ID                                       : 7
Format                                   : UTF-8
Codec ID                                 : S_TEXT/UTF8
Codec ID/Info                            : UTF-8 Plain Text
Duration                                 : 59 min 10 s
Bit rate                                 : 48 b/s
Count of elements                        : 626
Stream size                              : 21.1 KiB (0%)
Language                                 : Danish
Default                                  : No
Forced                                   : No

Subtitle #6
ID                                       : 8
Format                                   : UTF-8
Codec ID                                 : S_TEXT/UTF8
Codec ID/Info                            : UTF-8 Plain Text
Duration                                 : 59 min 17 s
Bit rate                                 : 51 b/s
Count of elements                        : 700
Stream size                              : 22.4 KiB (0%)
Language                                 : German
Default                                  : No
Forced                                   : No

Subtitle #7
ID                                       : 9
Format                                   : UTF-8
Codec ID                                 : S_TEXT/UTF8
Codec ID/Info                            : UTF-8 Plain Text
Duration                                 : 59 min 18 s
Bit rate                                 : 87 b/s
Count of elements                        : 740
Stream size                              : 38.1 KiB (0%)
Language                                 : Greek
Default                                  : No
Forced                                   : No

Subtitle #8
ID                                       : 10
Format                                   : UTF-8
Codec ID                                 : S_TEXT/UTF8
Codec ID/Info                            : UTF-8 Plain Text
Duration                                 : 54 min 29 s
Bit rate                                 : 55 b/s
Count of elements                        : 725
Stream size                              : 22.1 KiB (0%)
Language                                 : Spanish
Default                                  : No
Forced                                   : No

Subtitle #9
ID                                       : 11
Format                                   : UTF-8
Codec ID                                 : S_TEXT/UTF8
Codec ID/Info                            : UTF-8 Plain Text
Duration                                 : 59 min 10 s
Bit rate                                 : 49 b/s
Count of elements                        : 649
Stream size                              : 21.5 KiB (0%)
Title                                    : European
Language                                 : Spanish
Default                                  : No
Forced                                   : No

Subtitle #10
ID                                       : 12
Format                                   : UTF-8
Codec ID                                 : S_TEXT/UTF8
Codec ID/Info                            : UTF-8 Plain Text
Duration                                 : 59 min 18 s
Bit rate                                 : 47 b/s
Count of elements                        : 642
Stream size                              : 20.7 KiB (0%)
Language                                 : Finnish
Default                                  : No
Forced                                   : No

Subtitle #11
ID                                       : 13
Format                                   : UTF-8
Codec ID                                 : S_TEXT/UTF8
Codec ID/Info                            : UTF-8 Plain Text
Duration                                 : 59 min 11 s
Bit rate                                 : 56 b/s
Count of elements                        : 697
Stream size                              : 24.5 KiB (0%)
Language                                 : French
Default                                  : No
Forced                                   : No

Subtitle #12
ID                                       : 14
Format                                   : UTF-8
Codec ID                                 : S_TEXT/UTF8
Codec ID/Info                            : UTF-8 Plain Text
Duration                                 : 59 min 10 s
Bit rate                                 : 87 b/s
Count of elements                        : 721
Stream size                              : 37.8 KiB (0%)
Language                                 : Hebrew
Default                                  : No
Forced                                   : No

Subtitle #13
ID                                       : 15
Format                                   : UTF-8
Codec ID                                 : S_TEXT/UTF8
Codec ID/Info                            : UTF-8 Plain Text
Duration                                 : 59 min 10 s
Bit rate                                 : 49 b/s
Count of elements                        : 676
Stream size                              : 21.6 KiB (0%)
Language                                 : Hungarian
Default                                  : No
Forced                                   : No

Subtitle #14
ID                                       : 16
Format                                   : UTF-8
Codec ID                                 : S_TEXT/UTF8
Codec ID/Info                            : UTF-8 Plain Text
Duration                                 : 59 min 10 s
Bit rate                                 : 55 b/s
Count of elements                        : 714
Stream size                              : 23.9 KiB (0%)
Language                                 : Indonesian
Default                                  : No
Forced                                   : No

Subtitle #15
ID                                       : 17
Format                                   : UTF-8
Codec ID                                 : S_TEXT/UTF8
Codec ID/Info                            : UTF-8 Plain Text
Duration                                 : 59 min 10 s
Bit rate                                 : 48 b/s
Count of elements                        : 639
Stream size                              : 21.1 KiB (0%)
Language                                 : Italian
Default                                  : No
Forced                                   : No

Subtitle #16
ID                                       : 18
Format                                   : UTF-8
Codec ID                                 : S_TEXT/UTF8
Codec ID/Info                            : UTF-8 Plain Text
Duration                                 : 59 min 11 s
Bit rate                                 : 52 b/s
Count of elements                        : 673
Stream size                              : 22.7 KiB (0%)
Language                                 : Japanese
Default                                  : No
Forced                                   : No

Subtitle #17
ID                                       : 19
Format                                   : UTF-8
Codec ID                                 : S_TEXT/UTF8
Codec ID/Info                            : UTF-8 Plain Text
Duration                                 : 59 min 18 s
Bit rate                                 : 66 b/s
Count of elements                        : 731
Stream size                              : 28.7 KiB (0%)
Language                                 : Korean
Default                                  : No
Forced                                   : No

Subtitle #18
ID                                       : 20
Format                                   : UTF-8
Codec ID                                 : S_TEXT/UTF8
Codec ID/Info                            : UTF-8 Plain Text
Duration                                 : 59 min 10 s
Bit rate                                 : 50 b/s
Count of elements                        : 655
Stream size                              : 21.8 KiB (0%)
Language                                 : Norwegian Bokmal
Default                                  : No
Forced                                   : No

Subtitle #19
ID                                       : 21
Format                                   : UTF-8
Codec ID                                 : S_TEXT/UTF8
Codec ID/Info                            : UTF-8 Plain Text
Duration                                 : 59 min 10 s
Bit rate                                 : 49 b/s
Count of elements                        : 624
Stream size                              : 21.6 KiB (0%)
Language                                 : Dutch
Default                                  : No
Forced                                   : No

Subtitle #20
ID                                       : 22
Format                                   : UTF-8
Codec ID                                 : S_TEXT/UTF8
Codec ID/Info                            : UTF-8 Plain Text
Duration                                 : 59 min 18 s
Bit rate                                 : 49 b/s
Count of elements                        : 719
Stream size                              : 21.7 KiB (0%)
Language                                 : Polish
Default                                  : No
Forced                                   : No

Subtitle #21
ID                                       : 23
Format                                   : UTF-8
Codec ID                                 : S_TEXT/UTF8
Codec ID/Info                            : UTF-8 Plain Text
Duration                                 : 59 min 18 s
Bit rate                                 : 52 b/s
Count of elements                        : 680
Stream size                              : 22.9 KiB (0%)
Language                                 : Portuguese
Default                                  : No
Forced                                   : No

Subtitle #22
ID                                       : 24
Format                                   : UTF-8
Codec ID                                 : S_TEXT/UTF8
Codec ID/Info                            : UTF-8 Plain Text
Duration                                 : 59 min 10 s
Bit rate                                 : 53 b/s
Count of elements                        : 691
Stream size                              : 23.3 KiB (0%)
Title                                    : Brazilian
Language                                 : Portuguese
Default                                  : No
Forced                                   : No

Subtitle #23
ID                                       : 25
Format                                   : UTF-8
Codec ID                                 : S_TEXT/UTF8
Codec ID/Info                            : UTF-8 Plain Text
Duration                                 : 57 min 25 s
Bit rate                                 : 57 b/s
Count of elements                        : 640
Stream size                              : 24.3 KiB (0%)
Language                                 : Romanian
Default                                  : No
Forced                                   : No

Subtitle #24
ID                                       : 26
Format                                   : UTF-8
Codec ID                                 : S_TEXT/UTF8
Codec ID/Info                            : UTF-8 Plain Text
Duration                                 : 59 min 18 s
Bit rate                                 : 87 b/s
Count of elements                        : 725
Stream size                              : 38.2 KiB (0%)
Language                                 : Russian
Default                                  : No
Forced                                   : No

Subtitle #25
ID                                       : 27
Format                                   : UTF-8
Codec ID                                 : S_TEXT/UTF8
Codec ID/Info                            : UTF-8 Plain Text
Duration                                 : 59 min 10 s
Bit rate                                 : 52 b/s
Count of elements                        : 700
Stream size                              : 22.9 KiB (0%)
Language                                 : Swedish
Default                                  : No
Forced                                   : No

Subtitle #26
ID                                       : 28
Format                                   : UTF-8
Codec ID                                 : S_TEXT/UTF8
Codec ID/Info                            : UTF-8 Plain Text
Duration                                 : 59 min 17 s
Bit rate                                 : 131 b/s
Count of elements                        : 744
Stream size                              : 57.2 KiB (0%)
Language                                 : Thai
Default                                  : No
Forced                                   : No

Subtitle #27
ID                                       : 29
Format                                   : UTF-8
Codec ID                                 : S_TEXT/UTF8
Codec ID/Info                            : UTF-8 Plain Text
Duration                                 : 59 min 17 s
Bit rate                                 : 52 b/s
Count of elements                        : 627
Stream size                              : 22.9 KiB (0%)
Language                                 : Turkish
Default                                  : No
Forced                                   : No

Subtitle #28
ID                                       : 30
Format                                   : UTF-8
Codec ID                                 : S_TEXT/UTF8
Codec ID/Info                            : UTF-8 Plain Text
Duration                                 : 59 min 18 s
Bit rate                                 : 71 b/s
Count of elements                        : 743
Stream size                              : 30.9 KiB (0%)
Language                                 : Vietnamese
Default                                  : No
Forced                                   : No

Subtitle #29
ID                                       : 31
Format                                   : UTF-8
Codec ID                                 : S_TEXT/UTF8
Codec ID/Info                            : UTF-8 Plain Text
Duration                                 : 59 min 10 s
Bit rate                                 : 57 b/s
Count of elements                        : 748
Stream size                              : 24.9 KiB (0%)
Title                                    : Simplified
Language                                 : Chinese
Default                                  : No
Forced                                   : No

Subtitle #30
ID                                       : 32
Format                                   : UTF-8
Codec ID                                 : S_TEXT/UTF8
Codec ID/Info                            : UTF-8 Plain Text
Duration                                 : 59 min 17 s
Bit rate                                 : 57 b/s
Count of elements                        : 760
Stream size                              : 24.9 KiB (0%)
Title                                    : Traditional
Language                                 : Chinese
Default                                  : No
Forced                                   : No

Screens

Download

Download: Google Drive

Season 3 (2160p)

Ozark (2016) Season 03 S03 (2160p NF WEBRip NVENC HEVC 10bit AAC 5.1 Joy) [UTR]

Files

  • Ozark S03E01 War Time [2160p NV 10bit Joy].mkv (2.0 GB)
  • Ozark S03E02 Civil Union [2160p NV 10bit Joy].mkv (2.1 GB)
  • Ozark S03E03 Kevin Cronin Was Here [2160p NV 10bit Joy].mkv (2.0 GB)
  • Ozark S03E04 Boss Fight [2160p NV 10bit Joy].mkv (1.8 GB)
  • Ozark S03E05 It Came from Michoacán [2160p NV 10bit Joy].mkv (2.1 GB)
  • Ozark S03E06 Su Casa Es Mi Casa [2160p NV 10bit Joy].mkv (2.0 GB)
  • Ozark S03E07 In Case of Emergency [2160p NV 10bit Joy].mkv (2.1 GB)
  • Ozark S03E08 BFF [2160p NV 10bit Joy].mkv (1.9 GB)
  • Ozark S03E09 Fire Pink [2160p NV 10bit Joy].mkv (2.1 GB)
  • Ozark S03E10 All In [2160p NV 10bit Joy].mkv (2.2 GB)

Mediainfo

General
Format                                   : Matroska
Format version                           : Version 4 / Version 2
File size                                : 2.03 GiB
Duration                                 : 1 h 0 min
Overall bit rate                         : 4 787 kb/s
Movie name                               : Ozark S03E01 War Time  [2160p NV 10bit Joy][UTR]
Encoded date                             : UTC 2020-04-02 18:06:26
Writing application                      : mkvmerge v39.0.0 ('In The Waiting Line') 64-bit
Writing library                          : libebml v1.3.9 + libmatroska v1.5.2

Video
ID                                       : 1
Format                                   : HEVC
Format/Info                              : High Efficiency Video Coding
Format profile                           : Main [email protected]@High
Codec ID                                 : V_MPEGH/ISO/HEVC
Duration                                 : 1 h 0 min
Bit rate                                 : 4 540 kb/s
Width                                    : 3 840 pixels
Height                                   : 1 744 pixels
Display aspect ratio                     : 2.2:1
Frame rate mode                          : Constant
Frame rate                               : 23.976 (24000/1001) FPS
Color space                              : YUV
Chroma subsampling                       : 4:2:0
Bit depth                                : 10 bits
Bits/(Pixel*Frame)                       : 0.028
Stream size                              : 1.93 GiB (95%)
Default                                  : Yes
Forced                                   : No
Color range                              : Limited
Matrix coefficients                      : BT.709

Audio
ID                                       : 2
Format                                   : AAC
Format/Info                              : Advanced Audio Codec
Format profile                           : LC
Codec ID                                 : A_AAC
Duration                                 : 1 h 0 min
Bit rate                                 : 242 kb/s
Channel(s)                               : 6 channels
Channel positions                        : Front: L C R, Side: L R, LFE
Sampling rate                            : 48.0 kHz
Frame rate                               : 46.875 FPS (1024 spf)
Compression mode                         : Lossy
Delay relative to video                  : 9 ms
Stream size                              : 105 MiB (5%)
Title                                    : English
Language                                 : English
Default                                  : No
Forced                                   : No

Subtitle #1
ID                                       : 3
Format                                   : UTF-8
Codec ID                                 : S_TEXT/UTF8
Codec ID/Info                            : UTF-8 Plain Text
Duration                                 : 28 s 737 ms
Bit rate                                 : 55 b/s
Count of elements                        : 7
Stream size                              : 200 Bytes (0%)
Title                                    : Forced
Language                                 : English
Default                                  : No
Forced                                   : Yes

Subtitle #2
ID                                       : 4
Format                                   : UTF-8
Codec ID                                 : S_TEXT/UTF8
Codec ID/Info                            : UTF-8 Plain Text
Duration                                 : 57 min 47 s
Bit rate                                 : 69 b/s
Count of elements                        : 827
Stream size                              : 29.3 KiB (0%)
Title                                    : SDH
Language                                 : English
Default                                  : No
Forced                                   : No

Subtitle #3
ID                                       : 5
Format                                   : UTF-8
Codec ID                                 : S_TEXT/UTF8
Codec ID/Info                            : UTF-8 Plain Text
Duration                                 : 59 min 10 s
Bit rate                                 : 95 b/s
Count of elements                        : 739
Stream size                              : 41.3 KiB (0%)
Language                                 : Arabic
Default                                  : No
Forced                                   : No

Subtitle #4
ID                                       : 6
Format                                   : UTF-8
Codec ID                                 : S_TEXT/UTF8
Codec ID/Info                            : UTF-8 Plain Text
Duration                                 : 59 min 18 s
Bit rate                                 : 52 b/s
Count of elements                        : 732
Stream size                              : 23.0 KiB (0%)
Language                                 : Czech
Default                                  : No
Forced                                   : No

Subtitle #5
ID                                       : 7
Format                                   : UTF-8
Codec ID                                 : S_TEXT/UTF8
Codec ID/Info                            : UTF-8 Plain Text
Duration                                 : 59 min 10 s
Bit rate                                 : 48 b/s
Count of elements                        : 626
Stream size                              : 21.1 KiB (0%)
Language                                 : Danish
Default                                  : No
Forced                                   : No

Subtitle #6
ID                                       : 8
Format                                   : UTF-8
Codec ID                                 : S_TEXT/UTF8
Codec ID/Info                            : UTF-8 Plain Text
Duration                                 : 59 min 17 s
Bit rate                                 : 51 b/s
Count of elements                        : 700
Stream size                              : 22.4 KiB (0%)
Language                                 : German
Default                                  : No
Forced                                   : No

Subtitle #7
ID                                       : 9
Format                                   : UTF-8
Codec ID                                 : S_TEXT/UTF8
Codec ID/Info                            : UTF-8 Plain Text
Duration                                 : 59 min 18 s
Bit rate                                 : 87 b/s
Count of elements                        : 740
Stream size                              : 38.1 KiB (0%)
Language                                 : Greek
Default                                  : No
Forced                                   : No

Subtitle #8
ID                                       : 10
Format                                   : UTF-8
Codec ID                                 : S_TEXT/UTF8
Codec ID/Info                            : UTF-8 Plain Text
Duration                                 : 54 min 29 s
Bit rate                                 : 55 b/s
Count of elements                        : 725
Stream size                              : 22.1 KiB (0%)
Language                                 : Spanish
Default                                  : No
Forced                                   : No

Subtitle #9
ID                                       : 11
Format                                   : UTF-8
Codec ID                                 : S_TEXT/UTF8
Codec ID/Info                            : UTF-8 Plain Text
Duration                                 : 59 min 10 s
Bit rate                                 : 49 b/s
Count of elements                        : 649
Stream size                              : 21.5 KiB (0%)
Title                                    : European
Language                                 : Spanish
Default                                  : No
Forced                                   : No

Subtitle #10
ID                                       : 12
Format                                   : UTF-8
Codec ID                                 : S_TEXT/UTF8
Codec ID/Info                            : UTF-8 Plain Text
Duration                                 : 59 min 18 s
Bit rate                                 : 47 b/s
Count of elements                        : 642
Stream size                              : 20.7 KiB (0%)
Language                                 : Finnish
Default                                  : No
Forced                                   : No

Subtitle #11
ID                                       : 13
Format                                   : UTF-8
Codec ID                                 : S_TEXT/UTF8
Codec ID/Info                            : UTF-8 Plain Text
Duration                                 : 59 min 11 s
Bit rate                                 : 56 b/s
Count of elements                        : 697
Stream size                              : 24.5 KiB (0%)
Language                                 : French
Default                                  : No
Forced                                   : No

Subtitle #12
ID                                       : 14
Format                                   : UTF-8
Codec ID                                 : S_TEXT/UTF8
Codec ID/Info                            : UTF-8 Plain Text
Duration                                 : 59 min 10 s
Bit rate                                 : 87 b/s
Count of elements                        : 721
Stream size                              : 37.8 KiB (0%)
Language                                 : Hebrew
Default                                  : No
Forced                                   : No

Subtitle #13
ID                                       : 15
Format                                   : UTF-8
Codec ID                                 : S_TEXT/UTF8
Codec ID/Info                            : UTF-8 Plain Text
Duration                                 : 59 min 10 s
Bit rate                                 : 49 b/s
Count of elements                        : 676
Stream size                              : 21.6 KiB (0%)
Language                                 : Hungarian
Default                                  : No
Forced                                   : No

Subtitle #14
ID                                       : 16
Format                                   : UTF-8
Codec ID                                 : S_TEXT/UTF8
Codec ID/Info                            : UTF-8 Plain Text
Duration                                 : 59 min 10 s
Bit rate                                 : 55 b/s
Count of elements                        : 714
Stream size                              : 23.9 KiB (0%)
Language                                 : Indonesian
Default                                  : No
Forced                                   : No

Subtitle #15
ID                                       : 17
Format                                   : UTF-8
Codec ID                                 : S_TEXT/UTF8
Codec ID/Info                            : UTF-8 Plain Text
Duration                                 : 59 min 10 s
Bit rate                                 : 48 b/s
Count of elements                        : 639
Stream size                              : 21.1 KiB (0%)
Language                                 : Italian
Default                                  : No
Forced                                   : No

Subtitle #16
ID                                       : 18
Format                                   : UTF-8
Codec ID                                 : S_TEXT/UTF8
Codec ID/Info                            : UTF-8 Plain Text
Duration                                 : 59 min 11 s
Bit rate                                 : 52 b/s
Count of elements                        : 673
Stream size                              : 22.7 KiB (0%)
Language                                 : Japanese
Default                                  : No
Forced                                   : No

Subtitle #17
ID                                       : 19
Format                                   : UTF-8
Codec ID                                 : S_TEXT/UTF8
Codec ID/Info                            : UTF-8 Plain Text
Duration                                 : 59 min 18 s
Bit rate                                 : 66 b/s
Count of elements                        : 731
Stream size                              : 28.7 KiB (0%)
Language                                 : Korean
Default                                  : No
Forced                                   : No

Subtitle #18
ID                                       : 20
Format                                   : UTF-8
Codec ID                                 : S_TEXT/UTF8
Codec ID/Info                            : UTF-8 Plain Text
Duration                                 : 59 min 10 s
Bit rate                                 : 50 b/s
Count of elements                        : 655
Stream size                              : 21.8 KiB (0%)
Language                                 : Norwegian Bokmal
Default                                  : No
Forced                                   : No

Subtitle #19
ID                                       : 21
Format                                   : UTF-8
Codec ID                                 : S_TEXT/UTF8
Codec ID/Info                            : UTF-8 Plain Text
Duration                                 : 59 min 10 s
Bit rate                                 : 49 b/s
Count of elements                        : 624
Stream size                              : 21.6 KiB (0%)
Language                                 : Dutch
Default                                  : No
Forced                                   : No

Subtitle #20
ID                                       : 22
Format                                   : UTF-8
Codec ID                                 : S_TEXT/UTF8
Codec ID/Info                            : UTF-8 Plain Text
Duration                                 : 59 min 18 s
Bit rate                                 : 49 b/s
Count of elements                        : 719
Stream size                              : 21.7 KiB (0%)
Language                                 : Polish
Default                                  : No
Forced                                   : No

Subtitle #21
ID                                       : 23
Format                                   : UTF-8
Codec ID                                 : S_TEXT/UTF8
Codec ID/Info                            : UTF-8 Plain Text
Duration                                 : 59 min 18 s
Bit rate                                 : 52 b/s
Count of elements                        : 680
Stream size                              : 22.9 KiB (0%)
Language                                 : Portuguese
Default                                  : No
Forced                                   : No

Subtitle #22
ID                                       : 24
Format                                   : UTF-8
Codec ID                                 : S_TEXT/UTF8
Codec ID/Info                            : UTF-8 Plain Text
Duration                                 : 59 min 10 s
Bit rate                                 : 53 b/s
Count of elements                        : 691
Stream size                              : 23.3 KiB (0%)
Title                                    : Brazilian
Language                                 : Portuguese
Default                                  : No
Forced                                   : No

Subtitle #23
ID                                       : 25
Format                                   : UTF-8
Codec ID                                 : S_TEXT/UTF8
Codec ID/Info                            : UTF-8 Plain Text
Duration                                 : 57 min 25 s
Bit rate                                 : 57 b/s
Count of elements                        : 640
Stream size                              : 24.3 KiB (0%)
Language                                 : Romanian
Default                                  : No
Forced                                   : No

Subtitle #24
ID                                       : 26
Format                                   : UTF-8
Codec ID                                 : S_TEXT/UTF8
Codec ID/Info                            : UTF-8 Plain Text
Duration                                 : 59 min 18 s
Bit rate                                 : 87 b/s
Count of elements                        : 725
Stream size                              : 38.2 KiB (0%)
Language                                 : Russian
Default                                  : No
Forced                                   : No

Subtitle #25
ID                                       : 27
Format                                   : UTF-8
Codec ID                                 : S_TEXT/UTF8
Codec ID/Info                            : UTF-8 Plain Text
Duration                                 : 59 min 10 s
Bit rate                                 : 52 b/s
Count of elements                        : 700
Stream size                              : 22.9 KiB (0%)
Language                                 : Swedish
Default                                  : No
Forced                                   : No

Subtitle #26
ID                                       : 28
Format                                   : UTF-8
Codec ID                                 : S_TEXT/UTF8
Codec ID/Info                            : UTF-8 Plain Text
Duration                                 : 59 min 17 s
Bit rate                                 : 131 b/s
Count of elements                        : 744
Stream size                              : 57.2 KiB (0%)
Language                                 : Thai
Default                                  : No
Forced                                   : No

Subtitle #27
ID                                       : 29
Format                                   : UTF-8
Codec ID                                 : S_TEXT/UTF8
Codec ID/Info                            : UTF-8 Plain Text
Duration                                 : 59 min 17 s
Bit rate                                 : 52 b/s
Count of elements                        : 627
Stream size                              : 22.9 KiB (0%)
Language                                 : Turkish
Default                                  : No
Forced                                   : No

Subtitle #28
ID                                       : 30
Format                                   : UTF-8
Codec ID                                 : S_TEXT/UTF8
Codec ID/Info                            : UTF-8 Plain Text
Duration                                 : 59 min 18 s
Bit rate                                 : 71 b/s
Count of elements                        : 743
Stream size                              : 30.9 KiB (0%)
Language                                 : Vietnamese
Default                                  : No
Forced                                   : No

Subtitle #29
ID                                       : 31
Format                                   : UTF-8
Codec ID                                 : S_TEXT/UTF8
Codec ID/Info                            : UTF-8 Plain Text
Duration                                 : 59 min 10 s
Bit rate                                 : 57 b/s
Count of elements                        : 748
Stream size                              : 24.9 KiB (0%)
Title                                    : Simplified
Language                                 : Chinese
Default                                  : No
Forced                                   : No

Subtitle #30
ID                                       : 32
Format                                   : UTF-8
Codec ID                                 : S_TEXT/UTF8
Codec ID/Info                            : UTF-8 Plain Text
Duration                                 : 59 min 17 s
Bit rate                                 : 57 b/s
Count of elements                        : 760
Stream size                              : 24.9 KiB (0%)
Title                                    : Traditional
Language                                 : Chinese
Default                                  : No
Forced                                   : No

Screens

Download

Download: Google Drive

1 thought on “Ozark (2016) Season 1-3 (1080p + 2160p NF WEBRip x265 HEVC 10bit AAC 5.1 Joy)

Leave a Reply