Narcos (2015) Season 1-3 (1080p BluRay x265 HEVC 10bit AAC 5.1 Vyndros)

Season 01

Files

Narcos (2015) Season 1 S01 (1080p BluRay x265 HEVC 10bit AAC 5.1 Vyndros)
Narcos.S01E01.Descenso.1080p.10bit.BluRay.AAC5.1.HEVC-Vyndros.mkv (1.5 GB)
Narcos.S01E02.The.Sword.of.Simón.Bolívar.1080p.10bit.BluRay.AAC5.1.HEVC-Vyndros.mkv (1.1 GB)
Narcos.S01E03.The.Men.of.Always.1080p.10bit.BluRay.AAC5.1.HEVC-Vyndros.mkv (1.2 GB)
Narcos.S01E04.The.Palace.in.Flames.1080p.10bit.BluRay.AAC5.1.HEVC-Vyndros.mkv (1.1 GB)
Narcos.S01E05.There.Will.Be.a.Future.1080p.10bit.BluRay.AAC5.1.HEVC-Vyndros.mkv (1.2 GB)
Narcos.S01E06.Explosivos.1080p.10bit.BluRay.AAC5.1.HEVC-Vyndros.mkv (1.4 GB)
Narcos.S01E07.You.Will.Cry.Tears.of.Blood.1080p.10bit.BluRay.AAC5.1.HEVC-Vyndros.mkv (1.3 GB)
Narcos.S01E08.La.Gran.Mentira.1080p.10bit.BluRay.AAC5.1.HEVC-Vyndros.mkv (1.1 GB)
Narcos.S01E09.La.Catedral.1080p.10bit.BluRay.AAC5.1.HEVC-Vyndros.mkv (1.5 GB)
Narcos.S01E10.Despegue.1080p.10bit.BluRay.AAC5.1.HEVC-Vyndros.mkv (918.5 MB)

Mediainfo

General 
Format : Matroska 
Format version : Version 4 / Version 2 
File size : 1.19 GiB 
Duration : 46 min 11 s 
Overall bit rate : 3 697 kb/s 
Movie name : Narcos.S01E03.1080p.Blu-Ray.REMUX.AVC.DTS-HD.MA.5.1-HDArea 
Encoded date : UTC 2018-05-19 03:15:37 
Writing application : mkvmerge v20.0.0 ('I Am The Sun') 64-bit 
Writing library : libebml v1.3.5 + libmatroska v1.4.8 
Writing frontend : StaxRip v1.7.0.6 

Video 
ID : 1 
Format : HEVC 
Format/Info : High Efficiency Video Coding 
Format profile : Main [email protected]@Main 
Codec ID : V_MPEGH/ISO/HEVC 
Duration : 46 min 11 s 
Bit rate : 3 216 kb/s 
Width : 1 920 pixels 
Height : 1 080 pixels 
Display aspect ratio : 16:9 
Frame rate mode : Constant 
Frame rate : 23.976 (24000/1001) FPS 
Color space : YUV 
Chroma subsampling : 4:2:0 
Bit depth : 10 bits 
Bits/(Pixel*Frame) : 0.065 
Stream size : 1.04 GiB (87%) 
Writing library : x265 2.7+346-69aafa6d70ad:[Windows][GCC 7.3.0][64 bit] 10bit 
Encoding settings : cpuid=1111039 / frame-threads=2 / numa-pools=4 / wpp / no-pmode / no-pme / no-psnr / ssim / log-level=2 / input-csp=1 / input-res=1920x1080 / interlace=0 / total-frames=66458 / level-idc=0 / high-tier=1 / uhd-bd=0 / ref=3 / no-allow-non-conformance / no-repeat-headers / annexb / no-aud / no-hrd / info / hash=0 / no-temporal-layers / open-gop / min-keyint=23 / keyint=250 / gop-lookahead=0 / bframes=8 / b-adapt=2 / b-pyramid / bframe-bias=0 / rc-lookahead=50 / lookahead-slices=6 / scenecut=40 / radl=0 / no-intra-refresh / ctu=64 / min-cu-size=8 / no-rect / no-amp / max-tu-size=32 / tu-inter-depth=1 / tu-intra-depth=1 / limit-tu=0 / rdoq-level=0 / dynamic-rd=0.00 / no-ssim-rd / signhide / no-tskip / nr-intra=0 / nr-inter=0 / no-constrained-intra / no-strong-intra-smoothing / max-merge=3 / limit-refs=3 / no-limit-modes / me=3 / subme=3 / merange=57 / temporal-mvp / weightp / no-weightb / no-analyze-src-pics / deblock=0:0 / sao / no-sao-non-deblock / rd=3 / no-early-skip / no-rskip / no-fast-intra / no-tskip-fast / no-cu-lossless / no-b-intra / no-splitrd-skip / rdpenalty=0 / psy-rd=2.00 / psy-rdoq=0.00 / no-rd-refine / no-lossless / cbqpoffs=0 / crqpoffs=0 / rc=crf / crf=20.0 / qcomp=0.60 / qpstep=4 / stats-write=0 / stats-read=0 / ipratio=1.40 / pbratio=1.30 / aq-mode=3 / aq-strength=1.00 / cutree / zone-count=0 / no-strict-cbr / qg-size=32 / no-rc-grain / qpmax=69 / qpmin=0 / no-const-vbv / sar=0 / overscan=0 / videoformat=5 / range=0 / colorprim=2 / transfer=2 / colormatrix=2 / chromaloc=0 / display-window=0 / max-cll=0,0 / min-luma=0 / max-luma=1023 / log2-max-poc-lsb=8 / vui-timing-info / vui-hrd-info / slices=1 / no-opt-qp-pps / no-opt-ref-list-length-pps / no-multi-pass-opt-rps / scenecut-bias=0.05 / no-opt-cu-delta-qp / no-aq-motion / no-hdr / no-hdr-opt / no-dhdr10-opt / no-idr-recovery-sei / analysis-reuse-level=5 / scale-factor=0 / refine-intra=0 / refine-inter=0 / refine-mv=0 / no-limit-sao / ctu-info=0 / no-lowpass-dct / refine-mv-type=0 / copy-pic=1 / max-ausize-factor=1.0 / no-dynamic-refine / no-single-sei 
Default : Yes 
Forced : No 

Audio 
ID : 2 
Format : AAC 
Format/Info : Advanced Audio Codec 
Format profile : LC 
Codec ID : A_AAC 
Duration : 46 min 11 s 
Bit rate : 446 kb/s 
Channel(s) : 6 channels 
Channel positions : Front: L C R, Side: L R, LFE 
Sampling rate : 48.0 kHz 
Frame rate : 46.875 FPS (1024 spf) 
Compression mode : Lossy 
Stream size : 148 MiB (12%) 
Language : English 
Default : Yes 
Forced : No 

Subtitle #1 
ID : 3 
Format : PGS 
Muxing mode : zlib 
Codec ID : S_HDMV/PGS 
Codec ID/Info : Picture based subtitle format used on BDs/HD-DVDs 
Duration : 44 min 55 s 
Bit rate : 52.6 kb/s 
Count of elements : 1366 
Stream size : 16.9 MiB (1%) 
Language : English 
Default : No 
Forced : No 

Subtitle #2 
ID : 4 
Format : PGS 
Muxing mode : zlib 
Codec ID : S_HDMV/PGS 
Codec ID/Info : Picture based subtitle format used on BDs/HD-DVDs 
Duration : 41 min 15 s 
Bit rate : 29.7 kb/s 
Count of elements : 766 
Stream size : 8.75 MiB (1%) 
Language : English 
Default : No 
Forced : No

Download

Download: Google Drive (12.36 GB)

Season 02

Files

Narcos (2015) Season 2 S02 (1080p BluRay x265 HEVC 10bit AAC 5.1 Vyndros)
Narcos.S02E01.Free.at.Last.1080p.10bit.BluRay.AAC5.1.HEVC-Vyndros.mkv (1.5 GB)
Narcos.S02E02.Cambalache.1080p.10bit.BluRay.AAC5.1.HEVC-Vyndros.mkv (1.2 GB)
Narcos.S02E03.Our.Man.in.Madrid.1080p.10bit.BluRay.AAC5.1.HEVC-Vyndros.mkv (1.3 GB)
Narcos.S02E04.The.Good,.The.Bad.and.The.Dead.1080p.10bit.BluRay.AAC5.1.HEVC-Vyndros.mkv (1.5 GB)
Narcos.S02E05.The.Enemies.of.My.Enemy.1080p.10bit.BluRay.AAC5.1.HEVC-Vyndros.mkv (1.4 GB)
Narcos.S02E06.Los.Pepes.1080p.10bit.BluRay.AAC5.1.HEVC-Vyndros.mkv (1.3 GB)
Narcos.S02E07.Deutschland.93.1080p.10bit.BluRay.AAC5.1.HEVC-Vyndros.mkv (1.4 GB)
Narcos.S02E08.Exit.El.Patrón.1080p.10bit.BluRay.AAC5.1.HEVC-Vyndros.mkv (1.3 GB)
Narcos.S02E09.Nuestra.Finca.1080p.10bit.BluRay.AAC5.1.HEVC-Vyndros.mkv (1.3 GB)
Narcos.S02E10.Al.Fin.Cayó!.1080p.10bit.BluRay.AAC5.1.HEVC-Vyndros.mkv (1.3 GB)

Mediainfo

General 
Format : Matroska 
Format version : Version 4 / Version 2 
File size : 1.35 GiB 
Duration : 56 min 2 s 
Overall bit rate : 3 451 kb/s 
Encoded date : UTC 2018-05-24 23:50:49 
Writing application : mkvmerge v20.0.0 ('I Am The Sun') 64-bit 
Writing library : libebml v1.3.5 + libmatroska v1.4.8 
Writing frontend : StaxRip v1.7.0.6 

Video 
ID : 1 
Format : HEVC 
Format/Info : High Efficiency Video Coding 
Format profile : Main [email protected]@Main 
Codec ID : V_MPEGH/ISO/HEVC 
Duration : 56 min 2 s 
Bit rate : 2 981 kb/s 
Width : 1 920 pixels 
Height : 1 080 pixels 
Display aspect ratio : 16:9 
Frame rate mode : Constant 
Frame rate : 23.976 (24000/1001) FPS 
Color space : YUV 
Chroma subsampling : 4:2:0 
Bit depth : 10 bits 
Bits/(Pixel*Frame) : 0.060 
Stream size : 1.17 GiB (86%) 
Writing library : x265 2.7+346-69aafa6d70ad:[Windows][GCC 7.3.0][64 bit] 10bit 
Encoding settings : cpuid=1111039 / frame-threads=2 / numa-pools=4 / wpp / no-pmode / no-pme / no-psnr / ssim / log-level=2 / input-csp=1 / input-res=1920x1080 / interlace=0 / total-frames=80627 / level-idc=0 / high-tier=1 / uhd-bd=0 / ref=3 / no-allow-non-conformance / no-repeat-headers / annexb / no-aud / no-hrd / info / hash=0 / no-temporal-layers / open-gop / min-keyint=23 / keyint=250 / gop-lookahead=0 / bframes=8 / b-adapt=2 / b-pyramid / bframe-bias=0 / rc-lookahead=50 / lookahead-slices=6 / scenecut=40 / radl=0 / no-intra-refresh / ctu=64 / min-cu-size=8 / no-rect / no-amp / max-tu-size=32 / tu-inter-depth=1 / tu-intra-depth=1 / limit-tu=0 / rdoq-level=0 / dynamic-rd=0.00 / no-ssim-rd / signhide / no-tskip / nr-intra=0 / nr-inter=0 / no-constrained-intra / no-strong-intra-smoothing / max-merge=3 / limit-refs=3 / no-limit-modes / me=3 / subme=3 / merange=57 / temporal-mvp / weightp / no-weightb / no-analyze-src-pics / deblock=0:0 / sao / no-sao-non-deblock / rd=3 / no-early-skip / no-rskip / no-fast-intra / no-tskip-fast / no-cu-lossless / no-b-intra / no-splitrd-skip / rdpenalty=0 / psy-rd=2.00 / psy-rdoq=0.00 / no-rd-refine / no-lossless / cbqpoffs=0 / crqpoffs=0 / rc=crf / crf=20.0 / qcomp=0.60 / qpstep=4 / stats-write=0 / stats-read=0 / ipratio=1.40 / pbratio=1.30 / aq-mode=3 / aq-strength=1.00 / cutree / zone-count=0 / no-strict-cbr / qg-size=32 / no-rc-grain / qpmax=69 / qpmin=0 / no-const-vbv / sar=0 / overscan=0 / videoformat=5 / range=0 / colorprim=2 / transfer=2 / colormatrix=2 / chromaloc=0 / display-window=0 / max-cll=0,0 / min-luma=0 / max-luma=1023 / log2-max-poc-lsb=8 / vui-timing-info / vui-hrd-info / slices=1 / no-opt-qp-pps / no-opt-ref-list-length-pps / no-multi-pass-opt-rps / scenecut-bias=0.05 / no-opt-cu-delta-qp / no-aq-motion / no-hdr / no-hdr-opt / no-dhdr10-opt / no-idr-recovery-sei / analysis-reuse-level=5 / scale-factor=0 / refine-intra=0 / refine-inter=0 / refine-mv=0 / no-limit-sao / ctu-info=0 / no-lowpass-dct / refine-mv-type=0 / copy-pic=1 / max-ausize-factor=1.0 / no-dynamic-refine / no-single-sei 
Default : Yes 
Forced : No 

Audio 
ID : 2 
Format : AAC 
Format/Info : Advanced Audio Codec 
Format profile : LC 
Codec ID : A_AAC 
Duration : 56 min 2 s 
Bit rate : 440 kb/s 
Channel(s) : 6 channels 
Channel positions : Front: L C R, Side: L R, LFE 
Sampling rate : 48.0 kHz 
Frame rate : 46.875 FPS (1024 spf) 
Compression mode : Lossy 
Stream size : 177 MiB (13%) 
Language : English 
Default : Yes 
Forced : No 

Subtitle #1 
ID : 3 
Format : PGS 
Muxing mode : zlib 
Codec ID : S_HDMV/PGS 
Codec ID/Info : Picture based subtitle format used on BDs/HD-DVDs 
Duration : 54 min 26 s 
Bit rate : 41.1 kb/s 
Count of elements : 1186 
Stream size : 16.0 MiB (1%) 
Language : English 
Default : No 
Forced : No 

Subtitle #2 
ID : 4 
Format : PGS 
Muxing mode : zlib 
Codec ID : S_HDMV/PGS 
Codec ID/Info : Picture based subtitle format used on BDs/HD-DVDs 
Duration : 54 min 11 s 
Bit rate : 23.8 kb/s 
Count of elements : 706 
Stream size : 9.23 MiB (1%) 
Language : English 
Default : No 
Forced : No

Download

Download: Google Drive (13.32 GB)

Season 03

Files

Narcos (2015) Season 3 S03 (1080p BluRay x265 HEVC 10bit AAC 5.1 Vyndros)
Narcos.S03E01.The.Kingpin.Strategy.1080p.10bit.BluRay.AAC5.1.HEVC-Vyndros.mkv (1.2 GB)
Narcos.S03E02.The.Cali.KGB.1080p.10bit.BluRay.AAC5.1.HEVC-Vyndros.mkv (1.1 GB)
Narcos.S03E03.Follow.the.Money.1080p.10bit.BluRay.AAC5.1.HEVC-Vyndros.mkv (1.5 GB)
Narcos.S03E04.Checkmate.1080p.10bit.BluRay.AAC5.1.HEVC-Vyndros.mkv (1.2 GB)
Narcos.S03E05.MRO.1080p.10bit.BluRay.AAC5.1.HEVC-Vyndros.mkv (1.2 GB)
Narcos.S03E06.Best.Laid.Plans.1080p.10bit.BluRay.AAC5.1.HEVC-Vyndros.mkv (1.3 GB)
Narcos.S03E07.Sin.Salida.1080p.10bit.BluRay.AAC5.1.HEVC-Vyndros.mkv (1.2 GB)
Narcos.S03E08.Convivir.1080p.10bit.BluRay.AAC5.1.HEVC-Vyndros.mkv (1.1 GB)
Narcos.S03E09.Todos.Los.Hombres.del.Presidente.1080p.10bit.BluRay.AAC5.1.HEVC-Vyndros.mkv (1.1 GB)
Narcos.S03E10.Going.Back.to.Cali.1080p.10bit.BluRay.AAC5.1.HEVC-Vyndros.mkv (1.2 GB)

Mediainfo

General 
Format : Matroska 
Format version : Version 4 / Version 2 
File size : 1.16 GiB 
Duration : 50 min 41 s 
Overall bit rate : 3 268 kb/s 
Encoded date : UTC 2018-09-03 10:38:08 
Writing application : mkvmerge v20.0.0 ('I Am The Sun') 64-bit 
Writing library : libebml v1.3.5 + libmatroska v1.4.8 
Writing frontend : StaxRip v1.7.0.6 

Video 
ID : 1 
Format : HEVC 
Format/Info : High Efficiency Video Coding 
Format profile : Main [email protected]@Main 
Codec ID : V_MPEGH/ISO/HEVC 
Duration : 50 min 41 s 
Bit rate : 2 803 kb/s 
Width : 1 920 pixels 
Height : 1 080 pixels 
Display aspect ratio : 16:9 
Frame rate mode : Constant 
Frame rate : 23.976 (24000/1001) FPS 
Color space : YUV 
Chroma subsampling : 4:2:0 
Bit depth : 10 bits 
Bits/(Pixel*Frame) : 0.056 
Stream size : 1 016 MiB (86%) 
Writing library : x265 2.8+57-eea92165b035:[Windows][GCC 7.3.0][64 bit] 10bit 
Encoding settings : cpuid=1111039 / frame-threads=3 / numa-pools=12 / wpp / no-pmode / no-pme / no-psnr / ssim / log-level=2 / input-csp=1 / input-res=1920x1080 / interlace=0 / total-frames=72912 / level-idc=0 / high-tier=1 / uhd-bd=0 / ref=3 / no-allow-non-conformance / no-repeat-headers / annexb / no-aud / no-hrd / info / hash=0 / no-temporal-layers / open-gop / min-keyint=23 / keyint=250 / gop-lookahead=0 / bframes=8 / b-adapt=2 / b-pyramid / bframe-bias=0 / rc-lookahead=50 / lookahead-slices=6 / scenecut=40 / radl=0 / no-intra-refresh / ctu=64 / min-cu-size=8 / no-rect / no-amp / max-tu-size=32 / tu-inter-depth=1 / tu-intra-depth=1 / limit-tu=0 / rdoq-level=0 / dynamic-rd=0.00 / no-ssim-rd / signhide / no-tskip / nr-intra=0 / nr-inter=0 / no-constrained-intra / no-strong-intra-smoothing / max-merge=3 / limit-refs=3 / no-limit-modes / me=3 / subme=5 / merange=57 / temporal-mvp / weightp / no-weightb / no-analyze-src-pics / deblock=0:0 / sao / no-sao-non-deblock / rd=3 / no-early-skip / no-rskip / no-fast-intra / no-tskip-fast / no-cu-lossless / no-b-intra / no-splitrd-skip / rdpenalty=0 / psy-rd=2.00 / psy-rdoq=0.00 / no-rd-refine / no-lossless / cbqpoffs=0 / crqpoffs=0 / rc=crf / crf=20.0 / qcomp=0.60 / qpstep=4 / stats-write=0 / stats-read=0 / ipratio=1.40 / pbratio=1.30 / aq-mode=3 / aq-strength=1.00 / cutree / zone-count=0 / no-strict-cbr / qg-size=32 / no-rc-grain / qpmax=69 / qpmin=0 / no-const-vbv / sar=0 / overscan=0 / videoformat=5 / range=0 / colorprim=2 / transfer=2 / colormatrix=2 / chromaloc=0 / display-window=0 / max-cll=0,0 / min-luma=0 / max-luma=1023 / log2-max-poc-lsb=8 / vui-timing-info / vui-hrd-info / slices=1 / no-opt-qp-pps / no-opt-ref-list-length-pps / no-multi-pass-opt-rps / scenecut-bias=0.05 / no-opt-cu-delta-qp / no-aq-motion / no-hdr / no-hdr-opt / no-dhdr10-opt / no-idr-recovery-sei / analysis-reuse-level=5 / scale-factor=0 / refine-intra=0 / refine-inter=0 / refine-mv=0 / no-limit-sao / ctu-info=0 / no-lowpass-dct / refine-mv-type=0 / copy-pic=1 / max-ausize-factor=1.0 / no-dynamic-refine / no-single-sei 
Default : Yes 
Forced : No 

Audio 
ID : 2 
Format : AAC 
Format/Info : Advanced Audio Codec 
Format profile : LC 
Codec ID : A_AAC 
Duration : 50 min 41 s 
Bit rate : 448 kb/s 
Channel(s) : 6 channels 
Channel positions : Front: L C R, Side: L R, LFE 
Sampling rate : 48.0 kHz 
Frame rate : 46.875 FPS (1024 spf) 
Compression mode : Lossy 
Stream size : 162 MiB (14%) 
Language : English 
Default : Yes 
Forced : Yes 

Subtitle 
ID : 3 
Format : PGS 
Muxing mode : zlib 
Codec ID : S_HDMV/PGS 
Codec ID/Info : Picture based subtitle format used on BDs/HD-DVDs 
Duration : 47 min 9 s 
Bit rate : 22.9 kb/s 
Count of elements : 622 
Stream size : 7.72 MiB (1%) 
Language : English 
Default : No 
Forced : No

Download

Download: Google Drive (11.95 GB)

2 thoughts on “Narcos (2015) Season 1-3 (1080p BluRay x265 HEVC 10bit AAC 5.1 Vyndros)

  1. Please upload Narcos Mexico (2018) Season 1 & Season 2 1080p 10bit ..

    Narcos Mexico (2018) Season 1 S01 (1080p BluRay x265 HEVC 10bit AAC 5.1 Vyndros) 16GB

    AND

    Season 2 in BluRay or WEB-DL 1080p 10bit available..

    P.S. NO PSA’s releases

Leave a Reply