Mr. Robot (2015) Season 1-4 + Extras (1080p BluRay x265 HEVC 10bit AAC 5.1 QxR)

Plot: “Mr. Robot” follows Elliot (Rami Malek), a young programmer who works as a cyber-security engineer by day and a vigilante hacker by night. Elliot finds himself at a crossroads when the mysterious leader (Christian Slater) of an underground hacker group recruits him to destroy the corporation he is paid to protect.

Season 01

Mr. Robot (2015) Season 1 S01 + Extras (1080p BluRay x265 HEVC 10bit AAC 5.1 RCVR)

Files

Mr. Robot (2015) Season 1 S01 + Extras (1080p BluRay x265 HEVC 10bit AAC 5.1 RCVR)
Mr. Robot (2015) - S01E01 - eps1.0_hellofriend.mov (1080p BluRay x265 RCVR).mkv (2.8 GB)
Mr. Robot (2015) - S01E02 - eps1.1_ones-and-zer0es.mpeg (1080p BluRay x265 RCVR).mkv (1.5 GB)
Mr. Robot (2015) - S01E03 - eps1.2_d3bug.mkv (1080p BluRay x265 RCVR).mkv (1.1 GB)
Mr. Robot (2015) - S01E04 - eps1.3_da3m0ns.mp4 (1080p BluRay x265 RCVR).mkv (1.4 GB)
Mr. Robot (2015) - S01E05 - eps1.4_3xpl0its.wmv (1080p BluRay x265 RCVR).mkv (1.1 GB)
Mr. Robot (2015) - S01E06 - eps1.5_br4ve-trave1er.asf (1080p BluRay x265 RCVR).mkv (1.1 GB)
Mr. Robot (2015) - S01E07 - eps1.6_v1ew-s0urce.flv (1080p BluRay x265 RCVR).mkv (1.3 GB)
Mr. Robot (2015) - S01E08 - eps1.7_wh1ter0se.m4v (1080p BluRay x265 RCVR).mkv (1.3 GB)
Mr. Robot (2015) - S01E09 - eps1.8_m1rr0r1ng.qt (1080p BluRay x265 RCVR).mkv (1.3 GB)
Mr. Robot (2015) - S01E10 - eps1.9_zer0-day.avi (1080p BluRay x265 RCVR).mkv (1.9 GB)

Mediainfo

General 
Format : Matroska 
Format version : Version 4 / Version 2 
File size : 2.83 GiB 
Duration : 1 h 4 min 
Overall bit rate : 6 244 kb/s 
Movie name : Mr. Robot: Season One (Disc 1) 
Encoded date : UTC 2018-01-08 05:05:13 
Writing application : mkvmerge v12.0.0 ('Trust / Lust') 64bit 
Writing library : libebml v1.3.4 + libmatroska v1.4.5 
Cover : Yes 
Attachments : cover.jpg 

Video 
ID : 1 
Format : HEVC 
Format/Info : High Efficiency Video Coding 
Format profile : Main [email protected]@Main 
Codec ID : V_MPEGH/ISO/HEVC 
Duration : 1 h 4 min 
Bit rate : 5 790 kb/s 
Width : 1 920 pixels 
Height : 1 080 pixels 
Display aspect ratio : 16:9 
Frame rate mode : Constant 
Frame rate : 23.976 (24000/1001) FPS 
Color space : YUV 
Chroma subsampling : 4:2:0 
Bit depth : 10 bits 
Bits/(Pixel*Frame) : 0.116 
Stream size : 2.63 GiB (93%) 
Writing library : x265 2.6+24-69cfe46e8a3b:[Windows][MSVC 1900][64 bit] 10bit 
Encoding settings : cpuid=1173503 / frame-threads=3 / numa-pools=8 / wpp / no-pmode / no-pme / no-psnr / no-ssim / log-level=2 / input-csp=1 / input-res=1920x1080 / interlace=0 / total-frames=93404 / level-idc=0 / high-tier=1 / uhd-bd=0 / ref=5 / no-allow-non-conformance / no-repeat-headers / annexb / no-aud / no-hrd / info / hash=0 / no-temporal-layers / open-gop / min-keyint=23 / keyint=250 / gop-lookahead=0 / bframes=8 / b-adapt=2 / b-pyramid / bframe-bias=0 / rc-lookahead=120 / lookahead-slices=4 / scenecut=40 / radl=0 / no-intra-refresh / ctu=64 / min-cu-size=8 / rect / no-amp / max-tu-size=32 / tu-inter-depth=1 / tu-intra-depth=1 / limit-tu=0 / rdoq-level=2 / dynamic-rd=0.00 / no-ssim-rd / signhide / no-tskip / nr-intra=0 / nr-inter=0 / no-constrained-intra / strong-intra-smoothing / max-merge=4 / limit-refs=3 / limit-modes / me=3 / subme=5 / merange=57 / temporal-mvp / weightp / weightb / no-analyze-src-pics / deblock=-3:-3 / no-sao / no-sao-non-deblock / rd=4 / no-early-skip / no-rskip / no-fast-intra / no-tskip-fast / no-cu-lossless / no-b-intra / no-splitrd-skip / rdpenalty=0 / psy-rd=2.00 / psy-rdoq=4.00 / no-rd-refine / no-lossless / cbqpoffs=0 / crqpoffs=0 / rc=crf / crf=18.0 / qcomp=0.60 / qpstep=4 / stats-write=0 / stats-read=0 / ipratio=1.40 / pbratio=1.30 / aq-mode=3 / aq-strength=0.80 / cutree / zone-count=0 / no-strict-cbr / qg-size=32 / no-rc-grain / qpmax=69 / qpmin=0 / no-const-vbv / sar=0 / overscan=0 / videoformat=5 / range=0 / colorprim=2 / transfer=2 / colormatrix=2 / chromaloc=0 / display-window=0 / max-cll=0,0 / min-luma=0 / max-luma=1023 / log2-max-poc-lsb=8 / vui-timing-info / vui-hrd-info / slices=1 / no-opt-qp-pps / no-opt-ref-list-length-pps / no-multi-pass-opt-rps / scenecut-bias=0.05 / no-opt-cu-delta-qp / no-aq-motion / no-hdr / no-hdr-opt / no-dhdr10-opt / analysis-save=(null) / analysis-load=(null) / analysis-reuse-level=5 / scale-factor=0 / refine-intra=0 / refine-inter=0 / refine-mv=0 / no-limit-sao / ctu-info=0 / no-lowpass-dct / refine-mv-type=0 / copy-pic=1 
Default : Yes 
Forced : No 

Audio 
ID : 2 
Format : AAC 
Format/Info : Advanced Audio Codec 
Format profile : LC 
Codec ID : A_AAC 
Duration : 1 h 4 min 
Bit rate : 436 kb/s 
Channel(s) : 6 channels 
Channel positions : Front: L C R, Side: L R, LFE 
Sampling rate : 48.0 kHz 
Frame rate : 46.875 FPS (1024 spf) 
Compression mode : Lossy 
Delay relative to video : 20 ms 
Stream size : 202 MiB (7%) 
Language : English 
Default : Yes 
Forced : No 

Subtitle 
ID : 3 
Format : PGS 
Muxing mode : zlib 
Codec ID : S_HDMV/PGS 
Codec ID/Info : Picture based subtitle format used on BDs/HD-DVDs 
Duration : 1 h 4 min 
Bit rate : 14.5 kb/s 
Count of elements : 2028 
Stream size : 6.69 MiB (0%) 
Language : English 
Default : No 
Forced : No 

Menu 
00:00:00.000 : en:Chapter 01 
00:06:35.561 : en:Chapter 02 
00:31:28.636 : en:Chapter 03 
00:43:58.844 : en:Chapter 04

Screencaps

Download

Download: Google Drive

Featurettes: Google Drive

Season 02

Mr. Robot (2015) Season 2 S02 + Extras (1080p BluRay x265 HEVC 10bit AAC 5.1 RCVR)

Files

Mr. Robot (2015) Season 2 S02 + Extras (1080p BluRay x265 HEVC 10bit AAC 5.1 RCVR)
Mr. Robot (2015) - S02E01-E02 - eps2.0_unm4sk-pt1.tc & eps2.0_unm4sk-pt2.tc (1080p BluRay x265 RCVR).mkv (2.4 GB)
Mr. Robot (2015) - S02E03 - eps2.1_k3rnel-pan1c.ksd (1080p BluRay x265 RCVR).mkv (1.9 GB)
Mr. Robot (2015) - S02E04 - eps2.2_init_1.asec (1080p BluRay x265 RCVR).mkv (1.7 GB)
Mr. Robot (2015) - S02E05 - eps2.3_logic-b0mb.hc (1080p BluRay x265 RCVR).mkv (1.8 GB)
Mr. Robot (2015) - S02E06 - eps2.4_m4ster-s1ave.aes (1080p BluRay x265 RCVR).mkv (1.7 GB)
Mr. Robot (2015) - S02E07 - eps2.5_h4ndshake.sme (1080p BluRay x265 RCVR).mkv (1.4 GB)
Mr. Robot (2015) - S02E08 - eps2.6_succ3ss0r.p12 (1080p BluRay x265 RCVR).mkv (1.9 GB)
Mr. Robot (2015) - S02E09 - eps2.7_init_5.fve (1080p BluRay x265 RCVR).mkv (1.5 GB)
Mr. Robot (2015) - S02E10 - eps2.8_h1dden-pr0cess.axx (1080p BluRay x265 RCVR).mkv (1.3 GB)
Mr. Robot (2015) - S02E11 - eps2.9_pyth0n-pt1.p7z (1080p BluRay x265 RCVR).mkv (1.1 GB)
Mr. Robot (2015) - S02E12 - eps2.9_pyth0n-pt2.p7z (1080p BluRay x265 RCVR).mkv (1.2 GB)

Mediainfo

General 
Format : Matroska 
Format version : Version 4 / Version 2 
File size : 2.42 GiB 
Duration : 1 h 22 min 
Overall bit rate : 4 208 kb/s 
Movie name : Mr. Robot: Season Two (Disc 1) 
Encoded date : UTC 2018-01-12 20:51:50 
Writing application : mkvmerge v12.0.0 ('Trust / Lust') 64bit 
Writing library : libebml v1.3.4 + libmatroska v1.4.5 
Cover : Yes 
Attachments : cover.jpg 

Video 
ID : 1 
Format : HEVC 
Format/Info : High Efficiency Video Coding 
Format profile : Main [email protected]@Main 
Codec ID : V_MPEGH/ISO/HEVC 
Duration : 1 h 22 min 
Bit rate : 3 570 kb/s 
Width : 1 920 pixels 
Height : 1 080 pixels 
Display aspect ratio : 16:9 
Frame rate mode : Constant 
Frame rate : 23.976 (24000/1001) FPS 
Color space : YUV 
Chroma subsampling : 4:2:0 
Bit depth : 10 bits 
Bits/(Pixel*Frame) : 0.072 
Stream size : 2.05 GiB (85%) 
Writing library : x265 2.6+24-69cfe46e8a3b:[Windows][MSVC 1900][64 bit] 10bit 
Encoding settings : cpuid=1173503 / frame-threads=3 / numa-pools=8 / wpp / no-pmode / no-pme / no-psnr / no-ssim / log-level=2 / input-csp=1 / input-res=1920x1080 / interlace=0 / total-frames=118392 / level-idc=0 / high-tier=1 / uhd-bd=0 / ref=5 / no-allow-non-conformance / no-repeat-headers / annexb / no-aud / no-hrd / info / hash=0 / no-temporal-layers / open-gop / min-keyint=23 / keyint=250 / gop-lookahead=0 / bframes=8 / b-adapt=2 / b-pyramid / bframe-bias=0 / rc-lookahead=120 / lookahead-slices=4 / scenecut=40 / radl=0 / no-intra-refresh / ctu=64 / min-cu-size=8 / rect / no-amp / max-tu-size=32 / tu-inter-depth=1 / tu-intra-depth=1 / limit-tu=0 / rdoq-level=2 / dynamic-rd=0.00 / no-ssim-rd / signhide / no-tskip / nr-intra=0 / nr-inter=0 / no-constrained-intra / strong-intra-smoothing / max-merge=4 / limit-refs=3 / limit-modes / me=3 / subme=5 / merange=57 / temporal-mvp / weightp / weightb / no-analyze-src-pics / deblock=-3:-3 / no-sao / no-sao-non-deblock / rd=4 / no-early-skip / no-rskip / no-fast-intra / no-tskip-fast / no-cu-lossless / no-b-intra / no-splitrd-skip / rdpenalty=0 / psy-rd=2.00 / psy-rdoq=4.00 / no-rd-refine / no-lossless / cbqpoffs=0 / crqpoffs=0 / rc=crf / crf=18.0 / qcomp=0.60 / qpstep=4 / stats-write=0 / stats-read=0 / ipratio=1.40 / pbratio=1.30 / aq-mode=3 / aq-strength=0.80 / cutree / zone-count=0 / no-strict-cbr / qg-size=32 / no-rc-grain / qpmax=69 / qpmin=0 / no-const-vbv / sar=0 / overscan=0 / videoformat=5 / range=0 / colorprim=2 / transfer=2 / colormatrix=2 / chromaloc=0 / display-window=0 / max-cll=0,0 / min-luma=0 / max-luma=1023 / log2-max-poc-lsb=8 / vui-timing-info / vui-hrd-info / slices=1 / no-opt-qp-pps / no-opt-ref-list-length-pps / no-multi-pass-opt-rps / scenecut-bias=0.05 / no-opt-cu-delta-qp / no-aq-motion / no-hdr / no-hdr-opt / no-dhdr10-opt / analysis-save=(null) / analysis-load=(null) / analysis-reuse-level=5 / scale-factor=0 / refine-intra=0 / refine-inter=0 / refine-mv=0 / no-limit-sao / ctu-info=0 / no-lowpass-dct / refine-mv-type=0 / copy-pic=1 
Default : Yes 
Forced : No 

Audio #1 
ID : 2 
Format : AAC 
Format/Info : Advanced Audio Codec 
Format profile : LC 
Codec ID : A_AAC 
Duration : 1 h 22 min 
Bit rate : 420 kb/s 
Channel(s) : 6 channels 
Channel positions : Front: L C R, Side: L R, LFE 
Sampling rate : 48.0 kHz 
Frame rate : 46.875 FPS (1024 spf) 
Compression mode : Lossy 
Delay relative to video : 20 ms 
Stream size : 247 MiB (10%) 
Language : English 
Default : Yes 
Forced : No 

Audio #2 
ID : 3 
Format : AAC 
Format/Info : Advanced Audio Codec 
Format profile : HE-AAC / LC 
Codec ID : A_AAC 
Duration : 1 h 22 min 
Bit rate : 192 kb/s 
Channel(s) : 6 channels 
Channel positions : Front: L C R, Side: L R, LFE 
Sampling rate : 48.0 kHz / 24.0 kHz 
Frame rate : 23.438 FPS (1024 spf) 
Compression mode : Lossy 
Delay relative to video : 40 ms 
Stream size : 113 MiB (5%) 
Language : French 
Default : No 
Forced : No 

Subtitle #1 
ID : 4 
Format : PGS 
Muxing mode : zlib 
Codec ID : S_HDMV/PGS 
Codec ID/Info : Picture based subtitle format used on BDs/HD-DVDs 
Duration : 1 h 21 min 
Bit rate : 13.0 kb/s 
Count of elements : 2230 
Stream size : 7.58 MiB (0%) 
Language : English 
Default : No 
Forced : No 

Subtitle #2 
ID : 5 
Format : PGS 
Muxing mode : zlib 
Codec ID : S_HDMV/PGS 
Codec ID/Info : Picture based subtitle format used on BDs/HD-DVDs 
Duration : 1 h 22 min 
Bit rate : 10.5 kb/s 
Count of elements : 1922 
Stream size : 6.19 MiB (0%) 
Language : French 
Default : No 
Forced : No 

Menu 
00:00:00.000 : en:Chapter 01 
00:06:51.911 : en:Chapter 02 
00:29:59.339 : en:Chapter 03 
00:59:42.996 : en:Chapter 04

Screencaps

Download

Download: Google Drive

Featurettes: Google Drive

Season 03

Mr. Robot (2015) Season 3 S03 + Extras (1080p BluRay x265 HEVC 10bit AAC 5.1 RCVR)

Files

Mr. Robot (2015) Season 3 S03 + Extras (1080p BluRay x265 HEVC 10bit AAC 5.1 RCVR)
Mr. Robot (2015) - S03E01 - eps3.0_power-saver-mode.h (1080p BluRay x265 RCVR).mkv (1.6 GB)
Mr. Robot (2015) - S03E02 - eps3.1_undo.gz (1080p BluRay x265 RCVR).mkv (1.3 GB)
Mr. Robot (2015) - S03E03 - eps3.2_legacy.so (1080p BluRay x265 RCVR).mkv (1.6 GB)
Mr. Robot (2015) - S03E04 - eps3.3_metadata.par2 (1080p BluRay x265 RCVR).mkv (1.2 GB)
Mr. Robot (2015) - S03E05 - eps3.4_runtime-error.r00 (1080p BluRay x265 RCVR).mkv (1.5 GB)
Mr. Robot (2015) - S03E06 - eps3.5_kill-process.inc (1080p BluRay x265 RCVR).mkv (1.4 GB)
Mr. Robot (2015) - S03E07 - eps3.6_fredrick+tanya.chk (1080p BluRay x265 RCVR).mkv (1.2 GB)
Mr. Robot (2015) - S03E08 - eps3.7_dont-delete-me.ko (1080p BluRay x265 RCVR).mkv (1.2 GB)
Mr. Robot (2015) - S03E09 - eps3.8_stage3.torrent (1080p BluRay x265 RCVR).mkv (1.2 GB)
Mr. Robot (2015) - S03E10 - shutdown -r (1080p BluRay x265 RCVR).mkv (1.9 GB)

Mediainfo

General 
Format : Matroska 
Format version : Version 4 / Version 2 
File size : 1.56 GiB 
Duration : 53 min 16 s 
Overall bit rate : 4 197 kb/s 
Movie name : Mr. Robot: Season Three (Disc 1) 
Encoded date : UTC 2018-03-21 16:16:53 
Writing application : mkvmerge v12.0.0 ('Trust / Lust') 64bit 
Writing library : libebml v1.3.4 + libmatroska v1.4.5 
Cover : Yes 
Attachments : cover.jpg 

Video 
ID : 1 
Format : HEVC 
Format/Info : High Efficiency Video Coding 
Format profile : Main [email protected]@Main 
Codec ID : V_MPEGH/ISO/HEVC 
Duration : 53 min 16 s 
Bit rate : 3 520 kb/s 
Width : 1 920 pixels 
Height : 1 080 pixels 
Display aspect ratio : 16:9 
Frame rate mode : Constant 
Frame rate : 23.976 (24000/1001) FPS 
Color space : YUV 
Chroma subsampling : 4:2:0 
Bit depth : 10 bits 
Bits/(Pixel*Frame) : 0.071 
Stream size : 1.31 GiB (84%) 
Writing library : x265 2.7+15-b9f5b5d7bf95:[Windows][MSVC 1900][64 bit] 10bit 
Encoding settings : cpuid=1173503 / frame-threads=3 / numa-pools=8 / wpp / no-pmode / no-pme / no-psnr / no-ssim / log-level=2 / input-csp=1 / input-res=1920x1080 / interlace=0 / total-frames=76637 / level-idc=0 / high-tier=1 / uhd-bd=0 / ref=5 / no-allow-non-conformance / no-repeat-headers / annexb / no-aud / no-hrd / info / hash=0 / no-temporal-layers / open-gop / min-keyint=23 / keyint=250 / gop-lookahead=0 / bframes=8 / b-adapt=2 / b-pyramid / bframe-bias=0 / rc-lookahead=80 / lookahead-slices=4 / scenecut=40 / radl=0 / no-intra-refresh / ctu=64 / min-cu-size=8 / rect / no-amp / max-tu-size=32 / tu-inter-depth=1 / tu-intra-depth=1 / limit-tu=0 / rdoq-level=2 / dynamic-rd=0.00 / no-ssim-rd / signhide / no-tskip / nr-intra=0 / nr-inter=0 / no-constrained-intra / no-strong-intra-smoothing / max-merge=4 / limit-refs=3 / limit-modes / me=3 / subme=5 / merange=57 / temporal-mvp / weightp / weightb / no-analyze-src-pics / deblock=-3:-3 / no-sao / no-sao-non-deblock / rd=4 / no-early-skip / no-rskip / no-fast-intra / no-tskip-fast / no-cu-lossless / no-b-intra / no-splitrd-skip / rdpenalty=0 / psy-rd=2.00 / psy-rdoq=4.00 / no-rd-refine / no-lossless / cbqpoffs=0 / crqpoffs=0 / rc=crf / crf=18.0 / qcomp=0.60 / qpstep=4 / stats-write=0 / stats-read=0 / ipratio=1.40 / pbratio=1.30 / aq-mode=3 / aq-strength=0.80 / cutree / zone-count=0 / no-strict-cbr / qg-size=32 / no-rc-grain / qpmax=69 / qpmin=0 / no-const-vbv / sar=0 / overscan=0 / videoformat=5 / range=0 / colorprim=2 / transfer=2 / colormatrix=2 / chromaloc=0 / display-window=0 / max-cll=0,0 / min-luma=0 / max-luma=1023 / log2-max-poc-lsb=8 / vui-timing-info / vui-hrd-info / slices=1 / no-opt-qp-pps / no-opt-ref-list-length-pps / no-multi-pass-opt-rps / scenecut-bias=0.05 / no-opt-cu-delta-qp / no-aq-motion / no-hdr / no-hdr-opt / no-dhdr10-opt / no-idr-recovery-sei / analysis-reuse-level=5 / scale-factor=0 / refine-intra=0 / refine-inter=0 / refine-mv=0 / no-limit-sao / ctu-info=0 / no-lowpass-dct / refine-mv-type=0 / copy-pic=1 / max-ausize-factor=1.0 / no-dynamic-refine 
Default : Yes 
Forced : No 

Audio #1 
ID : 2 
Format : AAC 
Format/Info : Advanced Audio Codec 
Format profile : LC 
Codec ID : A_AAC 
Duration : 53 min 16 s 
Bit rate : 446 kb/s 
Channel(s) : 6 channels 
Channel positions : Front: L C R, Side: L R, LFE 
Sampling rate : 48.0 kHz 
Frame rate : 46.875 FPS (1024 spf) 
Compression mode : Lossy 
Delay relative to video : 20 ms 
Stream size : 170 MiB (11%) 
Language : English 
Default : Yes 
Forced : No 

Audio #2 
ID : 3 
Format : AAC 
Format/Info : Advanced Audio Codec 
Format profile : HE-AAC / LC 
Codec ID : A_AAC 
Duration : 53 min 16 s 
Bit rate : 192 kb/s 
Channel(s) : 6 channels 
Channel positions : Front: L C R, Side: L R, LFE 
Sampling rate : 48.0 kHz / 24.0 kHz 
Frame rate : 23.438 FPS (1024 spf) 
Compression mode : Lossy 
Delay relative to video : 40 ms 
Stream size : 73.2 MiB (5%) 
Language : Spanish 
Default : No 
Forced : No 

Subtitle #1 
ID : 4 
Format : PGS 
Muxing mode : zlib 
Codec ID : S_HDMV/PGS 
Codec ID/Info : Picture based subtitle format used on BDs/HD-DVDs 
Duration : 52 min 54 s 
Bit rate : 13.6 kb/s 
Count of elements : 1709 
Stream size : 5.15 MiB (0%) 
Language : English 
Default : No 
Forced : No 

Subtitle #2 
ID : 5 
Format : PGS 
Muxing mode : zlib 
Codec ID : S_HDMV/PGS 
Codec ID/Info : Picture based subtitle format used on BDs/HD-DVDs 
Duration : 53 min 13 s 
Bit rate : 11.7 kb/s 
Count of elements : 1512 
Stream size : 4.45 MiB (0%) 
Language : Spanish 
Default : No 
Forced : No 

Subtitle #3 
ID : 6 
Format : PGS 
Muxing mode : zlib 
Codec ID : S_HDMV/PGS 
Codec ID/Info : Picture based subtitle format used on BDs/HD-DVDs 
Duration : 53 min 13 s 
Bit rate : 10.5 kb/s 
Count of elements : 1314 
Stream size : 3.99 MiB (0%) 
Language : French 
Default : No 
Forced : No 

Menu 
00:00:00.000 : en:Chapter 01 
00:09:57.138 : en:Chapter 02 
00:28:24.869 : en:Chapter 03 
00:42:05.814 : en:Chapter 04

Screencaps

Download

Download: Google Drive

Featurettes: Google Drive

Season 4

Mr. Robot (2015) Season 4 S04 + Extras (1080p BluRay x265 HEVC 10bit AAC 5.1 Bandi)

Files

Mr. Robot (2015) Season 4 S04 + Extras (1080p BluRay x265 HEVC 10bit AAC 5.1 Bandi)
Mr. Robot (2015) - S04E01 - 401 Unauthorized (1080p BluRay x265 Bandi).mkv (2.0 GB)
Mr. Robot (2015) - S04E02 - 402 Payment Required (1080p BluRay x265 Bandi).mkv (1.5 GB)
Mr. Robot (2015) - S04E03 - 403 Forbidden (1080p BluRay x265 Bandi).mkv (1.7 GB)
Mr. Robot (2015) - S04E04 - 404 Not Found (1080p BluRay x265 Bandi).mkv (1.3 GB)
Mr. Robot (2015) - S04E05 - 405 Method Not Allowed (1080p BluRay x265 Bandi).mkv (1.9 GB)
Mr. Robot (2015) - S04E06 - 406 Not Acceptable (1080p BluRay x265 Bandi).mkv (1.6 GB)
Mr. Robot (2015) - S04E07 - 407 Proxy Authentication Required (1080p BluRay x265 Bandi).mkv (1.1 GB)
Mr. Robot (2015) - S04E08 - 408 Request Timeout (1080p BluRay x265 Bandi).mkv (1.8 GB)
Mr. Robot (2015) - S04E09 - 409 Conflict (1080p BluRay x265 Bandi).mkv (1.6 GB)
Mr. Robot (2015) - S04E10 - 410 Gone (1080p BluRay x265 Bandi).mkv (2.0 GB)
Mr. Robot (2015) - S04E11 - eXit (1080p BluRay x265 Bandi).mkv (1.2 GB)
Mr. Robot (2015) - S04E12 - whoami (1080p BluRay x265 Bandi).mkv (1.2 GB)
Mr. Robot (2015) - S04E13 - Hello, Elliot (1080p BluRay x265 Bandi).mkv (1.8 GB)

Deleted Scenes
Deleted Scenes - 401 Unauthorized.mkv (101.2 MB)
Deleted Scenes - 402 Payment Required.mkv (45.9 MB)
Deleted Scenes - 403 Forbidden.mkv (17.1 MB)
Deleted Scenes - 404 Not Found.mkv (108.4 MB)
Deleted Scenes - 405 Method Not Allowed.mkv (46.9 MB)
Deleted Scenes - 406 Not Acceptable.mkv (23.7 MB)
Deleted Scenes - 408 Request Timeout.mkv (259.4 MB)
Deleted Scenes - 409 Conflict.mkv (35.2 MB)
Deleted Scenes - 410 Gone.mkv (174.0 MB)
Deleted Scenes - eXit.mkv (50.8 MB)

Featurettes
Gag Real.mkv (98.1 MB)

Mediainfo

General
Format : Matroska
File Size : 1.77 GiB
Duration : 50 min 56 s
Overall Bit Rate : 4968 kb/s

Video
Format : HEVC
Format Profile : Main [email protected]@Main
Bit Rate : 4558 kb/s
Dimensions : 1920 pixels x 1080 pixels
Display Aspect Ratio : 16:9
Frame Rate : 23.976 (24000/1001) FPS
Writing Library : x265 3.3+2-gd9a7411cc:[Windows][GCC 9.3.0][64 bit] 10bit
Encoding Settings : cpuid=1111039 / frame-threads=5 / numa-pools=32,0 / wpp / no-pmode / no-pme / no-psnr / no-ssim / log-level=2 / input-csp=1 / input-res=1920x1080 / interlace=0 / total-frames=73280 / level-idc=0 / high-tier=1 / uhd-bd=0 / ref=5 / no-allow-non-conformance / no-repeat-headers / annexb / no-aud / no-hrd / info / hash=0 / no-temporal-layers / open-gop / min-keyint=23 / keyint=250 / gop-lookahead=0 / bframes=8 / b-adapt=2 / b-pyramid / bframe-bias=0 / rc-lookahead=80 / lookahead-slices=4 / scenecut=40 / hist-scenecut=0 / radl=0 / no-splice / no-intra-refresh / ctu=64 / min-cu-size=8 / no-rect / no-amp / max-tu-size=32 / tu-inter-depth=1 / tu-intra-depth=1 / limit-tu=0 / rdoq-level=2 / dynamic-rd=0.00 / no-ssim-rd / signhide / no-tskip / nr-intra=0 / nr-inter=0 / no-constrained-intra / no-strong-intra-smoothing / max-merge=4 / limit-refs=3 / limit-modes / me=3 / subme=5 / merange=57 / temporal-mvp / no-frame-dup / no-hme / weightp / weightb / no-analyze-src-pics / deblock=-3:-3 / no-sao / no-sao-non-deblock / rd=4 / selective-sao=0 / no-early-skip / rskip / no-fast-intra / no-tskip-fast / no-cu-lossless / b-intra / no-splitrd-skip / rdpenalty=0 / psy-rd=2.00 / psy-rdoq=1.00 / no-rd-refine / no-lossless / cbqpoffs=0 / crqpoffs=0 / rc=crf / crf=19.0 / qcomp=0.60 / qpstep=4 / stats-write=0 / stats-read=0 / ipratio=1.40 / pbratio=1.30 / aq-mode=3 / aq-strength=1.00 / cutree / zone-count=0 / no-strict-cbr / qg-size=32 / no-rc-grain / qpmax=69 / qpmin=0 / no-const-vbv / sar=0 / overscan=0 / videoformat=5 / range=0 / colorprim=1 / transfer=1 / colormatrix=1 / chromaloc=0 / display-window=0 / cll=0,0 / min-luma=0 / max-luma=1023 / log2-max-poc-lsb=8 / vui-timing-info / vui-hrd-info / slices=1 / no-opt-qp-pps / no-opt-ref-list-length-pps / no-multi-pass-opt-rps / scenecut-bias=0.05 / hist-threshold=0.01 / no-opt-cu-delta-qp / no-aq-motion / no-hdr10 / no-hdr10-opt / no-dhdr10-opt / no-idr-recovery-sei / analysis-reuse-level=8 / analysis-save-reuse-level=0 / analysis-load-reuse-level=0 / scale-factor=0 / refine-intra=0 / refine-inter=0 / refine-mv=1 / refine-ctu-distortion=0 / no-limit-sao / ctu-info=0 / no-lowpass-dct / refine-analysis-type=0 / copy-pic=1 / max-ausize-factor=1.0 / no-dynamic-refine / no-single-sei / no-hevc-aq / no-svt / no-field / qp-adaptation-range=1.00 / no-scenecut-aware-qpconformance-window-offsets / right=0 / bottom=0

Audio #1 : English / AAC LC / 6 channels / 384 kb/s / Surround 5.1

Subtitle #1 : English / PGS / 27.1 kb/s
Subtitle #2 : Spanish / PGS / 21.6 kb/s
Subtitle #3 : French / PGS / 19.1 kb/s

Chapters
00:00:00.000 : en:Chapter 01
00:03:22.202 : en:Chapter 02
00:17:08.944 : en:Chapter 03
00:30:45.844 : en:Chapter 04

Screens

Download

Download: Google Drive

Featurettes: Google Drive

13 thoughts on “Mr. Robot (2015) Season 1-4 + Extras (1080p BluRay x265 HEVC 10bit AAC 5.1 QxR)

  1. Google drive download for all seasons is saying:

    Sorry, you can’t view or download this file at this time.

    Too many users have viewed or downloaded this file recently. Please try accessing the file again later. If the file you are trying to access is particularly large or is shared with many people, it may take up to 24 hours to be able to view or download the file. If you still can’t access a file after 24 hours, contact your domain administrator.

    Please fix so I can download.

Leave a Reply