Marvel’s Daredevil (2015) Season 1-3 (1080p Mixed x265 HEVC 10bit AAC 5.1 Vyndros)

Summary: As a child Matt Murdock was blinded by a chemical spill in a freak accident. Instead of limiting him it gave him superhuman senses that enabled him to see the world in a unique and powerful way. Now he uses these powers to deliver justice, not only as a lawyer in his own law firm, but also as vigilante at night, stalking the streets of Hell’s Kitchen as Daredevil, the man without fear.

Season 1

Marvel’s Daredevil (2015) Season 1 S01 (1080p BluRay x265 HEVC 10bit AAC 5.1 Vyndros)

Files

  • Marvel’s.Daredevil.S01E01.Into.the.Ring.1080p.10bit.BluRay.AAC5.1.HEVC-Vyndros.mkv (1.3 GB)
  • Marvel’s.Daredevil.S01E02.Cut.Man.1080p.10bit.BluRay.AAC5.1.HEVC-Vyndros.mkv (1.1 GB)
  • Marvel’s.Daredevil.S01E03.Rabbit.in.a.Snow.Storm.1080p.10bit.BluRay.AAC5.1.HEVC-Vyndros.mkv (1.1 GB)
  • Marvel’s.Daredevil.S01E04.In.the.Blood.1080p.10bit.BluRay.AAC5.1.HEVC-Vyndros.mkv (973.7 MB)
  • Marvel’s.Daredevil.S01E05.World.on.Fire.1080p.10bit.BluRay.AAC5.1.HEVC-Vyndros.mkv (1,005.3 MB)
  • Marvel’s.Daredevil.S01E06.Condemned.1080p.10bit.BluRay.AAC5.1.HEVC-Vyndros.mkv (894.7 MB)
  • Marvel’s.Daredevil.S01E07.Stick.1080p.10bit.BluRay.AAC5.1.HEVC-Vyndros.mkv (981.9 MB)
  • Marvel’s.Daredevil.S01E08.Shadows.in.the.Glass.1080p.10bit.BluRay.AAC5.1.HEVC-Vyndros.mkv (1.3 GB)
  • Marvel’s.Daredevil.S01E09.Speak.of.the.Devil.1080p.10bit.BluRay.AAC5.1.HEVC-Vyndros.mkv (1.1 GB)
  • Marvel’s.Daredevil.S01E10.Nelson.v.Murdock.1080p.10bit.BluRay.AAC5.1.HEVC-Vyndros.mkv (1.1 GB)
  • Marvel’s.Daredevil.S01E11.The.Path.of.the.Righteous.1080p.10bit.BluRay.AAC5.1.HEVC-Vyndros.mkv (1.1 GB)
  • Marvel’s.Daredevil.S01E12.The.Ones.We.Leave.Behind.1080p.10bit.BluRay.AAC5.1.HEVC-Vyndros.mkv (1.0 GB)
  • Marvel’s.Daredevil.S01E13.Daredevil.1080p.10bit.BluRay.AAC5.1.HEVC-Vyndros.mkv (1.1 GB)

Mediainfo

General 
Format : Matroska 
Format version : Version 4 / Version 2 
File size : 1.31 GiB 
Duration : 52 min 55 s 
Overall bit rate : 3 534 kb/s 
Encoded date : UTC 2018-01-29 15:10:02 
Writing application : mkvmerge v15.0.0 ('Duel with the Devil') 64-bit 
Writing library : libebml v1.3.5 + libmatroska v1.4.5 
Writing frontend : StaxRip v1.7.0.0 

Video 
ID : 1 
Format : HEVC 
Format/Info : High Efficiency Video Coding 
Format profile : Main [email protected]@Main 
Codec ID : V_MPEGH/ISO/HEVC 
Duration : 52 min 52 s 
Bit rate : 3 056 kb/s 
Width : 1 920 pixels 
Height : 1 080 pixels 
Display aspect ratio : 16:9 
Frame rate mode : Constant 
Frame rate : 23.976 (24000/1001) FPS 
Color space : YUV 
Chroma subsampling : 4:2:0 
Bit depth : 10 bits 
Bits/(Pixel*Frame) : 0.061 
Stream size : 1.13 GiB (86%) 
Writing library : x265 2.6+31-3712d13c09bf:[Windows][GCC 7.2.0][64 bit] 10bit 
Encoding settings : cpuid=1173503 / frame-threads=3 / numa-pools=12 / wpp / no-pmode / no-pme / no-psnr / ssim / log-level=2 / input-csp=1 / input-res=1920x1080 / interlace=0 / total-frames=76063 / level-idc=0 / high-tier=1 / uhd-bd=0 / ref=3 / no-allow-non-conformance / no-repeat-headers / annexb / no-aud / no-hrd / info / hash=0 / no-temporal-layers / open-gop / min-keyint=23 / keyint=250 / gop-lookahead=0 / bframes=8 / b-adapt=2 / b-pyramid / bframe-bias=0 / rc-lookahead=50 / lookahead-slices=6 / scenecut=40 / radl=0 / no-intra-refresh / ctu=64 / min-cu-size=8 / no-rect / no-amp / max-tu-size=32 / tu-inter-depth=1 / tu-intra-depth=1 / limit-tu=0 / rdoq-level=0 / dynamic-rd=0.00 / no-ssim-rd / signhide / no-tskip / nr-intra=0 / nr-inter=0 / no-constrained-intra / no-strong-intra-smoothing / max-merge=3 / limit-refs=3 / no-limit-modes / me=3 / subme=3 / merange=57 / temporal-mvp / weightp / no-weightb / no-analyze-src-pics / deblock=0:0 / sao / no-sao-non-deblock / rd=3 / no-early-skip / no-rskip / no-fast-intra / no-tskip-fast / no-cu-lossless / no-b-intra / no-splitrd-skip / rdpenalty=0 / psy-rd=2.00 / psy-rdoq=0.00 / no-rd-refine / no-lossless / cbqpoffs=0 / crqpoffs=0 / rc=crf / crf=20.0 / qcomp=0.60 / qpstep=4 / stats-write=0 / stats-read=0 / ipratio=1.40 / pbratio=1.30 / aq-mode=3 / aq-strength=1.00 / cutree / zone-count=0 / no-strict-cbr / qg-size=32 / no-rc-grain / qpmax=69 / qpmin=0 / no-const-vbv / sar=0 / overscan=0 / videoformat=5 / range=0 / colorprim=2 / transfer=2 / colormatrix=2 / chromaloc=0 / display-window=0 / max-cll=0,0 / min-luma=0 / max-luma=1023 / log2-max-poc-lsb=8 / vui-timing-info / vui-hrd-info / slices=1 / no-opt-qp-pps / no-opt-ref-list-length-pps / no-multi-pass-opt-rps / scenecut-bias=0.05 / no-opt-cu-delta-qp / no-aq-motion / no-hdr / no-hdr-opt / no-dhdr10-opt / analysis-reuse-level=5 / scale-factor=0 / refine-intra=0 / refine-inter=0 / refine-mv=0 / no-limit-sao / ctu-info=0 / no-lowpass-dct / refine-mv-type=0 / copy-pic=1 
Default : Yes 
Forced : No 

Audio 
ID : 2 
Format : AAC 
Format/Info : Advanced Audio Codec 
Format profile : LC 
Codec ID : A_AAC 
Duration : 52 min 55 s 
Bit rate : 448 kb/s 
Channel(s) : 6 channels 
Channel positions : Front: L C R, Side: L R, LFE 
Sampling rate : 48.0 kHz 
Frame rate : 46.875 FPS (1024 spf) 
Compression mode : Lossy 
Stream size : 169 MiB (13%) 
Language : English 
Default : Yes 
Forced : Yes 

Subtitle 
ID : 3 
Format : PGS 
Muxing mode : zlib 
Codec ID : S_HDMV/PGS 
Codec ID/Info : Picture based subtitle format used on BDs/HD-DVDs 
Duration : 51 min 22 s 
Bit rate : 72.7 kb/s 
Count of elements : 1472 
Stream size : 26.7 MiB (2%) 
Language : English 
Default : No 
Forced : No 

Menu 
00:00:00.000 : en:Chapter 1 
00:08:39.561 : en:Chapter 2 
00:16:58.351 : en:Chapter 3 
00:28:38.800 : en:Chapter 4 
00:34:19.391 : en:Chapter 5 
00:45:22.386 : en:Chapter 6 
00:51:34.216 : en:Chapter 7

Screencaps

Download

Download: Google Drive

Season 2

Marvel’s Daredevil (2015) Season 2 S02 (1080p BluRay x265 HEVC 10bit AAC 5.1 Vyndros)

Files

  • Marvel’s.Daredevil.S02E01.Bang.1080p.10bit.BluRay.AAC5.1.HEVC-Vyndros.mkv (946.0 MB)
  • Marvel’s.Daredevil.S02E02.Dogs.to.a.Gunfight.1080p.10bit.BluRay.AAC5.1.HEVC-Vyndros.mkv (1.0 GB)
  • Marvel’s.Daredevil.S02E03.New.York’s.Finest.1080p.10bit.BluRay.AAC5.1.HEVC-Vyndros.mkv (834.6 MB)
  • Marvel’s.Daredevil.S02E04.Penny.and.Dime.1080p.10bit.BluRay.AAC5.1.HEVC-Vyndros.mkv (967.7 MB)
  • Marvel’s.Daredevil.S02E05.Kinbaku.1080p.10bit.BluRay.AAC5.1.HEVC-Vyndros.mkv (994.7 MB)
  • Marvel’s.Daredevil.S02E06.Regrets.Only.1080p.10bit.BluRay.AAC5.1.HEVC-Vyndros.mkv (1.0 GB)
  • Marvel’s.Daredevil.S02E07.Semper.Fidelis.1080p.10bit.BluRay.AAC5.1.HEVC-Vyndros.mkv (1.0 GB)
  • Marvel’s.Daredevil.S02E08.Guilty.as.Sin.1080p.10bit.BluRay.AAC5.1.HEVC-Vyndros.mkv (916.3 MB)
  • Marvel’s.Daredevil.S02E09.Seven.Minutes.in.Heaven.1080p.10bit.BluRay.AAC5.1.HEVC-Vyndros.mkv (1.1 GB)
  • Marvel’s.Daredevil.S02E10.The.Man.in.the.Box.1080p.10bit.BluRay.AAC5.1.HEVC-Vyndros.mkv (1,019.1 MB)
  • Marvel’s.Daredevil.S02E11.380.1080p.10bit.BluRay.AAC5.1.HEVC-Vyndros.mkv (941.0 MB)
  • Marvel’s.Daredevil.S02E12.The.Dark.at.the.End.of.the.Tunnel.1080p.10bit.BluRay.AAC5.1.HEVC-Vyndros.mkv (789.5 MB)
  • Marvel’s.Daredevil.S02E13.A.Cold.Day.in.Hell’s.Kitchen.1080p.10bit.BluRay.AAC5.1.HEVC-Vyndros.mkv (910.5 MB)

Mediainfo

General 
Format : Matroska 
Format version : Version 4 / Version 2 
File size : 946 MiB 
Duration : 48 min 9 s 
Overall bit rate : 2 746 kb/s 
Encoded date : UTC 2018-02-18 17:06:15 
Writing application : mkvmerge v20.0.0 ('I Am The Sun') 64-bit 
Writing library : libebml v1.3.5 + libmatroska v1.4.8 
Writing frontend : StaxRip v1.7.0.6 

Video 
ID : 1 
Format : HEVC 
Format/Info : High Efficiency Video Coding 
Format profile : Main [email protected]@Main 
Codec ID : V_MPEGH/ISO/HEVC 
Duration : 48 min 5 s 
Bit rate : 2 262 kb/s 
Width : 1 920 pixels 
Height : 1 080 pixels 
Display aspect ratio : 16:9 
Frame rate mode : Constant 
Frame rate : 23.976 (24000/1001) FPS 
Color space : YUV 
Chroma subsampling : 4:2:0 
Bit depth : 10 bits 
Bits/(Pixel*Frame) : 0.046 
Stream size : 778 MiB (82%) 
Writing library : x265 2.6+39-01b685d6fa33:[Windows][GCC 7.3.0][64 bit] 10bit 
Encoding settings : cpuid=1173503 / frame-threads=3 / numa-pools=12 / wpp / no-pmode / no-pme / no-psnr / ssim / log-level=2 / input-csp=1 / input-res=1920x1080 / interlace=0 / total-frames=69193 / level-idc=0 / high-tier=1 / uhd-bd=0 / ref=3 / no-allow-non-conformance / no-repeat-headers / annexb / no-aud / no-hrd / info / hash=0 / no-temporal-layers / open-gop / min-keyint=23 / keyint=250 / gop-lookahead=0 / bframes=8 / b-adapt=2 / b-pyramid / bframe-bias=0 / rc-lookahead=50 / lookahead-slices=6 / scenecut=40 / radl=0 / no-intra-refresh / ctu=64 / min-cu-size=8 / no-rect / no-amp / max-tu-size=32 / tu-inter-depth=1 / tu-intra-depth=1 / limit-tu=0 / rdoq-level=0 / dynamic-rd=0.00 / no-ssim-rd / signhide / no-tskip / nr-intra=0 / nr-inter=0 / no-constrained-intra / no-strong-intra-smoothing / max-merge=3 / limit-refs=3 / no-limit-modes / me=3 / subme=3 / merange=57 / temporal-mvp / weightp / no-weightb / no-analyze-src-pics / deblock=0:0 / sao / no-sao-non-deblock / rd=3 / no-early-skip / no-rskip / no-fast-intra / no-tskip-fast / no-cu-lossless / no-b-intra / no-splitrd-skip / rdpenalty=0 / psy-rd=2.00 / psy-rdoq=0.00 / no-rd-refine / no-lossless / cbqpoffs=0 / crqpoffs=0 / rc=crf / crf=20.0 / qcomp=0.60 / qpstep=4 / stats-write=0 / stats-read=0 / ipratio=1.40 / pbratio=1.30 / aq-mode=3 / aq-strength=1.00 / cutree / zone-count=0 / no-strict-cbr / qg-size=32 / no-rc-grain / qpmax=69 / qpmin=0 / no-const-vbv / sar=0 / overscan=0 / videoformat=5 / range=0 / colorprim=2 / transfer=2 / colormatrix=2 / chromaloc=0 / display-window=0 / max-cll=0,0 / min-luma=0 / max-luma=1023 / log2-max-poc-lsb=8 / vui-timing-info / vui-hrd-info / slices=1 / no-opt-qp-pps / no-opt-ref-list-length-pps / no-multi-pass-opt-rps / scenecut-bias=0.05 / no-opt-cu-delta-qp / no-aq-motion / no-hdr / no-hdr-opt / no-dhdr10-opt / analysis-reuse-level=5 / scale-factor=0 / refine-intra=0 / refine-inter=0 / refine-mv=0 / no-limit-sao / ctu-info=0 / no-lowpass-dct / refine-mv-type=0 / copy-pic=1 
Default : Yes 
Forced : No 

Audio 
ID : 2 
Format : AAC 
Format/Info : Advanced Audio Codec 
Format profile : LC 
Codec ID : A_AAC 
Duration : 48 min 9 s 
Bit rate : 447 kb/s 
Channel(s) : 6 channels 
Channel positions : Front: L C R, Side: L R, LFE 
Sampling rate : 48.0 kHz 
Frame rate : 46.875 FPS (1024 spf) 
Compression mode : Lossy 
Stream size : 154 MiB (16%) 
Language : English 
Default : Yes 
Forced : Yes 

Subtitle 
ID : 3 
Format : PGS 
Muxing mode : zlib 
Codec ID : S_HDMV/PGS 
Codec ID/Info : Picture based subtitle format used on BDs/HD-DVDs 
Duration : 46 min 35 s 
Bit rate : 85.7 kb/s 
Count of elements : 1496 
Stream size : 28.6 MiB (3%) 
Language : English 
Default : No 
Forced : No

Screencaps

Download

Download: Google Drive

Season 3

Marvel’s Daredevil (2015) Season 3 S03 (1080p NF WEB-DL x265 HEVC 10bit DDP 5.1 Vyndros)

Files

  • Marvel’s.Daredevil.S03E01.Resurrection.1080p.10bit.NF.WEB-DL.DDP5.1.HEVC-Vyndros.mkv (915.3 MB)
  • Marvel’s.Daredevil.S03E02.Please.1080p.10bit.NF.WEB-DL.DDP5.1.HEVC-Vyndros.mkv (1,020.9 MB)
  • Marvel’s.Daredevil.S03E03.No.Good.Deed.1080p.10bit.NF.WEB-DL.DDP5.1.HEVC-Vyndros.mkv (896.4 MB)
  • Marvel’s.Daredevil.S03E04.Blindsided.1080p.10bit.NF.WEB-DL.DDP5.1.HEVC-Vyndros.mkv (1.0 GB)
  • Marvel’s.Daredevil.S03E05.The.Perfect.Game.1080p.10bit.NF.WEB-DL.DDP5.1.HEVC-Vyndros.mkv (921.1 MB)
  • Marvel’s.Daredevil.S03E06.The.Devil.You.Know.1080p.10bit.NF.WEB-DL.DDP5.1.HEVC-Vyndros.mkv (913.6 MB)
  • Marvel’s.Daredevil.S03E07.Aftermath.1080p.10bit.NF.WEB-DL.DDP5.1.HEVC-Vyndros.mkv (912.4 MB)
  • Marvel’s.Daredevil.S03E08.Upstairs.Downstairs.1080p.10bit.NF.WEB-DL.DDP5.1.HEVC-Vyndros.mkv (839.1 MB)
  • Marvel’s.Daredevil.S03E09.Revelations.1080p.10bit.NF.WEB-DL.DDP5.1.HEVC-Vyndros.mkv (978.4 MB)
  • Marvel’s.Daredevil.S03E10.Karen.1080p.10bit.NF.WEB-DL.DDP5.1.HEVC-Vyndros.mkv (888.9 MB)
  • Marvel’s.Daredevil.S03E11.Reunion.1080p.10bit.NF.WEB-DL.DDP5.1.HEVC-Vyndros.mkv (769.6 MB)
  • Marvel’s.Daredevil.S03E12.One.Last.Shot.1080p.10bit.NF.WEB-DL.DDP5.1.HEVC-Vyndros.mkv (978.4 MB)
  • Marvel’s.Daredevil.S03E13.A.New.Napkin.1080p.10bit.NF.WEB-DL.DDP5.1.HEVC-Vyndros.mkv (1.1 GB)

Mediainfo

General
Format : Matroska
Format version : Version 4 / Version 2
File size : 978 MiB
Duration : 53 min 7 s
Overall bit rate : 2 575 kb/s
Encoded date : UTC 2018-11-09 17:28:46
Writing application : mkvmerge v20.0.0 ('I Am The Sun') 64-bit
Writing library : libebml v1.3.5 + libmatroska v1.4.8
Writing frontend : StaxRip v1.7.0.6

Video
ID : 1
Format : HEVC
Format/Info : High Efficiency Video Coding
Format profile : Main [email protected]@Main
Codec ID : V_MPEGH/ISO/HEVC
Duration : 53 min 7 s
Bit rate : 2 125 kb/s
Width : 1 920 pixels
Height : 1 080 pixels
Display aspect ratio : 16:9
Frame rate mode : Constant
Frame rate : 23.976 (24000/1001) FPS
Color space : YUV
Chroma subsampling : 4:2:0
Bit depth : 10 bits
Bits/(Pixel*Frame) : 0.043
Stream size : 807 MiB (83%)
Writing library : x265 2.9+1-169e76b6bbcc:[Windows][GCC 8.2.0][64 bit] 10bit
Encoding settings : cpuid=1111039 / frame-threads=3 / numa-pools=12 / wpp / no-pmode / no-pme / no-psnr / ssim / log-level=2 / input-csp=1 / input-res=1920x1080 / interlace=0 / total-frames=76416 / level-idc=0 / high-tier=1 / uhd-bd=0 / ref=3 / no-allow-non-conformance / no-repeat-headers / annexb / no-aud / no-hrd / info / hash=0 / no-temporal-layers / open-gop / min-keyint=23 / keyint=250 / gop-lookahead=0 / bframes=8 / b-adapt=2 / b-pyramid / bframe-bias=0 / rc-lookahead=50 / lookahead-slices=6 / scenecut=40 / radl=0 / no-intra-refresh / ctu=64 / min-cu-size=8 / no-rect / no-amp / max-tu-size=32 / tu-inter-depth=1 / tu-intra-depth=1 / limit-tu=0 / rdoq-level=0 / dynamic-rd=0.00 / no-ssim-rd / signhide / no-tskip / nr-intra=0 / nr-inter=0 / no-constrained-intra / no-strong-intra-smoothing / max-merge=3 / limit-refs=3 / no-limit-modes / me=3 / subme=3 / merange=57 / temporal-mvp / weightp / no-weightb / no-analyze-src-pics / deblock=0:0 / sao / no-sao-non-deblock / rd=3 / no-early-skip / no-rskip / no-fast-intra / no-tskip-fast / no-cu-lossless / no-b-intra / no-splitrd-skip / rdpenalty=0 / psy-rd=2.00 / psy-rdoq=0.00 / no-rd-refine / no-lossless / cbqpoffs=0 / crqpoffs=0 / rc=crf / crf=18.0 / qcomp=0.60 / qpstep=4 / stats-write=0 / stats-read=0 / ipratio=1.40 / pbratio=1.30 / aq-mode=3 / aq-strength=0.80 / cutree / zone-count=0 / no-strict-cbr / qg-size=32 / no-rc-grain / qpmax=69 / qpmin=0 / no-const-vbv / sar=0 / overscan=0 / videoformat=5 / range=0 / colorprim=2 / transfer=2 / colormatrix=2 / chromaloc=0 / display-window=0 / max-cll=0,0 / min-luma=0 / max-luma=1023 / log2-max-poc-lsb=8 / vui-timing-info / vui-hrd-info / slices=1 / no-opt-qp-pps / no-opt-ref-list-length-pps / no-multi-pass-opt-rps / scenecut-bias=0.05 / no-opt-cu-delta-qp / no-aq-motion / no-hdr / no-hdr-opt / no-dhdr10-opt / no-idr-recovery-sei / analysis-reuse-level=5 / scale-factor=0 / refine-intra=0 / refine-inter=0 / refine-mv=0 / no-limit-sao / ctu-info=0 / no-lowpass-dct / refine-mv-type=0 / copy-pic=1 / max-ausize-factor=1.0 / no-dynamic-refine / no-single-sei
Default : Yes
Forced : No

Audio
ID : 2
Format : E-AC-3
Format/Info : Enhanced Audio Coding 3
Format settings, Endianness : Big
Codec ID : A_EAC3
Duration : 53 min 7 s
Bit rate mode : Constant
Bit rate : 448 kb/s
Channel(s) : 6 channels
Channel positions : Front: L C R, Side: L R, LFE
Sampling rate : 48.0 kHz
Frame rate : 187.500 FPS (256 spf)
Compression mode : Lossy
Stream size : 170 MiB (17%)
Language : English
Default : No
Forced : No

Subtitle #1
ID : 3
Format : UTF-8
Codec ID : S_TEXT/UTF8
Codec ID/Info : UTF-8 Plain Text
Duration : 51 min 23 s
Bit rate : 51 b/s
Count of elements : 554
Stream size : 19.3 KiB (0%)
Language : English
Default : No
Forced : No

Subtitle #2
ID : 4
Format : UTF-8
Codec ID : S_TEXT/UTF8
Codec ID/Info : UTF-8 Plain Text
Duration : 51 min 30 s
Bit rate : 56 b/s
Count of elements : 604
Stream size : 21.1 KiB (0%)
Language : English
Default : No
Forced : No

Screens

Download

Download: Google Drive

2 thoughts on “Marvel’s Daredevil (2015) Season 1-3 (1080p Mixed x265 HEVC 10bit AAC 5.1 Vyndros)

Leave a Reply