Marvel’s Agents of S.H.I.E.L.D. (2013) Season 1-6 (1080p BluRay x265 HEVC 10bit AAC 5.1 Vyndros)

Summary: After the Battle of New York, the world has changed. It now knows not only about the Avengers, but also the powerful menaces that require those superheroes and more to face them. In response, Phil Coulson of the Strategic Homeland Intervention, Enforcement and Logistics Division assembles an elite covert team to find and deal with these threats wherever they are found. With a world rapidly becoming more bizarre and dangerous than ever before as the supervillains arise, these agents of S.H.I.E.L.D. are ready to take them on.

Season 1

Marvel’s Agents of S.H.I.E.L.D. (2013) Season 1 S01 (1080p BluRay x265 HEVC 10bit AAC 5.1 Vyndros)

Files

Marvel's Agents of S.H.I.E.L.D. (2013) Season 1 S01 (1080p BluRay x265 HEVC 10bit AAC 5.1 Vyndros)
Marvel's.Agents.of.S.H.I.E.L.D.S01E01.Pilot.1080p.10bit.BluRay.AAC5.1.HEVC-Vyndros.mkv (1.2 GB)
Marvel's.Agents.of.S.H.I.E.L.D.S01E02.0-8-4.1080p.10bit.BluRay.AAC5.1.HEVC-Vyndros.mkv (1.0 GB)
Marvel's.Agents.of.S.H.I.E.L.D.S01E03.The.Asset.1080p.10bit.BluRay.AAC5.1.HEVC-Vyndros.mkv (1.1 GB)
Marvel's.Agents.of.S.H.I.E.L.D.S01E04.Eye.Spy.1080p.10bit.BluRay.AAC5.1.HEVC-Vyndros.mkv (876.2 MB)
Marvel's.Agents.of.S.H.I.E.L.D.S01E05.Girl.in.the.Flower.Dress.1080p.10bit.BluRay.AAC5.1.HEVC-Vyndros.mkv (739.6 MB)
Marvel's.Agents.of.S.H.I.E.L.D.S01E06.F.Z.Z.T.1080p.10bit.BluRay.AAC5.1.HEVC-Vyndros.mkv (794.3 MB)
Marvel's.Agents.of.S.H.I.E.L.D.S01E07.The.Hub.1080p.10bit.BluRay.AAC5.1.HEVC-Vyndros.mkv (857.5 MB)
Marvel's.Agents.of.S.H.I.E.L.D.S01E08.The.Well.1080p.10bit.BluRay.AAC5.1.HEVC-Vyndros.mkv (1.1 GB)
Marvel's.Agents.of.S.H.I.E.L.D.S01E09.Repairs.1080p.10bit.BluRay.AAC5.1.HEVC-Vyndros.mkv (760.7 MB)
Marvel's.Agents.of.S.H.I.E.L.D.S01E10.The.Bridge.1080p.10bit.BluRay.AAC5.1.HEVC-Vyndros.mkv (923.9 MB)
Marvel's.Agents.of.S.H.I.E.L.D.S01E11.The.Magical.Place.1080p.10bit.BluRay.AAC5.1.HEVC-Vyndros.mkv (1,006.3 MB)
Marvel's.Agents.of.S.H.I.E.L.D.S01E12.Seeds.1080p.10bit.BluRay.AAC5.1.HEVC-Vyndros.mkv (942.1 MB)
Marvel's.Agents.of.S.H.I.E.L.D.S01E13.T.R.A.C.K.S.1080p.10bit.BluRay.AAC5.1.HEVC-Vyndros.mkv (1.3 GB)
Marvel's.Agents.of.S.H.I.E.L.D.S01E14.T.A.H.I.T.I.1080p.10bit.BluRay.AAC5.1.HEVC-Vyndros.mkv (973.7 MB)
Marvel's.Agents.of.S.H.I.E.L.D.S01E15.Yes.Men.1080p.10bit.BluRay.AAC5.1.HEVC-Vyndros.mkv (1.0 GB)
Marvel's.Agents.of.S.H.I.E.L.D.S01E16.End.of.the.Beginning.1080p.10bit.BluRay.AAC5.1.HEVC-Vyndros.mkv (873.7 MB)
Marvel's.Agents.of.S.H.I.E.L.D.S01E17.Turn,.Turn,.Turn.1080p.10bit.BluRay.AAC5.1.HEVC-Vyndros.mkv (749.2 MB)
Marvel's.Agents.of.S.H.I.E.L.D.S01E18.Providence.1080p.10bit.BluRay.AAC5.1.HEVC-Vyndros.mkv (1,018.2 MB)
Marvel's.Agents.of.S.H.I.E.L.D.S01E19.The.Only.Light.in.the.Darkness.1080p.10bit.BluRay.AAC5.1.HEVC-Vyndros.mkv (822.1 MB)
Marvel's.Agents.of.S.H.I.E.L.D.S01E20.Nothing.Personal.1080p.10bit.BluRay.AAC5.1.HEVC-Vyndros.mkv (935.5 MB)
Marvel's.Agents.of.S.H.I.E.L.D.S01E21.Ragtag.1080p.10bit.BluRay.AAC5.1.HEVC-Vyndros.mkv (1.2 GB)
Marvel's.Agents.of.S.H.I.E.L.D.S01E22.Beginning.of.the.End.1080p.10bit.BluRay.AAC5.1.HEVC-Vyndros.mkv (895.1 MB)

Mediainfo

General 
Format : Matroska 
Format version : Version 4 / Version 2 
File size : 974 MiB 
Duration : 42 min 38 s 
Overall bit rate : 3 193 kb/s 
Encoded date : UTC 2018-04-19 21:36:07 
Writing application : mkvmerge v20.0.0 ('I Am The Sun') 64-bit 
Writing library : libebml v1.3.5 + libmatroska v1.4.8 
Writing frontend : StaxRip v1.7.0.6 

Video 
ID : 1 
Format : HEVC 
Format/Info : High Efficiency Video Coding 
Format profile : Main [email protected]@Main 
Codec ID : V_MPEGH/ISO/HEVC 
Duration : 42 min 38 s 
Bit rate : 2 728 kb/s 
Width : 1 920 pixels 
Height : 1 080 pixels 
Display aspect ratio : 16:9 
Frame rate mode : Constant 
Frame rate : 23.976 (24000/1001) FPS 
Color space : YUV 
Chroma subsampling : 4:2:0 
Bit depth : 10 bits 
Bits/(Pixel*Frame) : 0.055 
Stream size : 832 MiB (85%) 
Writing library : x265 2.7+340-aa9102400f24:[Windows][GCC 7.3.0][64 bit] 10bit 
Encoding settings : cpuid=1111039 / frame-threads=2 / numa-pools=4 / wpp / no-pmode / no-pme / no-psnr / ssim / log-level=2 / input-csp=1 / input-res=1920x1080 / interlace=0 / total-frames=61335 / level-idc=0 / high-tier=1 / uhd-bd=0 / ref=3 / no-allow-non-conformance / no-repeat-headers / annexb / no-aud / no-hrd / info / hash=0 / no-temporal-layers / open-gop / min-keyint=23 / keyint=250 / gop-lookahead=0 / bframes=8 / b-adapt=2 / b-pyramid / bframe-bias=0 / rc-lookahead=50 / lookahead-slices=6 / scenecut=40 / radl=0 / no-intra-refresh / ctu=64 / min-cu-size=8 / no-rect / no-amp / max-tu-size=32 / tu-inter-depth=1 / tu-intra-depth=1 / limit-tu=0 / rdoq-level=2 / dynamic-rd=0.00 / no-ssim-rd / signhide / no-tskip / nr-intra=0 / nr-inter=0 / no-constrained-intra / no-strong-intra-smoothing / max-merge=3 / limit-refs=3 / no-limit-modes / me=3 / subme=3 / merange=57 / temporal-mvp / weightp / no-weightb / no-analyze-src-pics / deblock=0:0 / sao / no-sao-non-deblock / rd=3 / no-early-skip / no-rskip / no-fast-intra / no-tskip-fast / no-cu-lossless / no-b-intra / no-splitrd-skip / rdpenalty=0 / psy-rd=2.00 / psy-rdoq=1.00 / no-rd-refine / no-lossless / cbqpoffs=0 / crqpoffs=0 / rc=crf / crf=20.0 / qcomp=0.60 / qpstep=4 / stats-write=0 / stats-read=0 / ipratio=1.40 / pbratio=1.30 / aq-mode=3 / aq-strength=1.00 / cutree / zone-count=0 / no-strict-cbr / qg-size=32 / no-rc-grain / qpmax=69 / qpmin=0 / no-const-vbv / sar=0 / overscan=0 / videoformat=5 / range=0 / colorprim=2 / transfer=2 / colormatrix=2 / chromaloc=0 / display-window=0 / max-cll=0,0 / min-luma=0 / max-luma=1023 / log2-max-poc-lsb=8 / vui-timing-info / vui-hrd-info / slices=1 / no-opt-qp-pps / no-opt-ref-list-length-pps / no-multi-pass-opt-rps / scenecut-bias=0.05 / no-opt-cu-delta-qp / no-aq-motion / no-hdr / no-hdr-opt / no-dhdr10-opt / no-idr-recovery-sei / analysis-reuse-level=5 / scale-factor=0 / refine-intra=0 / refine-inter=0 / refine-mv=0 / no-limit-sao / ctu-info=0 / no-lowpass-dct / refine-mv-type=0 / copy-pic=1 / max-ausize-factor=1.0 / no-dynamic-refine / no-single-sei 
Default : Yes 
Forced : No 

Audio 
ID : 2 
Format : AAC 
Format/Info : Advanced Audio Codec 
Format profile : LC 
Codec ID : A_AAC 
Duration : 42 min 38 s 
Bit rate : 448 kb/s 
Channel(s) : 6 channels 
Channel positions : Front: L C R, Side: L R, LFE 
Sampling rate : 48.0 kHz 
Frame rate : 46.875 FPS (1024 spf) 
Compression mode : Lossy 
Stream size : 136 MiB (14%) 
Language : English 
Default : Yes 
Forced : No 

Subtitle 
ID : 3 
Format : PGS 
Muxing mode : zlib 
Codec ID : S_HDMV/PGS 
Codec ID/Info : Picture based subtitle format used on BDs/HD-DVDs 
Duration : 41 min 54 s 
Bit rate : 48.6 kb/s 
Count of elements : 1372 
Stream size : 14.6 MiB (1%) 
Language : English 
Default : No 
Forced : No

Download

Download: Google Drive (20.85 GB)

Season 2

Marvel’s Agents of S.H.I.E.L.D. (2013) Season 2 S02 (1080p BluRay x265 HEVC 10bit AAC 5.1 Vyndros)

Files

Marvel's Agents of S.H.I.E.L.D. (2013) Season 2 S02 (1080p BluRay x265 HEVC 10bit AAC 5.1 Vyndros)
Marvel's.Agents.of.S.H.I.E.L.D.S02E01.Shadows.1080p.10bit.BluRay.AAC5.1.HEVC-Vyndros.mkv (820.9 MB)
Marvel's.Agents.of.S.H.I.E.L.D.S02E02.Heavy.Is.the.Head.1080p.10bit.BluRay.AAC5.1.HEVC-Vyndros.mkv (865.6 MB)
Marvel's.Agents.of.S.H.I.E.L.D.S02E03.Making.Friends.and.Influencing.People.1080p.10bit.BluRay.AAC5.1.HEVC-Vyndros.mkv (764.9 MB)
Marvel's.Agents.of.S.H.I.E.L.D.S02E04.Face.My.Enemy.1080p.10bit.BluRay.AAC5.1.HEVC-Vyndros.mkv (830.4 MB)
Marvel's.Agents.of.S.H.I.E.L.D.S02E05.A.Hen.in.the.Wolf.House.1080p.10bit.BluRay.AAC5.1.HEVC-Vyndros.mkv (659.0 MB)
Marvel's.Agents.of.S.H.I.E.L.D.S02E06.A.Fractured.House.1080p.10bit.BluRay.AAC5.1.HEVC-Vyndros.mkv (642.8 MB)
Marvel's.Agents.of.S.H.I.E.L.D.S02E07.The.Writing.on.the.Wall.1080p.10bit.BluRay.AAC5.1.HEVC-Vyndros.mkv (848.5 MB)
Marvel's.Agents.of.S.H.I.E.L.D.S02E08.The.Things.We.Bury.1080p.10bit.BluRay.AAC5.1.HEVC-Vyndros.mkv (815.4 MB)
Marvel's.Agents.of.S.H.I.E.L.D.S02E09.Ye.Who.Enter.Here.1080p.10bit.BluRay.AAC5.1.HEVC-Vyndros.mkv (920.3 MB)
Marvel's.Agents.of.S.H.I.E.L.D.S02E10.What.They.Become.1080p.10bit.BluRay.AAC5.1.HEVC-Vyndros.mkv (623.3 MB)
Marvel's.Agents.of.S.H.I.E.L.D.S02E11.Aftershocks.1080p.10bit.BluRay.AAC5.1.HEVC-Vyndros.mkv (663.7 MB)
Marvel's.Agents.of.S.H.I.E.L.D.S02E12.Who.You.Really.Are.1080p.10bit.BluRay.AAC5.1.HEVC-Vyndros.mkv (783.9 MB)
Marvel's.Agents.of.S.H.I.E.L.D.S02E13.One.of.Us.1080p.10bit.BluRay.AAC5.1.HEVC-Vyndros.mkv (798.0 MB)
Marvel's.Agents.of.S.H.I.E.L.D.S02E14.Love.in.the.Time.of.Hydra.1080p.10bit.BluRay.AAC5.1.HEVC-Vyndros.mkv (683.5 MB)
Marvel's.Agents.of.S.H.I.E.L.D.S02E15.One.Door.Closes.1080p.10bit.BluRay.AAC5.1.HEVC-Vyndros.mkv (1.1 GB)
Marvel's.Agents.of.S.H.I.E.L.D.S02E16.Afterlife.1080p.10bit.BluRay.AAC5.1.HEVC-Vyndros.mkv (945.9 MB)
Marvel's.Agents.of.S.H.I.E.L.D.S02E17.Melinda.1080p.10bit.BluRay.AAC5.1.HEVC-Vyndros.mkv (1.1 GB)
Marvel's.Agents.of.S.H.I.E.L.D.S02E18.The.Frenemy.of.My.Enemy.1080p.10bit.BluRay.AAC5.1.HEVC-Vyndros.mkv (870.2 MB)
Marvel's.Agents.of.S.H.I.E.L.D.S02E19.The.Dirty.Half.Dozen.1080p.10bit.BluRay.AAC5.1.HEVC-Vyndros.mkv (791.9 MB)
Marvel's.Agents.of.S.H.I.E.L.D.S02E20.Scars.1080p.10bit.BluRay.AAC5.1.HEVC-Vyndros.mkv (774.0 MB)
Marvel's.Agents.of.S.H.I.E.L.D.S02E21.S.O.S.(1).1080p.10bit.BluRay.AAC5.1.HEVC-Vyndros.mkv (822.4 MB)
Marvel's.Agents.of.S.H.I.E.L.D.S02E22.S.O.S.(2).1080p.10bit.BluRay.AAC5.1.HEVC-Vyndros.mkv (920.1 MB)

Mediainfo

General 
Format : Matroska 
Format version : Version 4 / Version 2 
File size : 815 MiB 
Duration : 43 min 3 s 
Overall bit rate : 2 648 kb/s 
Encoded date : UTC 2018-05-02 03:22:21 
Writing application : mkvmerge v20.0.0 ('I Am The Sun') 64-bit 
Writing library : libebml v1.3.5 + libmatroska v1.4.8 
Writing frontend : StaxRip v1.7.0.6 

Video 
ID : 1 
Format : HEVC 
Format/Info : High Efficiency Video Coding 
Format profile : Main [email protected]@Main 
Codec ID : V_MPEGH/ISO/HEVC 
Duration : 43 min 3 s 
Bit rate : 2 180 kb/s 
Width : 1 920 pixels 
Height : 1 080 pixels 
Display aspect ratio : 16:9 
Frame rate mode : Constant 
Frame rate : 23.976 (24000/1001) FPS 
Color space : YUV 
Chroma subsampling : 4:2:0 
Bit depth : 10 bits 
Bits/(Pixel*Frame) : 0.044 
Stream size : 671 MiB (82%) 
Writing library : x265 2.7+340-aa9102400f24:[Windows][GCC 7.3.0][64 bit] 10bit 
Encoding settings : cpuid=1111039 / frame-threads=2 / numa-pools=4 / wpp / no-pmode / no-pme / no-psnr / ssim / log-level=2 / input-csp=1 / input-res=1920x1080 / interlace=0 / total-frames=61933 / level-idc=0 / high-tier=1 / uhd-bd=0 / ref=3 / no-allow-non-conformance / no-repeat-headers / annexb / no-aud / no-hrd / info / hash=0 / no-temporal-layers / open-gop / min-keyint=23 / keyint=250 / gop-lookahead=0 / bframes=8 / b-adapt=2 / b-pyramid / bframe-bias=0 / rc-lookahead=50 / lookahead-slices=6 / scenecut=40 / radl=0 / no-intra-refresh / ctu=64 / min-cu-size=8 / no-rect / no-amp / max-tu-size=32 / tu-inter-depth=1 / tu-intra-depth=1 / limit-tu=0 / rdoq-level=0 / dynamic-rd=0.00 / no-ssim-rd / signhide / no-tskip / nr-intra=0 / nr-inter=0 / no-constrained-intra / no-strong-intra-smoothing / max-merge=3 / limit-refs=3 / no-limit-modes / me=3 / subme=3 / merange=57 / temporal-mvp / weightp / no-weightb / no-analyze-src-pics / deblock=0:0 / sao / no-sao-non-deblock / rd=3 / no-early-skip / no-rskip / no-fast-intra / no-tskip-fast / no-cu-lossless / no-b-intra / no-splitrd-skip / rdpenalty=0 / psy-rd=2.00 / psy-rdoq=0.00 / no-rd-refine / no-lossless / cbqpoffs=0 / crqpoffs=0 / rc=crf / crf=20.0 / qcomp=0.60 / qpstep=4 / stats-write=0 / stats-read=0 / ipratio=1.40 / pbratio=1.30 / aq-mode=3 / aq-strength=1.00 / cutree / zone-count=0 / no-strict-cbr / qg-size=32 / no-rc-grain / qpmax=69 / qpmin=0 / no-const-vbv / sar=0 / overscan=0 / videoformat=5 / range=0 / colorprim=2 / transfer=2 / colormatrix=2 / chromaloc=0 / display-window=0 / max-cll=0,0 / min-luma=0 / max-luma=1023 / log2-max-poc-lsb=8 / vui-timing-info / vui-hrd-info / slices=1 / no-opt-qp-pps / no-opt-ref-list-length-pps / no-multi-pass-opt-rps / scenecut-bias=0.05 / no-opt-cu-delta-qp / no-aq-motion / no-hdr / no-hdr-opt / no-dhdr10-opt / no-idr-recovery-sei / analysis-reuse-level=5 / scale-factor=0 / refine-intra=0 / refine-inter=0 / refine-mv=0 / no-limit-sao / ctu-info=0 / no-lowpass-dct / refine-mv-type=0 / copy-pic=1 / max-ausize-factor=1.0 / no-dynamic-refine / no-single-sei 
Default : Yes 
Forced : No 

Audio 
ID : 2 
Format : AAC 
Format/Info : Advanced Audio Codec 
Format profile : LC 
Codec ID : A_AAC 
Duration : 43 min 3 s 
Bit rate : 448 kb/s 
Channel(s) : 6 channels 
Channel positions : Front: L C R, Side: L R, LFE 
Sampling rate : 48.0 kHz 
Frame rate : 46.875 FPS (1024 spf) 
Compression mode : Lossy 
Stream size : 138 MiB (17%) 
Language : English 
Default : Yes 
Forced : No 

Subtitle 
ID : 3 
Format : PGS 
Muxing mode : zlib 
Codec ID : S_HDMV/PGS 
Codec ID/Info : Picture based subtitle format used on BDs/HD-DVDs 
Duration : 42 min 19 s 
Bit rate : 58.8 kb/s 
Count of elements : 1566 
Stream size : 17.8 MiB (2%) 
Language : English 
Default : No 
Forced : No

Download

Download: Google Drive (17.74 GB)

Season 3

Marvel’s Agents of S.H.I.E.L.D. (2013) Season 3 S03 (1080p BluRay x265 HEVC 10bit AAC 5.1 Vyndros)

Files

Marvel's Agents of S.H.I.E.L.D. (2013) Season 3 S03 (1080p BluRay x265 HEVC 10bit AAC 5.1 Vyndros)
Marvel's.Agents.of.S.H.I.E.L.D.S03E01.Laws.of.Nature.1080p.10bit.BluRay.AAC5.1.HEVC-Vyndros.mkv (898.6 MB)
Marvel's.Agents.of.S.H.I.E.L.D.S03E02.Purpose.in.the.Machine.1080p.10bit.BluRay.AAC5.1.HEVC-Vyndros.mkv (801.2 MB)
Marvel's.Agents.of.S.H.I.E.L.D.S03E03.A.Wanted.(Inhu)man.1080p.10bit.BluRay.AAC5.1.HEVC-Vyndros.mkv (828.6 MB)
Marvel's.Agents.of.S.H.I.E.L.D.S03E04.Devils.You.Know.1080p.10bit.BluRay.AAC5.1.HEVC-Vyndros.mkv (853.0 MB)
Marvel's.Agents.of.S.H.I.E.L.D.S03E05.4,722.Hours.1080p.10bit.BluRay.AAC5.1.HEVC-Vyndros.mkv (863.7 MB)
Marvel's.Agents.of.S.H.I.E.L.D.S03E06.Among.Us.Hide.1080p.10bit.BluRay.AAC5.1.HEVC-Vyndros.mkv (876.8 MB)
Marvel's.Agents.of.S.H.I.E.L.D.S03E07.Chaos.Theory.1080p.10bit.BluRay.AAC5.1.HEVC-Vyndros.mkv (818.8 MB)
Marvel's.Agents.of.S.H.I.E.L.D.S03E08.Many.Heads,.One.Tale.1080p.10bit.BluRay.AAC5.1.HEVC-Vyndros.mkv (807.9 MB)
Marvel's.Agents.of.S.H.I.E.L.D.S03E09.Closure.1080p.10bit.BluRay.AAC5.1.HEVC-Vyndros.mkv (731.6 MB)
Marvel's.Agents.of.S.H.I.E.L.D.S03E10.Maveth.1080p.10bit.BluRay.AAC5.1.HEVC-Vyndros.mkv (893.8 MB)
Marvel's.Agents.of.S.H.I.E.L.D.S03E11.Bouncing.Back.1080p.10bit.BluRay.AAC5.1.HEVC-Vyndros.mkv (846.6 MB)
Marvel's.Agents.of.S.H.I.E.L.D.S03E12.The.Inside.Man.1080p.10bit.BluRay.AAC5.1.HEVC-Vyndros.mkv (907.6 MB)
Marvel's.Agents.of.S.H.I.E.L.D.S03E13.Parting.Shot.1080p.10bit.BluRay.AAC5.1.HEVC-Vyndros.mkv (794.4 MB)
Marvel's.Agents.of.S.H.I.E.L.D.S03E14.Watchdogs.1080p.10bit.BluRay.AAC5.1.HEVC-Vyndros.mkv (696.6 MB)
Marvel's.Agents.of.S.H.I.E.L.D.S03E15.Spacetime.1080p.10bit.BluRay.AAC5.1.HEVC-Vyndros.mkv (861.6 MB)
Marvel's.Agents.of.S.H.I.E.L.D.S03E16.Paradise.Lost.1080p.10bit.BluRay.AAC5.1.HEVC-Vyndros.mkv (948.6 MB)
Marvel's.Agents.of.S.H.I.E.L.D.S03E17.The.Team.1080p.10bit.BluRay.AAC5.1.HEVC-Vyndros.mkv (770.2 MB)
Marvel's.Agents.of.S.H.I.E.L.D.S03E18.The.Singularity.1080p.10bit.BluRay.AAC5.1.HEVC-Vyndros.mkv (874.4 MB)
Marvel's.Agents.of.S.H.I.E.L.D.S03E19.Failed.Experiments.1080p.10bit.BluRay.AAC5.1.HEVC-Vyndros.mkv (862.7 MB)
Marvel's.Agents.of.S.H.I.E.L.D.S03E20.Emancipation.1080p.10bit.BluRay.AAC5.1.HEVC-Vyndros.mkv (783.5 MB)
Marvel's.Agents.of.S.H.I.E.L.D.S03E21.Absolution.(1).1080p.10bit.BluRay.AAC5.1.HEVC-Vyndros.mkv (870.8 MB)
Marvel's.Agents.of.S.H.I.E.L.D.S03E22.Ascension.(2).1080p.10bit.BluRay.AAC5.1.HEVC-Vyndros.mkv (823.5 MB)

Mediainfo

General 
Format : Matroska 
Format version : Version 4 / Version 2 
File size : 784 MiB 
Duration : 42 min 52 s 
Overall bit rate : 2 555 kb/s 
Encoded date : UTC 2018-05-11 13:34:05 
Writing application : mkvmerge v20.0.0 ('I Am The Sun') 64-bit 
Writing library : libebml v1.3.5 + libmatroska v1.4.8 
Writing frontend : StaxRip v1.7.0.6 

Video 
ID : 1 
Format : HEVC 
Format/Info : High Efficiency Video Coding 
Format profile : Main [email protected]@Main 
Codec ID : V_MPEGH/ISO/HEVC 
Duration : 42 min 52 s 
Bit rate : 2 089 kb/s 
Width : 1 920 pixels 
Height : 1 080 pixels 
Display aspect ratio : 16:9 
Frame rate mode : Constant 
Frame rate : 23.976 (24000/1001) FPS 
Color space : YUV 
Chroma subsampling : 4:2:0 
Bit depth : 10 bits 
Bits/(Pixel*Frame) : 0.042 
Stream size : 640 MiB (82%) 
Writing library : x265 2.7+346-69aafa6d70ad:[Windows][GCC 7.3.0][64 bit] 10bit 
Encoding settings : cpuid=1111039 / frame-threads=2 / numa-pools=4 / wpp / no-pmode / no-pme / no-psnr / ssim / log-level=2 / input-csp=1 / input-res=1920x1080 / interlace=0 / total-frames=61667 / level-idc=0 / high-tier=1 / uhd-bd=0 / ref=3 / no-allow-non-conformance / no-repeat-headers / annexb / no-aud / no-hrd / info / hash=0 / no-temporal-layers / open-gop / min-keyint=23 / keyint=250 / gop-lookahead=0 / bframes=8 / b-adapt=2 / b-pyramid / bframe-bias=0 / rc-lookahead=50 / lookahead-slices=6 / scenecut=40 / radl=0 / no-intra-refresh / ctu=64 / min-cu-size=8 / no-rect / no-amp / max-tu-size=32 / tu-inter-depth=1 / tu-intra-depth=1 / limit-tu=0 / rdoq-level=0 / dynamic-rd=0.00 / no-ssim-rd / signhide / no-tskip / nr-intra=0 / nr-inter=0 / no-constrained-intra / no-strong-intra-smoothing / max-merge=3 / limit-refs=3 / no-limit-modes / me=3 / subme=3 / merange=57 / temporal-mvp / weightp / no-weightb / no-analyze-src-pics / deblock=0:0 / sao / no-sao-non-deblock / rd=3 / no-early-skip / no-rskip / no-fast-intra / no-tskip-fast / no-cu-lossless / no-b-intra / no-splitrd-skip / rdpenalty=0 / psy-rd=2.00 / psy-rdoq=0.00 / no-rd-refine / no-lossless / cbqpoffs=0 / crqpoffs=0 / rc=crf / crf=20.0 / qcomp=0.60 / qpstep=4 / stats-write=0 / stats-read=0 / ipratio=1.40 / pbratio=1.30 / aq-mode=3 / aq-strength=1.00 / cutree / zone-count=0 / no-strict-cbr / qg-size=32 / no-rc-grain / qpmax=69 / qpmin=0 / no-const-vbv / sar=0 / overscan=0 / videoformat=5 / range=0 / colorprim=2 / transfer=2 / colormatrix=2 / chromaloc=0 / display-window=0 / max-cll=0,0 / min-luma=0 / max-luma=1023 / log2-max-poc-lsb=8 / vui-timing-info / vui-hrd-info / slices=1 / no-opt-qp-pps / no-opt-ref-list-length-pps / no-multi-pass-opt-rps / scenecut-bias=0.05 / no-opt-cu-delta-qp / no-aq-motion / no-hdr / no-hdr-opt / no-dhdr10-opt / no-idr-recovery-sei / analysis-reuse-level=5 / scale-factor=0 / refine-intra=0 / refine-inter=0 / refine-mv=0 / no-limit-sao / ctu-info=0 / no-lowpass-dct / refine-mv-type=0 / copy-pic=1 / max-ausize-factor=1.0 / no-dynamic-refine / no-single-sei 
Default : Yes 
Forced : No 

Audio 
ID : 2 
Format : AAC 
Format/Info : Advanced Audio Codec 
Format profile : LC 
Codec ID : A_AAC 
Duration : 42 min 52 s 
Bit rate : 448 kb/s 
Channel(s) : 6 channels 
Channel positions : Front: L C R, Side: L R, LFE 
Sampling rate : 48.0 kHz 
Frame rate : 46.875 FPS (1024 spf) 
Compression mode : Lossy 
Stream size : 137 MiB (18%) 
Language : English 
Default : Yes 
Forced : No 

Subtitle 
ID : 3 
Format : PGS 
Muxing mode : zlib 
Codec ID : S_HDMV/PGS 
Codec ID/Info : Picture based subtitle format used on BDs/HD-DVDs 
Duration : 41 min 55 s 
Bit rate : 54.3 kb/s 
Count of elements : 1610 
Stream size : 16.3 MiB (2%) 
Language : English 
Default : No 
Forced : No

Download

Download: Google Drive (17.98 GB)

Season 4

Marvel’s Agents of S.H.I.E.L.D. (2013) Season 4 S04 (1080p BluRay x265 HEVC 10bit AAC 5.1 Vyndros)

Files

Marvel's Agents of S.H.I.E.L.D. (2013) Season 4 S04 (1080p BluRay x265 HEVC 10bit AAC 5.1 Vyndros)
Marvel's.Agents.of.S.H.I.E.L.D.S04E01.The.Ghost.1080p.10bit.BluRay.AAC5.1.HEVC-Vyndros.mkv (934.2 MB)
Marvel's.Agents.of.S.H.I.E.L.D.S04E02.Meet.the.New.Boss.1080p.10bit.BluRay.AAC5.1.HEVC-Vyndros.mkv (778.6 MB)
Marvel's.Agents.of.S.H.I.E.L.D.S04E03.Uprising.1080p.10bit.BluRay.AAC5.1.HEVC-Vyndros.mkv (847.5 MB)
Marvel's.Agents.of.S.H.I.E.L.D.S04E04.Let.Me.Stand.Next.to.Your.Fire.1080p.10bit.BluRay.AAC5.1.HEVC-Vyndros.mkv (873.3 MB)
Marvel's.Agents.of.S.H.I.E.L.D.S04E05.Lockup.1080p.10bit.BluRay.AAC5.1.HEVC-Vyndros.mkv (969.2 MB)
Marvel's.Agents.of.S.H.I.E.L.D.S04E06.The.Good.Samaritan.1080p.10bit.BluRay.AAC5.1.HEVC-Vyndros.mkv (928.5 MB)
Marvel's.Agents.of.S.H.I.E.L.D.S04E07.Deals.With.Our.Devils.1080p.10bit.BluRay.AAC5.1.HEVC-Vyndros.mkv (883.4 MB)
Marvel's.Agents.of.S.H.I.E.L.D.S04E08.The.Laws.of.Inferno.Dynamics.1080p.10bit.BluRay.AAC5.1.HEVC-Vyndros.mkv (860.4 MB)
Marvel's.Agents.of.S.H.I.E.L.D.S04E09.Broken.Promises.1080p.10bit.BluRay.AAC5.1.HEVC-Vyndros.mkv (907.9 MB)
Marvel's.Agents.of.S.H.I.E.L.D.S04E10.The.Patriot.1080p.10bit.BluRay.AAC5.1.HEVC-Vyndros.mkv (1,009.7 MB)
Marvel's.Agents.of.S.H.I.E.L.D.S04E11.Wake.Up.1080p.10bit.BluRay.AAC5.1.HEVC-Vyndros.mkv (735.4 MB)
Marvel's.Agents.of.S.H.I.E.L.D.S04E12.Hot.Potato.Soup.1080p.10bit.BluRay.AAC5.1.HEVC-Vyndros.mkv (714.5 MB)
Marvel's.Agents.of.S.H.I.E.L.D.S04E13.BOOM.1080p.10bit.BluRay.AAC5.1.HEVC-Vyndros.mkv (903.3 MB)
Marvel's.Agents.of.S.H.I.E.L.D.S04E14.The.Man.Behind.the.Shield.1080p.10bit.BluRay.AAC5.1.HEVC-Vyndros.mkv (646.9 MB)
Marvel's.Agents.of.S.H.I.E.L.D.S04E15.Self.Control.1080p.10bit.BluRay.AAC5.1.HEVC-Vyndros.mkv (685.7 MB)
Marvel's.Agents.of.S.H.I.E.L.D.S04E16.What.If.1080p.10bit.BluRay.AAC5.1.HEVC-Vyndros.mkv (996.9 MB)
Marvel's.Agents.of.S.H.I.E.L.D.S04E17.Identity.and.Change.1080p.10bit.BluRay.AAC5.1.HEVC-Vyndros.mkv (877.4 MB)
Marvel's.Agents.of.S.H.I.E.L.D.S04E18.No.Regrets.1080p.10bit.BluRay.AAC5.1.HEVC-Vyndros.mkv (779.7 MB)
Marvel's.Agents.of.S.H.I.E.L.D.S04E19.All.the.Madame's.Men.1080p.10bit.BluRay.AAC5.1.HEVC-Vyndros.mkv (792.2 MB)
Marvel's.Agents.of.S.H.I.E.L.D.S04E20.Farewell,.Cruel.World!.1080p.10bit.BluRay.AAC5.1.HEVC-Vyndros.mkv (629.0 MB)
Marvel's.Agents.of.S.H.I.E.L.D.S04E21.The.Return.1080p.10bit.BluRay.AAC5.1.HEVC-Vyndros.mkv (794.9 MB)
Marvel's.Agents.of.S.H.I.E.L.D.S04E22.World's.End.1080p.10bit.BluRay.AAC5.1.HEVC-Vyndros.mkv (701.3 MB)

Mediainfo

General 
Format : Matroska 
Format version : Version 4 / Version 2 
File size : 877 MiB 
Duration : 43 min 10 s 
Overall bit rate : 2 842 kb/s 
Encoded date : UTC 2018-07-17 00:18:24 
Writing application : mkvmerge v20.0.0 ('I Am The Sun') 64-bit 
Writing library : libebml v1.3.5 + libmatroska v1.4.8 
Writing frontend : StaxRip v1.7.0.6 

Video 
ID : 1 
Format : HEVC 
Format/Info : High Efficiency Video Coding 
Format profile : Main [email protected]@Main 
Codec ID : V_MPEGH/ISO/HEVC 
Duration : 43 min 2 s 
Bit rate : 2 362 kb/s 
Width : 1 920 pixels 
Height : 1 080 pixels 
Display aspect ratio : 16:9 
Frame rate mode : Constant 
Frame rate : 23.976 (24000/1001) FPS 
Color space : YUV 
Chroma subsampling : 4:2:0 
Bit depth : 10 bits 
Bits/(Pixel*Frame) : 0.048 
Stream size : 727 MiB (83%) 
Writing library : x265 2.8+40-0106f9f2f867:[Windows][GCC 7.3.0][64 bit] 10bit 
Encoding settings : cpuid=1111039 / frame-threads=3 / numa-pools=12 / wpp / no-pmode / no-pme / no-psnr / ssim / log-level=2 / input-csp=1 / input-res=1920x1080 / interlace=0 / total-frames=61911 / level-idc=0 / high-tier=1 / uhd-bd=0 / ref=3 / no-allow-non-conformance / no-repeat-headers / annexb / no-aud / no-hrd / info / hash=0 / no-temporal-layers / open-gop / min-keyint=23 / keyint=250 / gop-lookahead=0 / bframes=8 / b-adapt=2 / b-pyramid / bframe-bias=0 / rc-lookahead=50 / lookahead-slices=6 / scenecut=40 / radl=0 / no-intra-refresh / ctu=64 / min-cu-size=8 / no-rect / no-amp / max-tu-size=32 / tu-inter-depth=1 / tu-intra-depth=1 / limit-tu=0 / rdoq-level=0 / dynamic-rd=0.00 / no-ssim-rd / signhide / no-tskip / nr-intra=0 / nr-inter=0 / no-constrained-intra / no-strong-intra-smoothing / max-merge=3 / limit-refs=3 / no-limit-modes / me=3 / subme=5 / merange=57 / temporal-mvp / weightp / no-weightb / no-analyze-src-pics / deblock=0:0 / sao / no-sao-non-deblock / rd=3 / no-early-skip / no-rskip / no-fast-intra / no-tskip-fast / no-cu-lossless / no-b-intra / no-splitrd-skip / rdpenalty=0 / psy-rd=2.00 / psy-rdoq=0.00 / no-rd-refine / no-lossless / cbqpoffs=0 / crqpoffs=0 / rc=crf / crf=19.0 / qcomp=0.60 / qpstep=4 / stats-write=0 / stats-read=0 / ipratio=1.40 / pbratio=1.30 / aq-mode=3 / aq-strength=1.00 / cutree / zone-count=0 / no-strict-cbr / qg-size=32 / no-rc-grain / qpmax=69 / qpmin=0 / no-const-vbv / sar=0 / overscan=0 / videoformat=5 / range=0 / colorprim=2 / transfer=2 / colormatrix=2 / chromaloc=0 / display-window=0 / max-cll=0,0 / min-luma=0 / max-luma=1023 / log2-max-poc-lsb=8 / vui-timing-info / vui-hrd-info / slices=1 / no-opt-qp-pps / no-opt-ref-list-length-pps / no-multi-pass-opt-rps / scenecut-bias=0.05 / no-opt-cu-delta-qp / no-aq-motion / no-hdr / no-hdr-opt / no-dhdr10-opt / no-idr-recovery-sei / analysis-reuse-level=5 / scale-factor=0 / refine-intra=0 / refine-inter=0 / refine-mv=0 / no-limit-sao / ctu-info=0 / no-lowpass-dct / refine-mv-type=0 / copy-pic=1 / max-ausize-factor=1.0 / no-dynamic-refine / no-single-sei 
Default : Yes 
Forced : No 

Audio 
ID : 2 
Format : AAC 
Format/Info : Advanced Audio Codec 
Format profile : LC 
Codec ID : A_AAC 
Duration : 43 min 10 s 
Bit rate : 447 kb/s 
Channel(s) : 6 channels 
Channel positions : Front: L C R, Side: L R, LFE 
Sampling rate : 48.0 kHz 
Frame rate : 46.875 FPS (1024 spf) 
Compression mode : Lossy 
Stream size : 138 MiB (16%) 
Language : English 
Default : Yes 
Forced : Yes 

Subtitle 
ID : 3 
Format : PGS 
Muxing mode : zlib 
Codec ID : S_HDMV/PGS 
Codec ID/Info : Picture based subtitle format used on BDs/HD-DVDs 
Duration : 42 min 17 s 
Bit rate : 86.7 kb/s 
Count of elements : 1368 
Stream size : 26.2 MiB (3%) 
Language : English 
Default : No 
Forced : No

Download

Download: Google Drive (17.82 GB)

Season 5

Marvel’s Agents of S.H.I.E.L.D. (2013) Season 5 S05 (1080p BluRay x265 HEVC 10bit AAC 5.1 Vyndros)

Files

Marvel's Agents of S.H.I.E.L.D. (2013) Season 5 S05 REPACK (1080p BluRay x265 HEVC 10bit AAC 5.1 Vyndros)
Marvel's.Agents.of.S.H.I.E.L.D.S05E01.Orientation.(1).1080p.10bit.BluRay.AAC5.1.HEVC-Vyndros.mkv (812.9 MB)
Marvel's.Agents.of.S.H.I.E.L.D.S05E02.Orientation.(2).1080p.10bit.BluRay.AAC5.1.HEVC-Vyndros.mkv (918.0 MB)
Marvel's.Agents.of.S.H.I.E.L.D.S05E03.A.Life.Spent.1080p.10bit.BluRay.AAC5.1.HEVC-Vyndros.mkv (948.3 MB)
Marvel's.Agents.of.S.H.I.E.L.D.S05E04.A.Life.Earned.1080p.10bit.BluRay.AAC5.1.HEVC-Vyndros.mkv (838.9 MB)
Marvel's.Agents.of.S.H.I.E.L.D.S05E05.Rewind.1080p.10bit.BluRay.AAC5.1.HEVC-Vyndros.mkv (1.1 GB)
Marvel's.Agents.of.S.H.I.E.L.D.S05E06.Fun.&.Games.1080p.10bit.BluRay.AAC5.1.HEVC-Vyndros.mkv (873.6 MB)
Marvel's.Agents.of.S.H.I.E.L.D.S05E07.Together.or.Not.at.All.1080p.10bit.BluRay.AAC5.1.HEVC-Vyndros.mkv (745.0 MB)
Marvel's.Agents.of.S.H.I.E.L.D.S05E08.The.Last.Day.1080p.10bit.BluRay.AAC5.1.HEVC-Vyndros.mkv (681.6 MB)
Marvel's.Agents.of.S.H.I.E.L.D.S05E09.Best.Laid.Plans.1080p.10bit.BluRay.AAC5.1.HEVC-Vyndros.mkv (698.8 MB)
Marvel's.Agents.of.S.H.I.E.L.D.S05E10.Past.Life.1080p.10bit.BluRay.AAC5.1.HEVC-Vyndros.mkv (744.3 MB)
Marvel's.Agents.of.S.H.I.E.L.D.S05E11.All.the.Comforts.of.Home.1080p.10bit.BluRay.AAC5.1.HEVC-Vyndros.mkv (1.0 GB)
Marvel's.Agents.of.S.H.I.E.L.D.S05E12.The.Real.Deal.1080p.10bit.BluRay.AAC5.1.HEVC-Vyndros.mkv (1,021.9 MB)
Marvel's.Agents.of.S.H.I.E.L.D.S05E13.Principia.1080p.10bit.BluRay.AAC5.1.HEVC-Vyndros.mkv (903.1 MB)
Marvel's.Agents.of.S.H.I.E.L.D.S05E14.The.Devil.Complex.1080p.10bit.BluRay.AAC5.1.HEVC-Vyndros.mkv (965.0 MB)
Marvel's.Agents.of.S.H.I.E.L.D.S05E15.Rise.and.Shine.1080p.10bit.BluRay.AAC5.1.HEVC-Vyndros.mkv (908.5 MB)
Marvel's.Agents.of.S.H.I.E.L.D.S05E16.Inside.Voices.1080p.10bit.BluRay.AAC5.1.HEVC-Vyndros.mkv (923.0 MB)
Marvel's.Agents.of.S.H.I.E.L.D.S05E17.The.Honeymoon.1080p.10bit.BluRay.AAC5.1.HEVC-Vyndros.mkv (1.1 GB)
Marvel's.Agents.of.S.H.I.E.L.D.S05E18.All.Roads.Lead….1080p.10bit.BluRay.AAC5.1.HEVC-Vyndros.mkv (842.8 MB)
Marvel's.Agents.of.S.H.I.E.L.D.S05E19.Option.Two.1080p.10bit.BluRay.AAC5.1.HEVC-Vyndros.mkv (924.2 MB)
Marvel's.Agents.of.S.H.I.E.L.D.S05E20.The.One.Who.Will.Save.Us.All.1080p.10bit.BluRay.AAC5.1.HEVC-Vyndros.mkv (935.4 MB)
Marvel's.Agents.of.S.H.I.E.L.D.S05E21.The.Force.of.Gravity.1080p.10bit.BluRay.AAC5.1.HEVC-Vyndros.mkv (1.1 GB)
Marvel's.Agents.of.S.H.I.E.L.D.S05E22.The.End.1080p.10bit.BluRay.AAC5.1.HEVC-Vyndros.mkv (998.2 MB)

Mediainfo

General 
Format                                   : Matroska 
Format version                           : Version 4 / Version 2 
File size                                : 1.06 GiB 
Duration                                 : 43 min 12 s 
Overall bit rate                         : 3 517 kb/s 
Movie name                               : Agents of S.H.I.E.L.D. - S05E21 - The Force of Gravity 
Encoded date                             : UTC 2018-10-10 17:54:09 
Writing application                      : mkvmerge v20.0.0 ('I Am The Sun') 64-bit 
Writing library                          : libebml v1.3.5 + libmatroska v1.4.8 
Writing frontend                         : StaxRip v1.7.0.6 

Video 
ID                                       : 1 
Format                                   : HEVC 
Format/Info                              : High Efficiency Video Coding 
Format profile                           : Main [email protected]@Main 
Codec ID                                 : V_MPEGH/ISO/HEVC 
Duration                                 : 43 min 4 s 
Bit rate                                 : 3 042 kb/s 
Width                                    : 1 920 pixels 
Height                                   : 1 080 pixels 
Display aspect ratio                     : 16:9 
Frame rate mode                          : Constant 
Frame rate                               : 23.976 (24000/1001) FPS 
Color space                              : YUV 
Chroma subsampling                       : 4:2:0 
Bit depth                                : 10 bits 
Bits/(Pixel*Frame)                       : 0.061 
Stream size                              : 937 MiB (86%) 
Writing library                          : x265 2.9+1-169e76b6bbcc:[Windows][GCC 8.2.0][64 bit] 10bit 
Encoding settings                        : cpuid=1111039 / frame-threads=3 / numa-pools=12 / wpp / no-pmode / no-pme / no-psnr / ssim / log-level=2 / input-csp=1 / input-res=1920x1080 / interlace=0 / total-frames=61961 / level-idc=0 / high-tier=1 / uhd-bd=0 / ref=3 / no-allow-non-conformance / no-repeat-headers / annexb / no-aud / no-hrd / info / hash=0 / no-temporal-layers / open-gop / min-keyint=23 / keyint=250 / gop-lookahead=0 / bframes=8 / b-adapt=2 / b-pyramid / bframe-bias=0 / rc-lookahead=50 / lookahead-slices=6 / scenecut=40 / radl=0 / no-intra-refresh / ctu=64 / min-cu-size=8 / no-rect / no-amp / max-tu-size=32 / tu-inter-depth=1 / tu-intra-depth=1 / limit-tu=0 / rdoq-level=0 / dynamic-rd=0.00 / no-ssim-rd / signhide / no-tskip / nr-intra=0 / nr-inter=0 / no-constrained-intra / no-strong-intra-smoothing / max-merge=3 / limit-refs=3 / no-limit-modes / me=3 / subme=5 / merange=57 / temporal-mvp / weightp / no-weightb / no-analyze-src-pics / deblock=0:0 / sao / no-sao-non-deblock / rd=3 / no-early-skip / no-rskip / no-fast-intra / no-tskip-fast / no-cu-lossless / no-b-intra / no-splitrd-skip / rdpenalty=0 / psy-rd=2.00 / psy-rdoq=0.00 / no-rd-refine / no-lossless / cbqpoffs=0 / crqpoffs=0 / rc=crf / crf=18.0 / qcomp=0.60 / qpstep=4 / stats-write=0 / stats-read=0 / ipratio=1.40 / pbratio=1.30 / aq-mode=3 / aq-strength=1.00 / cutree / zone-count=0 / no-strict-cbr / qg-size=32 / no-rc-grain / qpmax=69 / qpmin=0 / no-const-vbv / sar=0 / overscan=0 / videoformat=5 / range=0 / colorprim=2 / transfer=2 / colormatrix=2 / chromaloc=0 / display-window=0 / max-cll=0,0 / min-luma=0 / max-luma=1023 / log2-max-poc-lsb=8 / vui-timing-info / vui-hrd-info / slices=1 / no-opt-qp-pps / no-opt-ref-list-length-pps / no-multi-pass-opt-rps / scenecut-bias=0.05 / no-opt-cu-delta-qp / no-aq-motion / no-hdr / no-hdr-opt / no-dhdr10-opt / no-idr-recovery-sei / analysis-reuse-level=5 / scale-factor=0 / refine-intra=0 / refine-inter=0 / refine-mv=0 / no-limit-sao / ctu-info=0 / no-lowpass-dct / refine-mv-type=0 / copy-pic=1 / max-ausize-factor=1.0 / no-dynamic-refine / no-single-sei 
Default                                  : Yes 
Forced                                   : No 

Audio 
ID                                       : 2 
Format                                   : AAC 
Format/Info                              : Advanced Audio Codec 
Format profile                           : LC 
Codec ID                                 : A_AAC 
Duration                                 : 43 min 12 s 
Bit rate                                 : 446 kb/s 
Channel(s)                               : 6 channels 
Channel positions                        : Front: L C R, Side: L R, LFE 
Sampling rate                            : 48.0 kHz 
Frame rate                               : 46.875 FPS (1024 spf) 
Compression mode                         : Lossy 
Stream size                              : 138 MiB (13%) 
Language                                 : English 
Default                                  : Yes 
Forced                                   : Yes 

Subtitle 
ID                                       : 3 
Format                                   : PGS 
Muxing mode                              : zlib 
Codec ID                                 : S_HDMV/PGS 
Codec ID/Info                            : Picture based subtitle format used on BDs/HD-DVDs 
Duration                                 : 42 min 15 s 
Bit rate                                 : 83.9 kb/s 
Count of elements                        : 1378 
Stream size                              : 25.4 MiB (2%) 
Language                                 : English 
Default                                  : No 
Forced                                   : No

Download

Download: Google Drive (19.54 GB)

Season 6

MARVEL Agents of S.H.I.E.L.D. (2013) Season 6 S06 (1080p BluRay x265 HEVC 10bit AAC 5.1 Vyndros)

Files

MARVEL Agents of S.H.I.E.L.D. (2013) Season 6 S06 (1080p BluRay x265 HEVC 10bit AAC 5.1 Vyndros)

  • Marvel’s.Agents.of.S.H.I.E.L.D.S06E01.Missing.Pieces.1080p.10bit.BluRay.AAC5.1.HEVC-Vyndros.mkv (980.1 MB)
  • Marvel’s.Agents.of.S.H.I.E.L.D.S06E02.Window.of.Opportunity.1080p.10bit.BluRay.AAC5.1.HEVC-Vyndros.mkv (1.0 GB)
  • Marvel’s.Agents.of.S.H.I.E.L.D.S06E03.Fear.and.Loathing.on.the.Planet.of.Kitson.1080p.10bit.BluRay.AAC5.1.HEVC-Vyndros.mkv (917.0 MB)
  • Marvel’s.Agents.of.S.H.I.E.L.D.S06E04.Code.Yellow.1080p.10bit.BluRay.AAC5.1.HEVC-Vyndros.mkv (1.0 GB)
  • Marvel’s.Agents.of.S.H.I.E.L.D.S06E05.The.Other.Thing.1080p.10bit.BluRay.AAC5.1.HEVC-Vyndros.mkv (842.2 MB)
  • Marvel’s.Agents.of.S.H.I.E.L.D.S06E06.Inescapable.1080p.10bit.BluRay.AAC5.1.HEVC-Vyndros.mkv (901.7 MB)
  • Marvel’s.Agents.of.S.H.I.E.L.D.S06E07.Toldja.1080p.10bit.BluRay.AAC5.1.HEVC-Vyndros.mkv (875.4 MB)
  • Marvel’s.Agents.of.S.H.I.E.L.D.S06E08.Collision.Course.(1).1080p.10bit.BluRay.AAC5.1.HEVC-Vyndros.mkv (887.5 MB)
  • Marvel’s.Agents.of.S.H.I.E.L.D.S06E09.Collision.Course.(2).1080p.10bit.BluRay.AAC5.1.HEVC-Vyndros.mkv (857.2 MB)
  • Marvel’s.Agents.of.S.H.I.E.L.D.S06E10.Leap.1080p.10bit.BluRay.AAC5.1.HEVC-Vyndros.mkv (742.0 MB)
  • Marvel’s.Agents.of.S.H.I.E.L.D.S06E11.From.the.Ashes.1080p.10bit.BluRay.AAC5.1.HEVC-Vyndros.mkv (892.4 MB)
  • Marvel’s.Agents.of.S.H.I.E.L.D.S06E12.The.Sign.1080p.10bit.BluRay.AAC5.1.HEVC-Vyndros.mkv (1.3 GB)
  • Marvel’s.Agents.of.S.H.I.E.L.D.S06E13.New.Life.1080p.10bit.BluRay.AAC5.1.HEVC-Vyndros.mkv (912.7 MB)

Mediainfo

General
Format : Matroska
Format version : Version 4 / Version 2
File size : 917 MiB
Duration : 43 min 3 s
Overall bit rate : 2 977 kb/s
Encoded date : UTC 2020-07-07 20:36:06
Writing application : mkvmerge v20.0.0 ('I Am The Sun') 64-bit
Writing library : libebml v1.3.5 + libmatroska v1.4.8
Writing frontend : StaxRip v1.7.0.6

Video
ID : 1
Format : HEVC
Format/Info : High Efficiency Video Coding
Format profile : Main [email protected]@Main
Codec ID : V_MPEGH/ISO/HEVC
Duration : 43 min 3 s
Bit rate : 2 435 kb/s
Width : 1 920 pixels
Height : 1 080 pixels
Display aspect ratio : 16:9
Frame rate mode : Constant
Frame rate : 23.976 (24000/1001) FPS
Color space : YUV
Chroma subsampling : 4:2:0
Bit depth : 10 bits
Bits/(Pixel*Frame) : 0.049
Stream size : 750 MiB (82%)
Writing library : x265 3.4+1-7b120308dc64:[Windows][MSVC 1926][64 bit] 10bit
Encoding settings : cpuid=1111039 / frame-threads=2 / numa-pools=4 / wpp / no-pmode / no-pme / no-psnr / ssim / log-level=2 / input-csp=1 / input-res=1920x1080 / interlace=0 / total-frames=61944 / level-idc=0 / high-tier=1 / uhd-bd=0 / ref=3 / no-allow-non-conformance / no-repeat-headers / annexb / no-aud / no-hrd / info / hash=0 / no-temporal-layers / open-gop / min-keyint=23 / keyint=250 / gop-lookahead=0 / bframes=8 / b-adapt=2 / b-pyramid / bframe-bias=0 / rc-lookahead=80 / lookahead-slices=6 / scenecut=40 / hist-scenecut=0 / radl=0 / no-splice / no-intra-refresh / ctu=64 / min-cu-size=8 / no-rect / no-amp / max-tu-size=32 / tu-inter-depth=1 / tu-intra-depth=1 / limit-tu=0 / rdoq-level=0 / dynamic-rd=0.00 / no-ssim-rd / signhide / no-tskip / nr-intra=0 / nr-inter=0 / no-constrained-intra / no-strong-intra-smoothing / max-merge=5 / limit-refs=1 / no-limit-modes / me=3 / subme=5 / merange=57 / temporal-mvp / no-frame-dup / no-hme / weightp / no-weightb / no-analyze-src-pics / deblock=0:0 / sao / no-sao-non-deblock / rd=3 / selective-sao=4 / early-skip / no-rskip / no-fast-intra / no-tskip-fast / no-cu-lossless / b-intra / no-splitrd-skip / rdpenalty=0 / psy-rd=2.00 / psy-rdoq=0.00 / no-rd-refine / no-lossless / cbqpoffs=0 / crqpoffs=0 / rc=crf / crf=19.0 / qcomp=0.60 / qpstep=4 / stats-write=0 / stats-read=0 / ipratio=1.40 / pbratio=1.30 / aq-mode=3 / aq-strength=1.00 / cutree / zone-count=0 / no-strict-cbr / qg-size=32 / no-rc-grain / qpmax=69 / qpmin=0 / no-const-vbv / sar=0 / overscan=0 / videoformat=5 / range=0 / colorprim=2 / transfer=2 / colormatrix=2 / chromaloc=0 / display-window=0 / cll=0,0 / min-luma=0 / max-luma=1023 / log2-max-poc-lsb=8 / vui-timing-info / vui-hrd-info / slices=1 / no-opt-qp-pps / no-opt-ref-list-length-pps / no-multi-pass-opt-rps / scenecut-bias=0.05 / hist-threshold=0.01 / no-opt-cu-delta-qp / no-aq-motion / no-hdr10 / no-hdr10-opt / no-dhdr10-opt / no-idr-recovery-sei / analysis-reuse-level=0 / analysis-save-reuse-level=0 / analysis-load-reuse-level=0 / scale-factor=0 / refine-intra=0 / refine-inter=0 / refine-mv=1 / refine-ctu-distortion=0 / no-limit-sao / ctu-info=0 / no-lowpass-dct / refine-analysis-type=0 / copy-pic=1 / max-ausize-factor=1.0 / no-dynamic-refine / no-single-sei / no-hevc-aq / no-svt / no-field / qp-adaptation-range=1.00 / no-scenecut-aware-qpconformance-window-offsets / right=0 / bottom=0 / decoder-max-rate=0
Default : Yes
Forced : No

Audio
ID : 2
Format : AAC
Format/Info : Advanced Audio Codec
Format profile : LC
Codec ID : A_AAC
Duration : 43 min 3 s
Bit rate : 502 kb/s
Channel(s) : 6 channels
Channel positions : Front: L C R, Side: L R, LFE
Sampling rate : 48.0 kHz
Frame rate : 46.875 FPS (1024 spf)
Compression mode : Lossy
Delay relative to video : 20 ms
Stream size : 155 MiB (17%)
Language : English
Default : Yes
Forced : No

Subtitle #1
ID : 3
Format : PGS
Muxing mode : zlib
Codec ID : S_HDMV/PGS
Codec ID/Info : Picture based subtitle format used on BDs/HD-DVDs
Duration : 42 min 20 s
Bit rate : 36.2 kb/s
Count of elements : 1932
Stream size : 10.9 MiB (1%)
Language : English
Default : No
Forced : No

Subtitle #2
ID : 4
Format : PGS
Muxing mode : zlib
Codec ID : S_HDMV/PGS
Codec ID/Info : Picture based subtitle format used on BDs/HD-DVDs
Duration : 42 min 20 s
Bit rate : 40.4 kb/s
Count of elements : 1932
Stream size : 12.2 MiB (1%)
Language : English
Default : No
Forced : No

Screens










Download

Season: Google Drive (11.99 GB)

3 thoughts on “Marvel’s Agents of S.H.I.E.L.D. (2013) Season 1-6 (1080p BluRay x265 HEVC 10bit AAC 5.1 Vyndros)

Leave a Reply