Lucifer (2015) Season 1-4 (1080p BluRay x265 HEVC 10bit AAC 5.1 Vyndros)

Summary: Lucifer, bored from his sulking life in hell comes to live in Los Angeles only to help humanity with its miseries through his experience and telepathic abilities to bring people’s deepest desires and thoughts out of them. While meeting with a girl in his nightclub (called Lux), a shootout involving him and the girl leads him to become a LAPD consultant who tries to punish people for their crimes through law and justice.

Season 1

Lucifer (2015) Season 1 S01 (1080p BluRay x265 HEVC 10bit AAC 5.1 Vyndros)

Files

Lucifer (2015) Season 1 S01 (1080p BluRay x265 HEVC 10bit AAC 5.1 Vyndros)

  • Lucifer.S01E01.Pilot.1080p.10bit.BluRay.AAC5.1.HEVC-Vyndros.mkv (1.2 GB)
  • Lucifer.S01E02.Lucifer,.Stay.Good.Devil.1080p.10bit.BluRay.AAC5.1.HEVC-Vyndros.mkv (1.3 GB)
  • Lucifer.S01E03.The.Would-Be.Prince.of.Darkness.1080p.10bit.BluRay.AAC5.1.HEVC-Vyndros.mkv (1.0 GB)
  • Lucifer.S01E04.Manly.Whatnots.1080p.10bit.BluRay.AAC5.1.HEVC-Vyndros.mkv (1.0 GB)
  • Lucifer.S01E05.Sweet.Kicks.1080p.10bit.BluRay.AAC5.1.HEVC-Vyndros.mkv (1.0 GB)
  • Lucifer.S01E06.Favorite.Son.1080p.10bit.BluRay.AAC5.1.HEVC-Vyndros.mkv (1.2 GB)
  • Lucifer.S01E07.Wingman.1080p.10bit.BluRay.AAC5.1.HEVC-Vyndros.mkv (1,007.6 MB)
  • Lucifer.S01E08.Et.Tu,.Doctor.1080p.10bit.BluRay.AAC5.1.HEVC-Vyndros.mkv (1.1 GB)
  • Lucifer.S01E09.A.Priest.Walks.into.a.Bar.1080p.10bit.BluRay.AAC5.1.HEVC-Vyndros.mkv (941.5 MB)
  • Lucifer.S01E10.Pops.1080p.10bit.BluRay.AAC5.1.HEVC-Vyndros.mkv (1.1 GB)
  • Lucifer.S01E11.St.Lucifer.1080p.10bit.BluRay.AAC5.1.HEVC-Vyndros.mkv (1.0 GB)
  • Lucifer.S01E12.#TeamLucifer.1080p.10bit.BluRay.AAC5.1.HEVC-Vyndros.mkv (977.9 MB)
  • Lucifer.S01E13.Take.Me.Back.To.Hell.1080p.10bit.BluRay.AAC5.1.HEVC-Vyndros.mkv (955.7 MB)

Mediainfo

General 
Format : Matroska 
Format version : Version 4 / Version 2 
File size : 1.02 GiB 
Duration : 42 min 11 s 
Overall bit rate : 3 476 kb/s 
Encoded date : UTC 2019-04-12 17:43:18 
Writing application : mkvmerge v20.0.0 ('I Am The Sun') 64-bit 
Writing library : libebml v1.3.5 + libmatroska v1.4.8 
Writing frontend : StaxRip v1.7.0.6 

Video 
ID : 1 
Format : HEVC 
Format/Info : High Efficiency Video Coding 
Format profile : Main [email protected]@Main 
Codec ID : V_MPEGH/ISO/HEVC 
Duration : 42 min 11 s 
Bit rate : 2 954 kb/s 
Width : 1 920 pixels 
Height : 1 080 pixels 
Display aspect ratio : 16:9 
Frame rate mode : Constant 
Frame rate : 23.976 (24000/1001) FPS 
Color space : YUV 
Chroma subsampling : 4:2:0 
Bit depth : 10 bits 
Bits/(Pixel*Frame) : 0.059 
Stream size : 891 MiB (85%) 
Writing library : x265 3.0_Au+14-c7e5878bdd31:[Windows][GCC 8.3.0][64 bit] 10bit 
Encoding settings : cpuid=1111039 / frame-threads=2 / numa-pools=4 / wpp / no-pmode / no-pme / no-psnr / ssim / log-level=2 / input-csp=1 / input-res=1920x1080 / interlace=0 / total-frames=60688 / level-idc=0 / high-tier=1 / uhd-bd=0 / ref=3 / no-allow-non-conformance / no-repeat-headers / annexb / no-aud / no-hrd / info / hash=0 / no-temporal-layers / open-gop / min-keyint=23 / keyint=250 / gop-lookahead=0 / bframes=8 / b-adapt=2 / b-pyramid / bframe-bias=0 / rc-lookahead=50 / lookahead-slices=6 / scenecut=40 / radl=0 / no-splice / no-intra-refresh / ctu=64 / min-cu-size=8 / no-rect / no-amp / max-tu-size=32 / tu-inter-depth=1 / tu-intra-depth=1 / limit-tu=0 / rdoq-level=0 / dynamic-rd=0.00 / no-ssim-rd / signhide / no-tskip / nr-intra=0 / nr-inter=0 / no-constrained-intra / no-strong-intra-smoothing / max-merge=3 / limit-refs=3 / no-limit-modes / me=3 / subme=5 / merange=57 / temporal-mvp / weightp / no-weightb / no-analyze-src-pics / deblock=0:0 / sao / no-sao-non-deblock / rd=3 / no-early-skip / no-rskip / no-fast-intra / no-tskip-fast / no-cu-lossless / no-b-intra / no-splitrd-skip / rdpenalty=0 / psy-rd=2.00 / psy-rdoq=0.00 / no-rd-refine / no-lossless / cbqpoffs=0 / crqpoffs=0 / rc=crf / crf=20.0 / qcomp=0.60 / qpstep=4 / stats-write=0 / stats-read=0 / ipratio=1.40 / pbratio=1.30 / aq-mode=3 / aq-strength=1.00 / cutree / zone-count=0 / no-strict-cbr / qg-size=32 / no-rc-grain / qpmax=69 / qpmin=0 / no-const-vbv / sar=0 / overscan=0 / videoformat=5 / range=0 / colorprim=2 / transfer=2 / colormatrix=2 / chromaloc=0 / display-window=0 / max-cll=0,0 / min-luma=0 / max-luma=1023 / log2-max-poc-lsb=8 / vui-timing-info / vui-hrd-info / slices=1 / no-opt-qp-pps / no-opt-ref-list-length-pps / no-multi-pass-opt-rps / scenecut-bias=0.05 / no-opt-cu-delta-qp / no-aq-motion / no-hdr / no-hdr-opt / no-dhdr10-opt / no-idr-recovery-sei / analysis-reuse-level=5 / scale-factor=0 / refine-intra=0 / refine-inter=0 / refine-mv=0 / refine-ctu-distortion=0 / no-limit-sao / ctu-info=0 / no-lowpass-dct / refine-analysis-type=0 / copy-pic=1 / max-ausize-factor=1.0 / no-dynamic-refine / no-single-sei / no-hevc-aq / no-svt / qp-adaptation-range=1.00 
Default : Yes 
Forced : No 

Audio 
ID : 2 
Format : AAC 
Format/Info : Advanced Audio Codec 
Format profile : LC 
Codec ID : A_AAC 
Duration : 42 min 11 s 
Bit rate : 446 kb/s 
Channel(s) : 6 channels 
Channel positions : Front: L C R, Side: L R, LFE 
Sampling rate : 48.0 kHz 
Frame rate : 46.875 FPS (1024 spf) 
Compression mode : Lossy 
Stream size : 135 MiB (13%) 
Language : English 
Default : Yes 
Forced : No 

Subtitle 
ID : 3 
Format : PGS 
Muxing mode : zlib 
Codec ID : S_HDMV/PGS 
Codec ID/Info : Picture based subtitle format used on BDs/HD-DVDs 
Duration : 41 min 22 s 
Bit rate : 109 kb/s 
Count of elements : 2078 
Stream size : 32.1 MiB (3%) 
Language : English 
Default : No 
Forced : No

Download

Download: Google Drive (13.75 GB)

Season 2

Lucifer (2015) Season 2 S02 (1080p BluRay x265 HEVC 10bit AAC 5.1 Vyndros)

Files

Lucifer (2015) Season 2 S02 (1080p BluRay x265 HEVC 10bit AAC 5.1 Vyndros)

  • Lucifer.S02E01.Everything’s.Coming.Up.Lucifer.1080p.10bit.BluRay.AAC5.1.HEVC-Vyndros.mkv (1.1 GB)
  • Lucifer.S02E02.Liar,.Liar,.Slutty.Dress.on.Fire.1080p.10bit.BluRay.AAC5.1.HEVC-Vyndros.mkv (1.1 GB)
  • Lucifer.S02E03.Sin-Eater.1080p.10bit.BluRay.AAC5.1.HEVC-Vyndros.mkv (994.1 MB)
  • Lucifer.S02E04.Lady.Parts.1080p.10bit.BluRay.AAC5.1.HEVC-Vyndros.mkv (1.3 GB)
  • Lucifer.S02E05.Weaponizer.1080p.10bit.BluRay.AAC5.1.HEVC-Vyndros.mkv (1.1 GB)
  • Lucifer.S02E06.Monster.1080p.10bit.BluRay.AAC5.1.HEVC-Vyndros.mkv (1.4 GB)
  • Lucifer.S02E07.My.Little.Monkey.1080p.10bit.BluRay.AAC5.1.HEVC-Vyndros.mkv (1.1 GB)
  • Lucifer.S02E08.Trip.to.Stabby.Town.1080p.10bit.BluRay.AAC5.1.HEVC-Vyndros.mkv (1.1 GB)
  • Lucifer.S02E09.Homewrecker.1080p.10bit.BluRay.AAC5.1.HEVC-Vyndros.mkv (1.1 GB)
  • Lucifer.S02E10.Quid.Pro.Ho.1080p.10bit.BluRay.AAC5.1.HEVC-Vyndros.mkv (1.2 GB)
  • Lucifer.S02E11.Stewardess.Interruptus.1080p.10bit.BluRay.AAC5.1.HEVC-Vyndros.mkv (1,006.1 MB)
  • Lucifer.S02E12.Love.Handles.1080p.10bit.BluRay.AAC5.1.HEVC-Vyndros.mkv (1.0 GB)
  • Lucifer.S02E13.A.Good.Day.to.Die.1080p.10bit.BluRay.AAC5.1.HEVC-Vyndros.mkv (906.0 MB)
  • Lucifer.S02E14.Candy.Morningstar.1080p.10bit.BluRay.AAC5.1.HEVC-Vyndros.mkv (1.1 GB)
  • Lucifer.S02E15.Deceptive.Little.Parasite.1080p.10bit.BluRay.AAC5.1.HEVC-Vyndros.mkv (1.1 GB)
  • Lucifer.S02E16.God.Johnson.1080p.10bit.BluRay.AAC5.1.HEVC-Vyndros.mkv (963.6 MB)
  • Lucifer.S02E17.Sympathy.for.the.Goddess.1080p.10bit.BluRay.AAC5.1.HEVC-Vyndros.mkv (1.1 GB)
  • Lucifer.S02E18.The.Good,.the.Bad.and.the.Crispy.1080p.10bit.BluRay.AAC5.1.HEVC-Vyndros.mkv (1.1 GB)

Mediainfo

General 
Format : Matroska 
Format version : Version 4 / Version 2 
File size : 1 006 MiB 
Duration : 43 min 22 s 
Overall bit rate : 3 243 kb/s 
Encoded date : UTC 2019-04-18 22:27:43 
Writing application : mkvmerge v20.0.0 ('I Am The Sun') 64-bit 
Writing library : libebml v1.3.5 + libmatroska v1.4.8 
Writing frontend : StaxRip v1.7.0.6 

Video 
ID : 1 
Format : HEVC 
Format/Info : High Efficiency Video Coding 
Format profile : Main [email protected]@Main 
Codec ID : V_MPEGH/ISO/HEVC 
Duration : 43 min 22 s 
Bit rate : 2 725 kb/s 
Width : 1 920 pixels 
Height : 1 080 pixels 
Display aspect ratio : 16:9 
Frame rate mode : Constant 
Frame rate : 23.976 (24000/1001) FPS 
Color space : YUV 
Chroma subsampling : 4:2:0 
Bit depth : 10 bits 
Bits/(Pixel*Frame) : 0.055 
Stream size : 845 MiB (84%) 
Writing library : x265 3.0_Au+14-c7e5878bdd31:[Windows][GCC 8.3.0][64 bit] 10bit 
Encoding settings : cpuid=1111039 / frame-threads=2 / numa-pools=4 / wpp / no-pmode / no-pme / no-psnr / ssim / log-level=2 / input-csp=1 / input-res=1920x1080 / interlace=0 / total-frames=62392 / level-idc=0 / high-tier=1 / uhd-bd=0 / ref=3 / no-allow-non-conformance / no-repeat-headers / annexb / no-aud / no-hrd / info / hash=0 / no-temporal-layers / open-gop / min-keyint=23 / keyint=250 / gop-lookahead=0 / bframes=8 / b-adapt=2 / b-pyramid / bframe-bias=0 / rc-lookahead=50 / lookahead-slices=6 / scenecut=40 / radl=0 / no-splice / no-intra-refresh / ctu=64 / min-cu-size=8 / no-rect / no-amp / max-tu-size=32 / tu-inter-depth=1 / tu-intra-depth=1 / limit-tu=0 / rdoq-level=0 / dynamic-rd=0.00 / no-ssim-rd / signhide / no-tskip / nr-intra=0 / nr-inter=0 / no-constrained-intra / no-strong-intra-smoothing / max-merge=3 / limit-refs=3 / no-limit-modes / me=3 / subme=5 / merange=57 / temporal-mvp / weightp / no-weightb / no-analyze-src-pics / deblock=0:0 / sao / no-sao-non-deblock / rd=3 / no-early-skip / no-rskip / no-fast-intra / no-tskip-fast / no-cu-lossless / no-b-intra / no-splitrd-skip / rdpenalty=0 / psy-rd=2.00 / psy-rdoq=0.00 / no-rd-refine / no-lossless / cbqpoffs=0 / crqpoffs=0 / rc=crf / crf=20.0 / qcomp=0.60 / qpstep=4 / stats-write=0 / stats-read=0 / ipratio=1.40 / pbratio=1.30 / aq-mode=3 / aq-strength=1.00 / cutree / zone-count=0 / no-strict-cbr / qg-size=32 / no-rc-grain / qpmax=69 / qpmin=0 / no-const-vbv / sar=0 / overscan=0 / videoformat=5 / range=0 / colorprim=2 / transfer=2 / colormatrix=2 / chromaloc=0 / display-window=0 / max-cll=0,0 / min-luma=0 / max-luma=1023 / log2-max-poc-lsb=8 / vui-timing-info / vui-hrd-info / slices=1 / no-opt-qp-pps / no-opt-ref-list-length-pps / no-multi-pass-opt-rps / scenecut-bias=0.05 / no-opt-cu-delta-qp / no-aq-motion / no-hdr / no-hdr-opt / no-dhdr10-opt / no-idr-recovery-sei / analysis-reuse-level=5 / scale-factor=0 / refine-intra=0 / refine-inter=0 / refine-mv=0 / refine-ctu-distortion=0 / no-limit-sao / ctu-info=0 / no-lowpass-dct / refine-analysis-type=0 / copy-pic=1 / max-ausize-factor=1.0 / no-dynamic-refine / no-single-sei / no-hevc-aq / no-svt / qp-adaptation-range=1.00 
Default : Yes 
Forced : No 

Audio 
ID : 2 
Format : AAC 
Format/Info : Advanced Audio Codec 
Format profile : LC 
Codec ID : A_AAC 
Duration : 43 min 22 s 
Bit rate : 447 kb/s 
Channel(s) : 6 channels 
Channel positions : Front: L C R, Side: L R, LFE 
Sampling rate : 48.0 kHz 
Frame rate : 46.875 FPS (1024 spf) 
Compression mode : Lossy 
Stream size : 139 MiB (14%) 
Language : English 
Default : Yes 
Forced : No 

Subtitle 
ID : 3 
Format : PGS 
Muxing mode : zlib 
Codec ID : S_HDMV/PGS 
Codec ID/Info : Picture based subtitle format used on BDs/HD-DVDs 
Duration : 42 min 36 s 
Bit rate : 115 kb/s 
Count of elements : 2086 
Stream size : 35.1 MiB (3%) 
Language : English 
Default : No 
Forced : No

Download

Download: Google Drive (19.76 GB)

Season 3

Lucifer (2015) Season 3 S03 (1080p BluRay x265 HEVC 10bit AAC 5.1 Vyndros)

Files

Lucifer (2015) Season 3 S03 (1080p BluRay x265 HEVC 10bit AAC 5.1 Vyndros)

  • Lucifer.S03E01.They’re.Back.Again,.Aren’t.They.1080p.10bit.BluRay.AAC5.1.HEVC-Vyndros.mkv (1.0 GB)
  • Lucifer.S03E02.The.One.with.the.Baby.Carrot.1080p.10bit.BluRay.AAC5.1.HEVC-Vyndros.mkv (891.5 MB)
  • Lucifer.S03E03.Mr.&.Mrs.Mazikeen.Smith.1080p.10bit.BluRay.AAC5.1.HEVC-Vyndros.mkv (942.3 MB)
  • Lucifer.S03E04.What.Would.Lucifer.Do.1080p.10bit.BluRay.AAC5.1.HEVC-Vyndros.mkv (1,019.3 MB)
  • Lucifer.S03E05.Welcome.Back,.Charlotte.Richards.1080p.10bit.BluRay.AAC5.1.HEVC-Vyndros.mkv (897.2 MB)
  • Lucifer.S03E06.Vegas.with.Some.Radish.1080p.10bit.BluRay.AAC5.1.HEVC-Vyndros.mkv (1.2 GB)
  • Lucifer.S03E07.Off.the.Record.1080p.10bit.BluRay.AAC5.1.HEVC-Vyndros.mkv (1,003.5 MB)
  • Lucifer.S03E08.Chloe.Does.Lucifer.1080p.10bit.BluRay.AAC5.1.HEVC-Vyndros.mkv (1,017.3 MB)
  • Lucifer.S03E09.The.Sinnerman.1080p.10bit.BluRay.AAC5.1.HEVC-Vyndros.mkv (816.1 MB)
  • Lucifer.S03E10.The.Sin.Bin.1080p.10bit.BluRay.AAC5.1.HEVC-Vyndros.mkv (1.1 GB)
  • Lucifer.S03E11.City.of.Angels.1080p.10bit.BluRay.AAC5.1.HEVC-Vyndros.mkv (1.1 GB)
  • Lucifer.S03E12.All.About.Her.1080p.10bit.BluRay.AAC5.1.HEVC-Vyndros.mkv (1.2 GB)
  • Lucifer.S03E13.Til.Death.Do.Us.Part.1080p.10bit.BluRay.AAC5.1.HEVC-Vyndros.mkv (1.1 GB)
  • Lucifer.S03E14.My.Brother’s.Keeper.1080p.10bit.BluRay.AAC5.1.HEVC-Vyndros.mkv (931.7 MB)
  • Lucifer.S03E15.High.School.Poppycock.1080p.10bit.BluRay.AAC5.1.HEVC-Vyndros.mkv (986.3 MB)
  • Lucifer.S03E16.Infernal.Guinea.Pig.1080p.10bit.BluRay.AAC5.1.HEVC-Vyndros.mkv (961.7 MB)
  • Lucifer.S03E17.Let.Pinhead.Sing!.1080p.10bit.BluRay.AAC5.1.HEVC-Vyndros.mkv (1.1 GB)
  • Lucifer.S03E18.The.Last.Heartbreak.1080p.10bit.BluRay.AAC5.1.HEVC-Vyndros.mkv (865.3 MB)
  • Lucifer.S03E19.Orange.Is.the.New.Maze.1080p.10bit.BluRay.AAC5.1.HEVC-Vyndros.mkv (939.7 MB)
  • Lucifer.S03E20.The.Angel.of.San.Bernardino.1080p.10bit.BluRay.AAC5.1.HEVC-Vyndros.mkv (965.9 MB)
  • Lucifer.S03E21.Anything.Pierce.Can.Do.I.Can.Do.Better.1080p.10bit.BluRay.AAC5.1.HEVC-Vyndros.mkv (886.5 MB)
  • Lucifer.S03E22.All.Hands.on.Decker.1080p.10bit.BluRay.AAC5.1.HEVC-Vyndros.mkv (1.0 GB)
  • Lucifer.S03E23.Quintessential.Deckerstar.1080p.10bit.BluRay.AAC5.1.HEVC-Vyndros.mkv (891.8 MB)
  • Lucifer.S03E24.A.Devil.of.My.Word.1080p.10bit.BluRay.AAC5.1.HEVC-Vyndros.mkv (909.3 MB)
  • Lucifer.S03E25.Boo.Normal.1080p.10bit.BluRay.AAC5.1.HEVC-Vyndros.mkv (944.5 MB)
  • Lucifer.S03E26.Once.Upon.A.Time.1080p.10bit.BluRay.AAC5.1.HEVC-Vyndros.mkv (1.0 GB)

Mediainfo

General 
Format : Matroska 
Format version : Version 4 / Version 2 
File size : 1 017 MiB 
Duration : 44 min 3 s 
Overall bit rate : 3 229 kb/s 
Encoded date : UTC 2019-04-23 02:33:01 
Writing application : mkvmerge v20.0.0 ('I Am The Sun') 64-bit 
Writing library : libebml v1.3.5 + libmatroska v1.4.8 
Writing frontend : StaxRip v1.7.0.6 

Video 
ID : 1 
Format : HEVC 
Format/Info : High Efficiency Video Coding 
Format profile : Main [email protected]@Main 
Codec ID : V_MPEGH/ISO/HEVC 
Duration : 44 min 3 s 
Bit rate : 2 687 kb/s 
Width : 1 920 pixels 
Height : 1 080 pixels 
Display aspect ratio : 16:9 
Frame rate mode : Constant 
Frame rate : 23.976 (24000/1001) FPS 
Color space : YUV 
Chroma subsampling : 4:2:0 
Bit depth : 10 bits 
Bits/(Pixel*Frame) : 0.054 
Stream size : 847 MiB (83%) 
Writing library : x265 3.0_Au+14-c7e5878bdd31:[Windows][GCC 8.3.0][64 bit] 10bit 
Encoding settings : cpuid=1111039 / frame-threads=2 / numa-pools=4 / wpp / no-pmode / no-pme / no-psnr / ssim / log-level=2 / input-csp=1 / input-res=1920x1080 / interlace=0 / total-frames=63372 / level-idc=0 / high-tier=1 / uhd-bd=0 / ref=3 / no-allow-non-conformance / no-repeat-headers / annexb / no-aud / no-hrd / info / hash=0 / no-temporal-layers / open-gop / min-keyint=23 / keyint=250 / gop-lookahead=0 / bframes=8 / b-adapt=2 / b-pyramid / bframe-bias=0 / rc-lookahead=50 / lookahead-slices=6 / scenecut=40 / radl=0 / no-splice / no-intra-refresh / ctu=64 / min-cu-size=8 / no-rect / no-amp / max-tu-size=32 / tu-inter-depth=1 / tu-intra-depth=1 / limit-tu=0 / rdoq-level=0 / dynamic-rd=0.00 / no-ssim-rd / signhide / no-tskip / nr-intra=0 / nr-inter=0 / no-constrained-intra / no-strong-intra-smoothing / max-merge=3 / limit-refs=3 / no-limit-modes / me=3 / subme=5 / merange=57 / temporal-mvp / weightp / no-weightb / no-analyze-src-pics / deblock=0:0 / sao / no-sao-non-deblock / rd=3 / no-early-skip / no-rskip / no-fast-intra / no-tskip-fast / no-cu-lossless / no-b-intra / no-splitrd-skip / rdpenalty=0 / psy-rd=2.00 / psy-rdoq=0.00 / no-rd-refine / no-lossless / cbqpoffs=0 / crqpoffs=0 / rc=crf / crf=20.0 / qcomp=0.60 / qpstep=4 / stats-write=0 / stats-read=0 / ipratio=1.40 / pbratio=1.30 / aq-mode=3 / aq-strength=1.00 / cutree / zone-count=0 / no-strict-cbr / qg-size=32 / no-rc-grain / qpmax=69 / qpmin=0 / no-const-vbv / sar=0 / overscan=0 / videoformat=5 / range=0 / colorprim=2 / transfer=2 / colormatrix=2 / chromaloc=0 / display-window=0 / max-cll=0,0 / min-luma=0 / max-luma=1023 / log2-max-poc-lsb=8 / vui-timing-info / vui-hrd-info / slices=1 / no-opt-qp-pps / no-opt-ref-list-length-pps / no-multi-pass-opt-rps / scenecut-bias=0.05 / no-opt-cu-delta-qp / no-aq-motion / no-hdr / no-hdr-opt / no-dhdr10-opt / no-idr-recovery-sei / analysis-reuse-level=5 / scale-factor=0 / refine-intra=0 / refine-inter=0 / refine-mv=0 / refine-ctu-distortion=0 / no-limit-sao / ctu-info=0 / no-lowpass-dct / refine-analysis-type=0 / copy-pic=1 / max-ausize-factor=1.0 / no-dynamic-refine / no-single-sei / no-hevc-aq / no-svt / qp-adaptation-range=1.00 
Default : Yes 
Forced : No 

Audio 
ID : 2 
Format : AAC 
Format/Info : Advanced Audio Codec 
Format profile : LC 
Codec ID : A_AAC 
Duration : 44 min 3 s 
Bit rate : 447 kb/s 
Channel(s) : 6 channels 
Channel positions : Front: L C R, Side: L R, LFE 
Sampling rate : 48.0 kHz 
Frame rate : 46.875 FPS (1024 spf) 
Compression mode : Lossy 
Stream size : 141 MiB (14%) 
Language : English 
Default : Yes 
Forced : No 

Subtitle 
ID : 3 
Format : PGS 
Muxing mode : zlib 
Codec ID : S_HDMV/PGS 
Codec ID/Info : Picture based subtitle format used on BDs/HD-DVDs 
Duration : 43 min 7 s 
Bit rate : 136 kb/s 
Count of elements : 2274 
Stream size : 42.1 MiB (4%) 
Language : English 
Default : No 
Forced : No

Download

Download: Google Drive (25.32 GB)

Season 4

Lucifer (2013) Season 4 S04 (1080p BluRay x265 HEVC 10bit AAC 5.1 Vyndros)

Files

Lucifer (2013) Season 4 S04 (1080p BluRay x265 HEVC 10bit AAC 5.1 Vyndros)

  • Lucifer.S04E01.Everything’s.Okay.1080p.10bit.BluRay.AAC5.1.HEVC-Vyndros.mkv (1,021.3 MB)
  • Lucifer.S04E02.Somebody’s.Been.Reading.Dante’s.Inferno.1080p.10bit.BluRay.AAC5.1.HEVC-Vyndros.mkv (976.5 MB)
  • Lucifer.S04E03.O,.Ye.of.Little.Faith,.Father.1080p.10bit.BluRay.AAC5.1.HEVC-Vyndros.mkv (1.1 GB)
  • Lucifer.S04E04.All.About.Eve.1080p.10bit.BluRay.AAC5.1.HEVC-Vyndros.mkv (1.1 GB)
  • Lucifer.S04E05.Expire.Erect.1080p.10bit.BluRay.AAC5.1.HEVC-Vyndros.mkv (1.2 GB)
  • Lucifer.S04E06.Orgy.Pants.to.Work.1080p.10bit.BluRay.AAC5.1.HEVC-Vyndros.mkv (1.2 GB)
  • Lucifer.S04E07.Devil.Is.as.Devil.Does.1080p.10bit.BluRay.AAC5.1.HEVC-Vyndros.mkv (1,011.6 MB)
  • Lucifer.S04E08.Super.Bad.Boyfriend.1080p.10bit.BluRay.AAC5.1.HEVC-Vyndros.mkv (1.2 GB)
  • Lucifer.S04E09.Save.Lucifer.1080p.10bit.BluRay.AAC5.1.HEVC-Vyndros.mkv (1.1 GB)
  • Lucifer.S04E10.Who’s.da.New.King.of.Hell.1080p.10bit.BluRay.AAC5.1.HEVC-Vyndros.mkv (1.1 GB)

Mediainfo

General
Format                                   : Matroska
Format version                           : Version 4 / Version 2
File size                                : 1.15 GiB
Duration                                 : 48 min 56 s
Overall bit rate                         : 3 351 kb/s
Movie name                               : Lucifer - S04E03 - O, Ye of Little Faith, Father
Encoded date                             : UTC 2020-05-30 19:38:43
Writing application                      : mkvmerge v20.0.0 ('I Am The Sun') 64-bit
Writing library                          : libebml v1.3.5 + libmatroska v1.4.8
Writing frontend                         : StaxRip v1.7.0.6

Video
ID                                       : 1
Format                                   : HEVC
Format/Info                              : High Efficiency Video Coding
Format profile                           : Main [email protected]@Main
Codec ID                                 : V_MPEGH/ISO/HEVC
Duration                                 : 48 min 56 s
Bit rate                                 : 2 914 kb/s
Width                                    : 1 920 pixels
Height                                   : 1 080 pixels
Display aspect ratio                     : 16:9
Frame rate mode                          : Constant
Frame rate                               : 23.976 (24000/1001) FPS
Color space                              : YUV
Chroma subsampling                       : 4:2:0
Bit depth                                : 10 bits
Bits/(Pixel*Frame)                       : 0.059
Stream size                              : 1 020 MiB (87%)
Writing library                          : x265 3.3+1-g554c887ac:[Windows][MSVC 1924][64 bit] 10bit
Encoding settings                        : cpuid=1111039 / frame-threads=3 / numa-pools=12 / wpp / no-pmode / no-pme / no-psnr / ssim / log-level=2 / input-csp=1 / input-res=1920x1080 / interlace=0 / total-frames=70416 / level-idc=0 / high-tier=1 / uhd-bd=0 / ref=3 / no-allow-non-conformance / no-repeat-headers / annexb / no-aud / no-hrd / info / hash=0 / no-temporal-layers / open-gop / min-keyint=23 / keyint=250 / gop-lookahead=0 / bframes=8 / b-adapt=2 / b-pyramid / bframe-bias=0 / rc-lookahead=80 / lookahead-slices=6 / scenecut=40 / hist-scenecut=0 / radl=0 / no-splice / no-intra-refresh / ctu=64 / min-cu-size=8 / no-rect / no-amp / max-tu-size=32 / tu-inter-depth=1 / tu-intra-depth=1 / limit-tu=0 / rdoq-level=0 / dynamic-rd=0.00 / no-ssim-rd / signhide / no-tskip / nr-intra=0 / nr-inter=0 / no-constrained-intra / no-strong-intra-smoothing / max-merge=3 / limit-refs=1 / no-limit-modes / me=3 / subme=5 / merange=57 / temporal-mvp / no-frame-dup / no-hme / weightp / no-weightb / no-analyze-src-pics / deblock=0:0 / sao / no-sao-non-deblock / rd=3 / selective-sao=4 / early-skip / no-rskip / no-fast-intra / no-tskip-fast / no-cu-lossless / b-intra / no-splitrd-skip / rdpenalty=0 / psy-rd=2.00 / psy-rdoq=0.00 / no-rd-refine / no-lossless / cbqpoffs=0 / crqpoffs=0 / rc=crf / crf=20.0 / qcomp=0.60 / qpstep=4 / stats-write=0 / stats-read=0 / ipratio=1.40 / pbratio=1.30 / aq-mode=3 / aq-strength=1.00 / cutree / zone-count=0 / no-strict-cbr / qg-size=32 / no-rc-grain / qpmax=69 / qpmin=0 / no-const-vbv / sar=0 / overscan=0 / videoformat=5 / range=0 / colorprim=2 / transfer=2 / colormatrix=2 / chromaloc=0 / display-window=0 / cll=0,0 / min-luma=0 / max-luma=1023 / log2-max-poc-lsb=8 / vui-timing-info / vui-hrd-info / slices=1 / no-opt-qp-pps / no-opt-ref-list-length-pps / no-multi-pass-opt-rps / scenecut-bias=0.05 / hist-threshold=0.01 / no-opt-cu-delta-qp / no-aq-motion / no-hdr10 / no-hdr10-opt / no-dhdr10-opt / no-idr-recovery-sei / analysis-reuse-level=0 / analysis-save-reuse-level=0 / analysis-load-reuse-level=0 / scale-factor=0 / refine-intra=0 / refine-inter=0 / refine-mv=1 / refine-ctu-distortion=0 / no-limit-sao / ctu-info=0 / no-lowpass-dct / refine-analysis-type=0 / copy-pic=1 / max-ausize-factor=1.0 / no-dynamic-refine / no-single-sei / no-hevc-aq / no-svt / no-field / qp-adaptation-range=1.00 / no-scenecut-aware-qpconformance-window-offsets / right=0 / bottom=0
Default                                  : Yes
Forced                                   : No

Audio
ID                                       : 2
Format                                   : AAC
Format/Info                              : Advanced Audio Codec
Format profile                           : LC
Codec ID                                 : A_AAC
Duration                                 : 48 min 56 s
Bit rate                                 : 409 kb/s
Channel(s)                               : 6 channels
Channel positions                        : Front: L C R, Side: L R, LFE
Sampling rate                            : 48.0 kHz
Frame rate                               : 46.875 FPS (1024 spf)
Compression mode                         : Lossy
Delay relative to video                  : 20 ms
Stream size                              : 143 MiB (12%)
Language                                 : English
Default                                  : Yes
Forced                                   : Yes

Subtitle
ID                                       : 3
Format                                   : PGS
Muxing mode                              : zlib
Codec ID                                 : S_HDMV/PGS
Codec ID/Info                            : Picture based subtitle format used on BDs/HD-DVDs
Duration                                 : 47 min 38 s
Bit rate                                 : 50.6 kb/s
Count of elements                        : 2112
Stream size                              : 17.2 MiB (1%)
Language                                 : English
Default                                  : No
Forced                                   : No

Screens












Download

Download: Google Drive (11.02 GB)

8 thoughts on “Lucifer (2015) Season 1-4 (1080p BluRay x265 HEVC 10bit AAC 5.1 Vyndros)

  1. Sir can u upload all 1080p bluray latest english tv shows like RCVR VYNDROS etc.Some names are;
    Pennyworth
    PennyDreadful
    Justified
    The Deuce
    Rectify
    Deaignated Survivor
    Krypton
    The ALIENIST
    The Americans
    The Good Fight
    Sucession
    His Dark Materials
    Ash vs Evil Dead
    Big Little Lies
    The Rain (2018–)
    iZombie (2015–2019)
    The Mist (2017)
    One Punch Man (2015–)
    Black Mirror (2011–)
    The Terror (2018–)
    Homecoming (2018–)
    Good Omens (2019)
    Maniac (2018)
    Russian Doll (2019–)
    Legion (2017–2019)
    A Very English Scandal (2018)
    Warrior (2019–)
    Instinct (2018–)
    How to Get Away with Murder (2014–)
    Lethal Weapon (2016–2019)
    Bloodline (2015–2017)
    The Crown (2016–)
    Lodge 49 (2018–)
    The Leftovers (2014–2017)
    Dead to Me (2019–)
    Babylon (2019–)
    Dr. Stone (2019–)
    Halt and Catch Fire (2014–2017)
    Startup s01 to s03
    plzzzz upload these tv series sir I will be very thankful👌😘

Leave a Reply