Lost (2004) Season 1-6 + Extras (1080p BluRay x265 HEVC 10bit AAC 5.1 Silence)

Summary: After their plane, Oceanic Air flight 815, tore apart whilst thousands of miles off course, the survivors find themselves on a mysterious deserted island where they soon find out they are not alone.

Season 1

Lost (2004) Season 1 S01 + Extras (1080p BluRay x265 HEVC 10bit AAC 5.1 Silence)

Files

  • Lost (2004) – S01E01 – Pilot (1) (1080p BluRay x265 Silence).mkv (1.3 GB)
  • Lost (2004) – S01E02 – Pilot (2) (1080p BluRay x265 Silence).mkv (1.3 GB)
  • Lost (2004) – S01E03 – Tabula Rasa (1080p BluRay x265 Silence).mkv (1.3 GB)
  • Lost (2004) – S01E04 – Walkabout (1080p BluRay x265 Silence).mkv (1.6 GB)
  • Lost (2004) – S01E05 – White Rabbit (1080p BluRay x265 Silence).mkv (1.3 GB)
  • Lost (2004) – S01E06 – House of the Rising Sun (1080p BluRay x265 Silence).mkv (1.3 GB)
  • Lost (2004) – S01E07 – The Moth (1080p BluRay x265 Silence).mkv (1.2 GB)
  • Lost (2004) – S01E08 – Confidence Man (1080p BluRay x265 Silence).mkv (1.3 GB)
  • Lost (2004) – S01E09 – Solitary (1080p BluRay x265 Silence).mkv (1.2 GB)
  • Lost (2004) – S01E10 – Raised by Another (1080p BluRay x265 Silence).mkv (1.3 GB)
  • Lost (2004) – S01E11 – All the Best Cowboys Have Daddy Issues (1080p BluRay x265 Silence).mkv (1.3 GB)
  • Lost (2004) – S01E12 – Whatever the Case May Be (1080p BluRay x265 Silence).mkv (1.5 GB)
  • Lost (2004) – S01E13 – Hearts and Minds (1080p BluRay x265 Silence).mkv (1.5 GB)
  • Lost (2004) – S01E14 – Special (1080p BluRay x265 Silence).mkv (1.1 GB)
  • Lost (2004) – S01E15 – Homecoming (1080p BluRay x265 Silence).mkv (1.0 GB)
  • Lost (2004) – S01E16 – Outlaws (1080p BluRay x265 Silence).mkv (1.1 GB)
  • Lost (2004) – S01E17 – …In Translation (1080p BluRay x265 Silence).mkv (1.1 GB)
  • Lost (2004) – S01E18 – Numbers (1080p BluRay x265 Silence).mkv (1.4 GB)
  • Lost (2004) – S01E19 – Deus Ex Machina (1080p BluRay x265 Silence).mkv (1.4 GB)
  • Lost (2004) – S01E20 – Do No Harm (1080p BluRay x265 Silence).mkv (1.0 GB)
  • Lost (2004) – S01E21 – The Greater Good (a.k.a. Sides) (1080p BluRay x265 Silence).mkv (1.1 GB)
  • Lost (2004) – S01E22 – Born to Run (1080p BluRay x265 Silence).mkv (1.3 GB)
  • Lost (2004) – S01E23 – Exodus (1) (1080p BluRay x265 Silence).mkv (1.3 GB)
  • Lost (2004) – S01E24 – Exodus (2) (1080p BluRay x265 Silence).mkv (1.7 GB)
  • Lost (2004) – S01E25 – Exodus (3) (1080p BluRay x265 Silence).mkv (1.3 GB

Audition Tapes

      • Dominic Monaghan.mkv (4.3 MB)
      • Emilie De Ravin.mkv (8.9 MB)
      • Evangeline Lilly.mkv (8.1 MB)
      • Harold Perrineau.mkv (6.4 MB)
      • Ian Somerhalder.mkv (5.2 MB)
      • Jorge Garcia.mkv (8.0 MB)
      • Josh Holloway.mkv (5.1 MB)
      • Maggie Grace.mkv (7.1 MB)
      • Malcolm David Kelly.mkv (4.3 MB)
      • Matthew Fox.mkv (14.7 MB)
      • Naveen Andrews.mkv (9.0 MB)
      • Yunjin Kim.mkv (5.6 MB)
      • Daniel Dae Kim.mkv (4.7 MB)

Deleted Scenes

      • A Deal’s a Deal.mkv (2.1 MB)
      • Chicken or Lasagne.mkv (2.0 MB)
      • Claire’s Doctor Visit.mkv (4.6 MB)
      • Finding the Tell.mkv (4.9 MB)
      • Kate & Sayid.mkv (3.1 MB)
      • Partners.mkv (3.1 MB)
      • Secrets.mkv (6.8 MB)
      • Smoking.mkv (2.8 MB)
      • The Climb.mkv (10.3 MB)
      • The Huddle.mkv (2.9 MB)
      • The Jack Situation.mkv (2.0 MB)
      • Whispers.mkv (2.4 MB)

Departure

      • Before They Were Lost.mkv (102.9 MB)
      • Designing a Disaster.mkv (50.3 MB)
      • [email protected] (12.9 MB)
      • The Art of Matthew Fox.mkv (36.9 MB)
      • The Genesis of Lost.mkv (36.2 MB)
      • Welcome to Oahu.mkv (239.5 MB)

Lost Revealed

      • Bloopers from the Set.mkv (53.6 MB)
      • Flashbacks & Mythology.mkv (147.2 MB)
      • Live from the Museum of Television & Radio.mkv (98.6 MB)

The Lost Flashbacks

        • At the Airport – Claire.mkv (8.0 MB)
        • At the Airport – Sayid.mkv (4.6 MB)
        • Reel 10120 For Vincent.mkv (51.1 MB)
        • Reel 10152 Where Did You Go.mkv (52.1 MB)

Tales from the Island

          • Backstage with Drive Shaft.mkv (122.3 MB)

Lost – On Location

          • Confidence Man.mkv (92.4 MB)
          • Exodus.mkv (235.8 MB)
          • Hearts and Minds.mkv (103.9 MB)
          • House of the Rising Sun.mkv (136.6 MB)
          • ll the Best Cowboys Have Daddy Issues.mkv (118.4 MB)
          • Special.mkv (66.1 MB)
          • The Trouble with Boars.mkv (157.5 MB)
          • Whatever the Case May Be.mkv (42.7 MB)
        • On Set with Jimmy Kimmel.mkv (252.7 MB)
        • The Moth.mkv (104.9 MB)
        • White Rabbit.mkv (194.0 MB)

Mediainfo

General
Format : Matroska
Format version : Version 4 / Version 2
File size : 1.32 GiB
Duration : 42 min 20 s
Overall bit rate : 4 472 kb/s
Encoded date : UTC 2018-08-08 16:44:52
Writing application : mkvmerge v20.0.0 ('I Am The Sun') 64-bit
Writing library : libebml v1.3.5 + libmatroska v1.4.8
Writing frontend : StaxRip v1.7.0.6

Video
ID : 1
Format : HEVC
Format/Info : High Efficiency Video Coding
Format profile : Main [email protected]@Main
Codec ID : V_MPEGH/ISO/HEVC
Duration : 42 min 20 s
Bit rate : 3 892 kb/s
Width : 1 920 pixels
Height : 1 080 pixels
Display aspect ratio : 16:9
Frame rate mode : Constant
Frame rate : 23.976 (24000/1001) FPS
Color space : YUV
Chroma subsampling : 4:2:0
Bit depth : 10 bits
Bits/(Pixel*Frame) : 0.078
Stream size : 1.15 GiB (87%)
Writing library : x265 2.8+10-703eade86b53:[Windows][MSVC 1900][64 bit] 10bit
Encoding settings : cpuid=1111039 / frame-threads=4 / numa-pools=16 / wpp / no-pmode / no-pme / no-psnr / no-ssim / log-level=2 / input-csp=1 / input-res=1920x1080 / interlace=0 / total-frames=60912 / level-idc=0 / high-tier=1 / uhd-bd=0 / ref=4 / no-allow-non-conformance / no-repeat-headers / annexb / no-aud / no-hrd / info / hash=0 / no-temporal-layers / open-gop / min-keyint=23 / keyint=250 / gop-lookahead=0 / bframes=8 / b-adapt=2 / b-pyramid / bframe-bias=0 / rc-lookahead=80 / lookahead-slices=4 / scenecut=40 / radl=0 / no-intra-refresh / ctu=64 / min-cu-size=8 / no-rect / no-amp / max-tu-size=32 / tu-inter-depth=1 / tu-intra-depth=1 / limit-tu=0 / rdoq-level=2 / dynamic-rd=0.00 / no-ssim-rd / signhide / no-tskip / nr-intra=0 / nr-inter=0 / no-constrained-intra / no-strong-intra-smoothing / max-merge=3 / limit-refs=3 / limit-modes / me=3 / subme=5 / merange=57 / temporal-mvp / weightp / weightb / no-analyze-src-pics / deblock=-3:-3 / no-sao / no-sao-non-deblock / rd=4 / no-early-skip / rskip / no-fast-intra / no-tskip-fast / no-cu-lossless / no-b-intra / no-splitrd-skip / rdpenalty=0 / psy-rd=1.20 / psy-rdoq=1.50 / no-rd-refine / no-lossless / cbqpoffs=0 / crqpoffs=0 / rc=crf / crf=21.0 / qcomp=0.60 / qpstep=4 / stats-write=0 / stats-read=0 / ipratio=1.40 / pbratio=1.30 / aq-mode=3 / aq-strength=1.00 / cutree / zone-count=0 / no-strict-cbr / qg-size=32 / no-rc-grain / qpmax=69 / qpmin=0 / no-const-vbv / sar=0 / overscan=0 / videoformat=5 / range=0 / colorprim=2 / transfer=2 / colormatrix=2 / chromaloc=0 / display-window=0 / max-cll=0,0 / min-luma=0 / max-luma=1023 / log2-max-poc-lsb=8 / vui-timing-info / vui-hrd-info / slices=1 / no-opt-qp-pps / no-opt-ref-list-length-pps / no-multi-pass-opt-rps / scenecut-bias=0.05 / no-opt-cu-delta-qp / no-aq-motion / no-hdr / no-hdr-opt / no-dhdr10-opt / no-idr-recovery-sei / analysis-reuse-level=5 / scale-factor=0 / refine-intra=0 / refine-inter=0 / refine-mv=0 / no-limit-sao / ctu-info=0 / no-lowpass-dct / refine-mv-type=0 / copy-pic=1 / max-ausize-factor=1.0 / no-dynamic-refine / no-single-sei
Default : Yes
Forced : No

Audio #1
ID : 2
Format : AAC
Format/Info : Advanced Audio Codec
Format profile : LC
Codec ID : A_AAC
Duration : 42 min 20 s
Bit rate : 432 kb/s
Channel(s) : 6 channels
Channel positions : Front: L C R, Side: L R, LFE
Sampling rate : 48.0 kHz
Frame rate : 46.875 FPS (1024 spf)
Compression mode : Lossy
Delay relative to video : 20 ms
Stream size : 131 MiB (10%)
Language : English
Default : No
Forced : No

Audio #2
ID : 3
Format : AAC
Format/Info : Advanced Audio Codec
Format profile : LC
Codec ID : A_AAC
Duration : 42 min 20 s
Bit rate : 115 kb/s
Channel(s) : 2 channels
Channel positions : Front: L R
Sampling rate : 48.0 kHz
Frame rate : 46.875 FPS (1024 spf)
Compression mode : Lossy
Delay relative to video : 9 ms
Stream size : 34.8 MiB (3%)
Language : English
Default : No
Forced : No

Subtitle #1
ID : 4
Format : PGS
Muxing mode : zlib
Codec ID : S_HDMV/PGS
Codec ID/Info : Picture based subtitle format used on BDs/HD-DVDs
Duration : 38 min 37 s
Bit rate : 17.7 kb/s
Count of elements : 570
Stream size : 4.89 MiB (0%)
Language : English
Default : No
Forced : No

Subtitle #2
ID : 5
Format : PGS
Muxing mode : zlib
Codec ID : S_HDMV/PGS
Codec ID/Info : Picture based subtitle format used on BDs/HD-DVDs
Duration : 41 min 12 s
Bit rate : 18.6 kb/s
Count of elements : 680
Stream size : 5.48 MiB (0%)
Language : English
Default : No
Forced : No

Subtitle #3
ID : 6
Format : PGS
Muxing mode : zlib
Codec ID : S_HDMV/PGS
Codec ID/Info : Picture based subtitle format used on BDs/HD-DVDs
Duration : 42 min 13 s
Bit rate : 60.0 kb/s
Count of elements : 1403
Stream size : 18.1 MiB (1%)
Language : English
Default : No
Forced : No

Menu
00:00:00.000 : en:Chapter 1
00:07:32.035 : en:Chapter 2
00:21:16.775 : en:Chapter 3
00:30:07.848 : en:Chapter 4
00:39:01.965 : en:Chapter 5
00:41:39.539 : en:Chapter 6

Screens

Download

Download: Google Drive

Extras: Google Drive

Season 2

Lost (2004) Season 2 S02 + Extras (1080p BluRay x265 HEVC 10bit AAC 5.1 Silence)

Files

  • Lost (2004) – S02E01 – Man of Science, Man of Faith (1080p BluRay x265 Silence).mkv (1.2 GB)
  • Lost (2004) – S02E02 – Adrift (1080p BluRay x265 Silence).mkv (1.2 GB)
  • Lost (2004) – S02E03 – Orientation (1080p BluRay x265 Silence).mkv (1.3 GB)
  • Lost (2004) – S02E04 – Everybody Hates Hugo (1080p BluRay x265 Silence).mkv (1.2 GB)
  • Lost (2004) – S02E05 – …And Found (1080p BluRay x265 Silence).mkv (1.7 GB)
  • Lost (2004) – S02E06 – Abandoned (1080p BluRay x265 Silence).mkv (1.3 GB)
  • Lost (2004) – S02E07 – The Other 48 Days (1080p BluRay x265 Silence).mkv (1.7 GB)
  • Lost (2004) – S02E08 – Collision (a.k.a. Old Habits) (1080p BluRay x265 Silence).mkv (1.4 GB)
  • Lost (2004) – S02E09 – What Kate Did (1080p BluRay x265 Silence).mkv (1.1 GB)
  • Lost (2004) – S02E10 – The 23rd Psalm (1080p BluRay x265 Silence).mkv (1.2 GB)
  • Lost (2004) – S02E11 – The Hunting Party (1080p BluRay x265 Silence).mkv (1,016.7 MB)
  • Lost (2004) – S02E12 – Fire + Water (1080p BluRay x265 Silence).mkv (1.3 GB)
  • Lost (2004) – S02E13 – The Long Con (1080p BluRay x265 Silence).mkv (1.1 GB)
  • Lost (2004) – S02E14 – One of Them (1080p BluRay x265 Silence).mkv (1.2 GB)
  • Lost (2004) – S02E15 – Maternity Leave (1080p BluRay x265 Silence).mkv (1.3 GB)
  • Lost (2004) – S02E16 – The Whole Truth (1080p BluRay x265 Silence).mkv (1.2 GB)
  • Lost (2004) – S02E17 – Lockdown (1080p BluRay x265 Silence).mkv (1.1 GB)
  • Lost (2004) – S02E18 – Dave (1080p BluRay x265 Silence).mkv (1.9 GB)
  • Lost (2004) – S02E19 – S.O.S. (1080p BluRay x265 Silence).mkv (1.4 GB)
  • Lost (2004) – S02E20 – Two for the Road (1080p BluRay x265 Silence).mkv (1.1 GB)
  • Lost (2004) – S02E21 – Questionmark (1080p BluRay x265 Silence).mkv (1.3 GB)
  • Lost (2004) – S02E22 – Three Minutes (1080p BluRay x265 Silence).mkv (1.4 GB)
  • Lost (2004) – S02E23 – Live Together, Die Alone (1) (1080p BluRay x265 Silence).mkv (1.7 GB)
  • Lost (2004) – S02E24 – Live Together, Die Alone (2) (1080p BluRay x265 Silence).mkv (1.5 GB)

Deleted Scenes

      • 01. Seeing Walt.mkv (3.7 MB)
      • 02. Kate’s Choice.mkv (1.5 MB)
      • 03. Good With Kids.mkv (1.7 MB)
      • 04. A Little You Time.mkv (7.2 MB)
      • 05. Sawyer’s Visitor.mkv (6.4 MB)
      • 06. Dinner Time.mkv (3.1 MB)
      • 07. Special Delivery.mkv (3.6 MB)
      • 08. Ana Lucia’s Prisoner.mkv (5.7 MB)
      • 09. The Saw.mkv (818.0 KB)
      • 10. Libby & Claire.mkv (4.4 MB)
      • 11. Giving Care.mkv (2.4 MB)
      • 12. Connected.mkv (2.7 MB)
      • 13. I Need to Know.mkv (3.8 MB)
      • 14. Scissors.mkv (1.4 MB)
      • 15. The Doctor’s Solution.mkv (5.8 MB)
      • 16. What’s Your Story.mkv (8.9 MB)
      • 17. Weakness.mkv (1.7 MB)
      • 18. Are You All Right.mkv (3.7 MB)
      • 19. I Miss.mkv (2.6 MB)
      • Fire + Water – Anatomy Of An Episode.mkv (171.2 MB)

Hidden Extras

        • Bernard in a Tree.mkv (9.3 MB)
        • Dharma Cookies.mkv (7.1 MB)
        • History of Jeronimo Jackson.mkv (3.4 MB)
        • Hurley’s Sweat.mkv (2.6 MB)
        • Jack’s Trip.mkv (2.4 MB)
        • On The Beach with Evi.mkv (18.7 MB)
        • Rain Delays.mkv (7.5 MB)

Lost – On Location

        • 01. Adrift.mkv (18.3 MB)
        • 02. Everybody Hates Hugo.mkv (29.8 MB)
        • 03. Abandoned.mkv (30.1 MB)
        • 04. The Other 48 Days.mkv (50.9 MB)
        • 05. Collision.mkv (22.3 MB)
        • 06. What Kate Did.mkv (36.9 MB)
        • 07. The 23rd Psalm.mkv (24.3 MB)
        • 08. The Whole Truth.mkv (19.4 MB)
        • 09. Dave.mkv (34.9 MB)
        • 10. S.O.S.mkv (22.2 MB)
        • 11. Two For The Road.mkv (19.1 MB)
        • 12. Live Together, Die Alone.mkv (41.6 MB)
        • 13. Canine Castaways.mkv (42.9 MB)
      • Lost Bloopers.mkv (10.3 MB)
      • Lost Connections.mkv (9.9 MB)
      • Mysteries, Conspiracies and Theories.mkv (46.0 MB)
      • Secrets from the Hatch.mkv (72.0 MB)

The Lost Flashbacks

      • 01. The Wake.mkv (4.3 MB)
      • 02. The New Au Pair.mkv (3.7 MB)
      • 03. Locke’s Father.mkv (3.0 MB)
    • The World According to Sawyer.mkv (22.6 MB)
    • Channel 4 UK Promo Directed by David LaChapelle.mkv (6.9 MB)

Mediainfo

General
Format : Matroska
Format version : Version 4 / Version 2
File size : 1.24 GiB
Duration : 43 min 17 s
Overall bit rate : 4 092 kb/s
Encoded date : UTC 2018-07-14 23:37:16
Writing application : mkvmerge v20.0.0 ('I Am The Sun') 64-bit
Writing library : libebml v1.3.5 + libmatroska v1.4.8
Writing frontend : StaxRip v1.7.0.6

Video
ID : 1
Format : HEVC
Format/Info : High Efficiency Video Coding
Format profile : Main [email protected]@Main
Codec ID : V_MPEGH/ISO/HEVC
Duration : 43 min 17 s
Bit rate : 3 520 kb/s
Width : 1 920 pixels
Height : 1 080 pixels
Display aspect ratio : 16:9
Frame rate mode : Constant
Frame rate : 23.976 (24000/1001) FPS
Color space : YUV
Chroma subsampling : 4:2:0
Bit depth : 10 bits
Bits/(Pixel*Frame) : 0.071
Stream size : 1.06 GiB (86%)
Writing library : x265 2.8+10-703eade86b53:[Windows][MSVC 1900][64 bit] 10bit
Encoding settings : cpuid=1111039 / frame-threads=4 / numa-pools=16 / wpp / no-pmode / no-pme / no-psnr / no-ssim / log-level=2 / input-csp=1 / input-res=1920x1080 / interlace=0 / total-frames=62280 / level-idc=0 / high-tier=1 / uhd-bd=0 / ref=4 / no-allow-non-conformance / no-repeat-headers / annexb / no-aud / no-hrd / info / hash=0 / no-temporal-layers / open-gop / min-keyint=23 / keyint=250 / gop-lookahead=0 / bframes=8 / b-adapt=2 / b-pyramid / bframe-bias=0 / rc-lookahead=80 / lookahead-slices=4 / scenecut=40 / radl=0 / no-intra-refresh / ctu=64 / min-cu-size=8 / no-rect / no-amp / max-tu-size=32 / tu-inter-depth=1 / tu-intra-depth=1 / limit-tu=0 / rdoq-level=2 / dynamic-rd=0.00 / no-ssim-rd / signhide / no-tskip / nr-intra=0 / nr-inter=0 / no-constrained-intra / no-strong-intra-smoothing / max-merge=3 / limit-refs=3 / limit-modes / me=3 / subme=5 / merange=57 / temporal-mvp / weightp / weightb / no-analyze-src-pics / deblock=-3:-3 / no-sao / no-sao-non-deblock / rd=4 / no-early-skip / rskip / no-fast-intra / no-tskip-fast / no-cu-lossless / no-b-intra / no-splitrd-skip / rdpenalty=0 / psy-rd=1.20 / psy-rdoq=1.50 / no-rd-refine / no-lossless / cbqpoffs=0 / crqpoffs=0 / rc=crf / crf=21.5 / qcomp=0.60 / qpstep=4 / stats-write=0 / stats-read=0 / ipratio=1.40 / pbratio=1.30 / aq-mode=3 / aq-strength=1.00 / cutree / zone-count=0 / no-strict-cbr / qg-size=32 / no-rc-grain / qpmax=69 / qpmin=0 / no-const-vbv / sar=0 / overscan=0 / videoformat=5 / range=0 / colorprim=2 / transfer=2 / colormatrix=2 / chromaloc=0 / display-window=0 / max-cll=0,0 / min-luma=0 / max-luma=1023 / log2-max-poc-lsb=8 / vui-timing-info / vui-hrd-info / slices=1 / no-opt-qp-pps / no-opt-ref-list-length-pps / no-multi-pass-opt-rps / scenecut-bias=0.05 / no-opt-cu-delta-qp / no-aq-motion / no-hdr / no-hdr-opt / no-dhdr10-opt / no-idr-recovery-sei / analysis-reuse-level=5 / scale-factor=0 / refine-intra=0 / refine-inter=0 / refine-mv=0 / no-limit-sao / ctu-info=0 / no-lowpass-dct / refine-mv-type=0 / copy-pic=1 / max-ausize-factor=1.0 / no-dynamic-refine / no-single-sei
Default : Yes
Forced : No

Audio #1
ID : 2
Format : AAC
Format/Info : Advanced Audio Codec
Format profile : LC
Codec ID : A_AAC
Duration : 43 min 17 s
Bit rate : 423 kb/s
Channel(s) : 6 channels
Channel positions : Front: L C R, Side: L R, LFE
Sampling rate : 48.0 kHz
Frame rate : 46.875 FPS (1024 spf)
Compression mode : Lossy
Delay relative to video : 20 ms
Stream size : 131 MiB (10%)
Language : English
Default : Yes
Forced : No

Audio #2
ID : 3
Format : AAC
Format/Info : Advanced Audio Codec
Format profile : LC
Codec ID : A_AAC
Duration : 43 min 17 s
Bit rate : 105 kb/s
Channel(s) : 2 channels
Channel positions : Front: L R
Sampling rate : 48.0 kHz
Frame rate : 46.875 FPS (1024 spf)
Compression mode : Lossy
Delay relative to video : 9 ms
Stream size : 32.6 MiB (3%)
Language : English
Default : No
Forced : No

Subtitle #1
ID : 4
Format : PGS
Muxing mode : zlib
Codec ID : S_HDMV/PGS
Codec ID/Info : Picture based subtitle format used on BDs/HD-DVDs
Duration : 42 min 26 s
Bit rate : 23.2 kb/s
Count of elements : 770
Stream size : 7.04 MiB (1%)
Language : English
Default : No
Forced : No

Subtitle #2
ID : 5
Format : PGS
Muxing mode : zlib
Codec ID : S_HDMV/PGS
Codec ID/Info : Picture based subtitle format used on BDs/HD-DVDs
Duration : 42 min 26 s
Bit rate : 25.0 kb/s
Count of elements : 840
Stream size : 7.57 MiB (1%)
Language : English
Default : No
Forced : No

Subtitle #3
ID : 6
Format : PGS
Muxing mode : zlib
Codec ID : S_HDMV/PGS
Codec ID/Info : Picture based subtitle format used on BDs/HD-DVDs
Duration : 42 min 26 s
Bit rate : 21.6 kb/s
Count of elements : 772
Stream size : 6.54 MiB (1%)
Language : Danish
Default : No
Forced : No

Subtitle #4
ID : 7
Format : PGS
Muxing mode : zlib
Codec ID : S_HDMV/PGS
Codec ID/Info : Picture based subtitle format used on BDs/HD-DVDs
Duration : 42 min 49 s
Bit rate : 59.9 kb/s
Count of elements : 1387
Stream size : 18.3 MiB (1%)
Language : Danish
Default : No
Forced : No

Menu
00:00:00.000 : en:Chapter 1
00:04:16.965 : en:Chapter 2
00:11:46.789 : en:Chapter 3
00:20:31.313 : en:Chapter 4
00:28:41.595 : en:Chapter 5
00:38:07.410 : en:Chapter 6
00:42:36.137 : en:Chapter 7

Screens

Download

Download: Google Drive

Extras: Google Drive

Season 3

Lost (2004) Season 3 S03 + Extras (1080p BluRay x265 HEVC 10bit AAC 5.1 Silence)

Files

  • Lost (2004) – S03E01 – A Tale of Two Cities (1080p BluRay x265 Silence).mkv (1.3 GB)
  • Lost (2004) – S03E02 – The Glass Ballerina (1080p BluRay x265 Silence).mkv (1.3 GB)
  • Lost (2004) – S03E03 – Further Instructions (1080p BluRay x265 Silence).mkv (1.7 GB)
  • Lost (2004) – S03E04 – Every Man for Himself (1080p BluRay x265 Silence).mkv (1.4 GB)
  • Lost (2004) – S03E05 – The Cost of Living (1080p BluRay x265 Silence).mkv (1.3 GB)
  • Lost (2004) – S03E06 – I Do (1080p BluRay x265 Silence).mkv (1.4 GB)
  • Lost (2004) – S03E07 – Not In Portland (1080p BluRay x265 Silence).mkv (1.2 GB)
  • Lost (2004) – S03E08 – Flashes Before Your Eyes (1080p BluRay x265 Silence).mkv (1.3 GB)
  • Lost (2004) – S03E09 – Stranger In A Strange Land (1080p BluRay x265 Silence).mkv (1.4 GB)
  • Lost (2004) – S03E10 – Tricia Tanaka is Dead (1080p BluRay x265 Silence).mkv (1.5 GB)
  • Lost (2004) – S03E11 – Enter 77 (1080p BluRay x265 Silence).mkv (1.3 GB)
  • Lost (2004) – S03E12 – Par Avion (1080p BluRay x265 Silence).mkv (1.5 GB)
  • Lost (2004) – S03E13 – The Man From Tallahassee (1080p BluRay x265 Silence).mkv (962.1 MB)
  • Lost (2004) – S03E14 – Exposé (1080p BluRay x265 Silence).mkv (1.5 GB)
  • Lost (2004) – S03E15 – Left Behind (1080p BluRay x265 Silence).mkv (1.4 GB)
  • Lost (2004) – S03E16 – One of Us (1080p BluRay x265 Silence).mkv (1.4 GB)
  • Lost (2004) – S03E17 – Catch-22 (1080p BluRay x265 Silence).mkv (1.6 GB)
  • Lost (2004) – S03E18 – D.O.C. (1080p BluRay x265 Silence).mkv (1.3 GB)
  • Lost (2004) – S03E19 – The Brig (1080p BluRay x265 Silence).mkv (1.3 GB)
  • Lost (2004) – S03E20 – The Man Behind the Curtain (1080p BluRay x265 Silence).mkv (1.4 GB)
  • Lost (2004) – S03E21 – Greatest Hits (1080p BluRay x265 Silence).mkv (1.6 GB)
  • Lost (2004) – S03E22 – Through The Looking Glass (1) (1080p BluRay x265 Silence).mkv (1.4 GB)
  • Lost (2004) – S03E23 – Through The Looking Glass (2) (1080p BluRay x265 Silence).mkv (1.5 GB)

Access – Granted01. flight_815_crash

      • Interview.mkv (13.8 MB)
      • Montage.mkv (12.6 MB)
      • Damon and Carlton.mkv (10.8 MB)

02. pushing_the_button

      • Damon and Carlton.mkv (12.3 MB)
      • Interview.mkv (14.1 MB)
      • Montage.mkv (16.5 MB)

03. electromagnetic_threat

      • Damon and Carlton.mkv (11.1 MB)
      • Interview.mkv (13.5 MB)
      • Montage.mkv (21.0 MB)

04. supply_drops

      • Damon and Carlton.mkv (11.8 MB)
      • Interview.mkv (10.2 MB)
      • Montage.mkv (15.0 MB)

05. walt-psychic_powers

      • Damon and Carlton.mkv (9.0 MB)
      • Interview.mkv (11.9 MB)
      • Montage.mkv (16.0 MB)

06. walt-hatch_computer

      • Interview.mkv (12.9 MB)
      • Montage.mkv (10.4 MB)

07. walt-room_23

      • Damon and Carlton.mkv (9.7 MB)
      • Interview.mkv (12.7 MB)
      • Montage.mkv (10.9 MB)

08. polar_bears

      • Damon and Carlton.mkv (13.4 MB)
      • Interview.mkv (14.3 MB)
      • Montage.mkv (16.4 MB)

09. mittelos_bioscience

      • Damon and Carlton.mkv (13.9 MB)
      • Interview.mkv (11.5 MB)
      • Montage.mkv (16.7 MB)

10. deceased

      • Damon and Carlton.mkv (12.6 MB)
      • Interview.mkv (14.3 MB)
      • Montage.mkv (17.0 MB)

11. hostiles-others

      • Damon and Carlton.mkv (14.1 MB)
      • Interview.mkv (15.9 MB)
      • Montage.mkv (16.4 MB)

12. locke_paralysis

      • Damon and Carlton.mkv (10.1 MB)
      • Interview.mkv (13.8 MB)
      • Montage.mkv (18.7 MB)

13. marvin_candle-mark_wickmund-edgar_halliwax

      • Damon and Carlton.mkv (8.7 MB)
      • Interview.mkv (12.8 MB)
      • Montage.mkv (8.5 MB)

14. henry_gale

      • Damon and Carlton.mkv (10.0 MB)
      • Interview.mkv (11.3 MB)
      • Montage.mkv (10.1 MB)

15. richard_alpert

      • Damon and Carlton.mkv (10.2 MB)
      • Interview.mkv (10.0 MB)
      • Montage.mkv (7.9 MB)

16. monitoring_station

      • Damon and Carlton.mkv (10.3 MB)
      • Interview.mkv (15.0 MB)
      • Montage.mkv (13.5 MB)

17. anthony_cooper

      • Damon and Carlton.mkv (6.0 MB)
      • Interview.mkv (9.5 MB)
      • Montage.mkv (10.8 MB)

18. dharma_films

      • Damon and Carlton.mkv (12.8 MB)
      • Interview.mkv (9.5 MB)
      • Montage.mkv (12.9 MB)

19. hieroglyphics

      • Damon and Carlton.mkv (12.8 MB)
      • Interview.mkv (9.2 MB)
      • Montage.mkv (8.1 MB)

20. blast_door_map

      • Damon and Carlton.mkv (9.4 MB)
      • Interview.mkv (12.1 MB)
      • Montage.mkv (11.7 MB)
      • Intro – Damon and Carlton.mkv (6.7 MB)

Blu-Prints

        • 1. Hydra Cages.mkv (170.9 MB)
        • 2. Ben’s House.mkv (105.6 MB)
        • 3. Hydra Operation Room.mkv (90.5 MB)
        • 4. Looking Glass Moon Pool.mkv (79.9 MB)
        • 5. Othersville.mkv (124.6 MB)

Deleted Scenes

        • 1. Doctor to the Rescue.mkv (40.8 MB)
        • 2. Introducing Nikki & Paulo.mkv (27.7 MB)
        • 3. Sex Talk.mkv (27.9 MB)
        • 4. Breaking Rocks.mkv (34.4 MB)
        • 5. Alex & Daddy.mkv (20.7 MB)
        • 6. Super Powers, Dude.mkv (18.4 MB)
        • 7. Charlie Carries On.mkv (27.2 MB)
        • 8. Changing Our Luck.mkv (13.6 MB)
        • 9. The Journey to Jacob’s Place.mkv (4.6 MB)

Featurettes

        • Bloopers.mkv (161.8 MB)
        • Cast in Clay – Creating the Toys of Todd McFarlane.mkv (111.9 MB)
        • Crew Tribute with Evangeline Lilly.mkv (238.8 MB)
        • Lost in a Day.mkv (552.0 MB)
        • Terry O’Quinn – Throwing From The Handle.mkv (70.6 MB)
        • The Lost Book Club.mkv (164.1 MB)
        • The World of the Others.mkv (326.0 MB)

Hidden Extras

        • Chickens.mkv (24.8 MB)
        • Crossword Puzzle.mkv (31.0 MB)
        • Edgar Haliwax at the Orchid.mkv (56.1 MB)
        • Hydra Flood.mkv (87.7 MB)
        • Jin vs Mikhail.mkv (215.6 MB)
        • Lulu.mkv (47.9 MB)
        • Medusa’s Keepers.mkv (59.9 MB)
        • Michael and Jack – The Crew.mkv (67.1 MB)
        • Nigerian Makeup.mkv (70.0 MB)
        • Polar Bear CRIBS.mkv (45.7 MB)
        • Scrabble.mkv (23.2 MB)
        • Shaved Ice.mkv (57.6 MB)
        • Submarine.mkv (76.9 MB)
        • Table Tennis.mkv (65.2 MB)
        • Waterfall Dive.mkv (73.0 MB)

Lost- On Location

        • 01. The Glass Ballerina.mkv (86.5 MB)
        • 02. Every Man for Himself.mkv (185.9 MB)
        • 03. Not in Portland.mkv (248.9 MB)
        • 04. Flashes Before Your Eyes.mkv (190.2 MB)
        • 05. Tricia Tanaka is Dead.mkv (163.6 MB)
        • 06. The Man from Tallahassee.mkv (97.4 MB)
        • 07. Exposé.mkv (162.3 MB)
        • 08. The Man Behind The Curtain.mkv (197.9 MB)
        • 09. Greatest Hits.mkv (160.0 MB)
        • 10. Through the Looking Glass.mkv (238.8 MB)

The Lost Flashbacks

      • 1. Locke Escapes.mkv (22.2 MB)
      • 2. Funeral Scene.mkv (6.3 MB)
      • 3. People Can Change.mkv (78.3 MB)

Mediainfo

General
Format : Matroska
Format version : Version 4 / Version 2
File size : 1.30 GiB
Duration : 43 min 18 s
Overall bit rate : 4 302 kb/s
Encoded date : UTC 2018-08-11 00:51:19
Writing application : mkvmerge v20.0.0 ('I Am The Sun') 64-bit
Writing library : libebml v1.3.5 + libmatroska v1.4.8
Writing frontend : StaxRip v1.7.0.6

Video
ID : 1
Format : HEVC
Format/Info : High Efficiency Video Coding
Format profile : Main [email protected]@Main
Codec ID : V_MPEGH/ISO/HEVC
Duration : 43 min 18 s
Bit rate : 3 739 kb/s
Width : 1 920 pixels
Height : 1 080 pixels
Display aspect ratio : 16:9
Frame rate mode : Constant
Frame rate : 23.976 (24000/1001) FPS
Color space : YUV
Chroma subsampling : 4:2:0
Bit depth : 10 bits
Bits/(Pixel*Frame) : 0.075
Stream size : 1.13 GiB (87%)
Writing library : x265 2.8+10-703eade86b53:[Windows][MSVC 1900][64 bit] 10bit
Encoding settings : cpuid=1111039 / frame-threads=4 / numa-pools=16 / wpp / no-pmode / no-pme / no-psnr / no-ssim / log-level=2 / input-csp=1 / input-res=1920x1080 / interlace=0 / total-frames=62304 / level-idc=0 / high-tier=1 / uhd-bd=0 / ref=5 / no-allow-non-conformance / no-repeat-headers / annexb / no-aud / no-hrd / info / hash=0 / no-temporal-layers / open-gop / min-keyint=23 / keyint=250 / gop-lookahead=0 / bframes=8 / b-adapt=2 / b-pyramid / bframe-bias=0 / rc-lookahead=80 / lookahead-slices=4 / scenecut=40 / radl=0 / no-intra-refresh / ctu=64 / min-cu-size=8 / no-rect / no-amp / max-tu-size=32 / tu-inter-depth=1 / tu-intra-depth=1 / limit-tu=0 / rdoq-level=2 / dynamic-rd=0.00 / no-ssim-rd / signhide / no-tskip / nr-intra=0 / nr-inter=0 / no-constrained-intra / no-strong-intra-smoothing / max-merge=3 / limit-refs=3 / limit-modes / me=3 / subme=5 / merange=57 / temporal-mvp / weightp / weightb / no-analyze-src-pics / deblock=-3:-3 / no-sao / no-sao-non-deblock / rd=4 / no-early-skip / rskip / no-fast-intra / no-tskip-fast / no-cu-lossless / no-b-intra / no-splitrd-skip / rdpenalty=0 / psy-rd=1.00 / psy-rdoq=1.00 / no-rd-refine / no-lossless / cbqpoffs=0 / crqpoffs=0 / rc=crf / crf=21.5 / qcomp=0.60 / qpstep=4 / stats-write=0 / stats-read=0 / ipratio=1.40 / pbratio=1.30 / aq-mode=3 / aq-strength=1.00 / cutree / zone-count=0 / no-strict-cbr / qg-size=32 / no-rc-grain / qpmax=69 / qpmin=0 / no-const-vbv / sar=0 / overscan=0 / videoformat=5 / range=0 / colorprim=2 / transfer=2 / colormatrix=2 / chromaloc=0 / display-window=0 / max-cll=0,0 / min-luma=0 / max-luma=1023 / log2-max-poc-lsb=8 / vui-timing-info / vui-hrd-info / slices=1 / no-opt-qp-pps / no-opt-ref-list-length-pps / no-multi-pass-opt-rps / scenecut-bias=0.05 / no-opt-cu-delta-qp / no-aq-motion / no-hdr / no-hdr-opt / no-dhdr10-opt / no-idr-recovery-sei / analysis-reuse-level=5 / scale-factor=0 / refine-intra=0 / refine-inter=0 / refine-mv=0 / no-limit-sao / ctu-info=0 / no-lowpass-dct / refine-mv-type=0 / copy-pic=1 / max-ausize-factor=1.0 / no-dynamic-refine / no-single-sei
Default : Yes
Forced : No

Audio #1
ID : 2
Format : AAC
Format/Info : Advanced Audio Codec
Format profile : LC
Codec ID : A_AAC
Duration : 43 min 18 s
Bit rate : 412 kb/s
Channel(s) : 6 channels
Channel positions : Front: L C R, Side: L R, LFE
Sampling rate : 48.0 kHz
Frame rate : 46.875 FPS (1024 spf)
Compression mode : Lossy
Delay relative to video : 20 ms
Stream size : 128 MiB (10%)
Language : English
Default : Yes
Forced : No

Audio #2
ID : 3
Format : AAC
Format/Info : Advanced Audio Codec
Format profile : LC
Codec ID : A_AAC
Duration : 43 min 18 s
Bit rate : 132 kb/s
Channel(s) : 2 channels
Channel positions : Front: L R
Sampling rate : 48.0 kHz
Frame rate : 46.875 FPS (1024 spf)
Compression mode : Lossy
Delay relative to video : 9 ms
Stream size : 41.1 MiB (3%)
Language : English
Default : No
Forced : No

Subtitle #1
ID : 4
Format : PGS
Muxing mode : zlib
Codec ID : S_HDMV/PGS
Codec ID/Info : Picture based subtitle format used on BDs/HD-DVDs
Duration : 42 min 18 s
Bit rate : 16.8 kb/s
Count of elements : 728
Stream size : 5.08 MiB (0%)
Language : English
Default : No
Forced : No

Subtitle #2
ID : 5
Format : PGS
Muxing mode : zlib
Codec ID : S_HDMV/PGS
Codec ID/Info : Picture based subtitle format used on BDs/HD-DVDs
Duration : 43 min 12 s
Bit rate : 55.7 kb/s
Count of elements : 1581
Stream size : 17.2 MiB (1%)
Language : English
Default : No
Forced : No

Menu
00:00:00.000 : en:Chapter 1
00:04:41.490 : en:Chapter 2
00:10:43.226 : en:Chapter 3
00:17:43.479 : en:Chapter 4
00:25:21.019 : en:Chapter 5
00:32:30.407 : en:Chapter 6
00:42:36.095 : en:Chapter 7

Screens

Download

Download: Google Drive

Extras: Google Drive

Season 4

Lost (2004) Season 4 S04 + Extras (1080p BluRay x265 HEVC 10bit AAC 5.1 Silence)

Files

    • Lost (2004) – S04E02 – Confirmed Dead (1080p BluRay x265 Silence).mkv (2.3 GB)
    • Lost (2004) – S04E01 – The Beginning of the End (1080p BluRay x265 Silence).mkv (1.7 GB)
    • Lost (2004) – S04E03 – The Economist (1080p BluRay x265 Silence).mkv (1.8 GB)
    • Lost (2004) – S04E04 – Eggtown (1080p BluRay x265 Silence).mkv (1.1 GB)
    • Lost (2004) – S04E05 – The Constant (1080p BluRay x265 Silence).mkv (1.2 GB)
    • Lost (2004) – S04E06 – The Other Woman (1080p BluRay x265 Silence).mkv (1.4 GB)
    • Lost (2004) – S04E07 – Ji Yeon (1080p BluRay x265 Silence).mkv (1.2 GB)
    • Lost (2004) – S04E08 – Meet Kevin Johnson (1080p BluRay x265 Silence).mkv (1.0 GB)
    • Lost (2004) – S04E09 – The Shape of Things to Come (1080p BluRay x265 Silence).mkv (1.3 GB)
    • Lost (2004) – S04E10 – Something Nice Back Home (1080p BluRay x265 Silence).mkv (1.3 GB)
    • Lost (2004) – S04E11 – Cabin Fever (1080p BluRay x265 Silence).mkv (1.4 GB)
    • Lost (2004) – S04E12 – There’s No Place Like Home (1) (1080p BluRay x265 Silence).mkv (1.7 GB)
    • Lost (2004) – S04E13 – There’s No Place Like Home (2) (1080p BluRay x265 Silence).mkv (1.9 GB)
    • Lost (2004) – S04E14 – There’s No Place Like Home (3) (1080p BluRay x265 Silence).mkv (1.6 GB)

Lost S04 Extras

      • Course of the Future – The Definitive Flash-Forwards.mkv (857.0 MB)

Deleted Scenes

        • 1. Thinking Ahead.mkv (16.7 MB)
        • 2. Lucky Guess.mkv (34.6 MB)
        • 3. I Know Chicken.mkv (23.4 MB)
        • 4. Unpopular Decision.mkv (7.9 MB)
        • 5. Desert Stash.mkv (20.3 MB)
        • 6. Claire’s Vision.mkv (8.8 MB)
        • 7. Trust.mkv (17.4 MB)
        • 8. Church Arrival.mkv (21.3 MB)
        • 9. Lost Journal.mkv (13.5 MB)

Hidden Extras

        • Alternate Endings Introduction.mkv (17.6 MB)
        • Alternate Endings.mkv (28.9 MB)
        • Ben in the Desert.mkv (25.0 MB)
        • Damon Lindelof and Carlton Cuse Introduce The Definitive Flash-Forwards.mkv (51.1 MB)
        • Damon Lindelof on Reincarnation.mkv (5.0 MB)
        • Desmond in the Army.mkv (41.9 MB)
        • Iraqi Costumes.mkv (31.8 MB)
        • Jin and Bernard Fishing.mkv (72.8 MB)
        • M.C. Gainey.mkv (7.9 MB)
        • Sound Wagon.mkv (31.8 MB)
        • Speculation on Hurley.mkv (17.1 MB)
        • Substitutes in Lost.mkv (31.8 MB)
        • The Death of Karl and Danielle.mkv (165.6 MB)
        • The Press Conference.mkv (44.2 MB)
        • The Reach of the Island.mkv (4.7 MB)
        • The Tempest Dairy Station.mkv (20.6 MB)
        • Tommy Lohmann bantering with Michael Emerson.mkv (21.1 MB)
      • LOST – A Recap.mkv (235.8 MB)
      • LOST Bloopers.mkv (144.7 MB)

LOST on Location

        • 1. The Beginning of the End.mkv (141.6 MB)
        • 2. Confirmed Dead.mkv (189.8 MB)
        • 3. The Constant.mkv (140.6 MB)
        • 4. The Other Woman.mkv (181.0 MB)
        • 5. Meet Kevin Johnson.mkv (84.5 MB)
        • 6. The Shape of Things to Come.mkv (282.0 MB)
        • 7. Cabin Fever.mkv (131.5 MB)
        • 8. There’s No Place Like Home, Part 2.mkv (208.9 MB)

Missing Pieces

        • Lost (2004) – S00E17 – Missing Pieces (1) The Watch (1080p BluRay x265 Silence).mkv (71.4 MB)
        • Lost (2004) – S00E18 – Missing Pieces (2) The Adventures of Hurley and Frogurt (1080p BluRay x265 Silence).mkv (37.2 MB)
        • Lost (2004) – S00E19 – Missing Pieces (3) King of the Castle (1080p BluRay x265 Silence).mkv (35.1 MB)
        • Lost (2004) – S00E20 – Missing Pieces (4) The Deal (1080p BluRay x265 Silence).mkv (27.8 MB)
        • Lost (2004) – S00E21 – Missing Pieces (5) Operation Sleeper (1080p BluRay x265 Silence).mkv (17.8 MB)
        • Lost (2004) – S00E22 – Missing Pieces (6) Room 23 (1080p BluRay x265 Silence).mkv (14.1 MB)
        • Lost (2004) – S00E23 – Missing Pieces (7) Arzt & Crafts (1080p BluRay x265 Silence).mkv (60.4 MB)
        • Lost (2004) – S00E24 – Missing Pieces (8) Buried Secrets (1080p BluRay x265 Silence).mkv (79.5 MB)
        • Lost (2004) – S00E25 – Missing Pieces (9) Tropical Depression (1080p BluRay x265 Silence).mkv (75.7 MB)
        • Lost (2004) – S00E26 – Missing Pieces (10) Jack, Meet Ethan Ethan Jack (1080p BluRay x265 Silence).mkv (49.3 MB)
        • Lost (2004) – S00E27 – Missing Pieces (11) Jin Has a Temper-Tantrum On the Golf Course (1080p BluRay x265 Silence).mkv (41.8 MB)
        • Lost (2004) – S00E28 – Missing Pieces (12) The Envelope (1080p BluRay x265 Silence).mkv (64.9 MB)
        • Lost (2004) – S00E29 – Missing Pieces (13) So It Begins (1080p BluRay x265 Silence).mkv (78.0 MB)

More From The Symphony

      • 1. The Others Theme (Uncut).mkv (143.6 MB)
      • 2. Messages in a Bottle.mkv (118.5 MB)
      • 3. Giacchino in Script.mkv (65.6 MB)
    • Offshore Shoot.mkv (223.9 MB)
    • Soundtrack of Survival – Composing for Character, Conflict & the Crash.mkv (684.5 MB)
    • The Freighter Folk.mkv (363.5 MB)
    • The Island Backlot – Lost in Hawaii.mkv (685.8 MB)
    • The Oceanic Six – A Conspiracy of Lies.mkv (455.6 MB)
    • The Right To Bear Arms.mkv (286.5 MB)

Mediainfo

General
Format : Matroska
Format version : Version 4 / Version 2
File size : 1.70 GiB
Duration : 43 min 8 s
Overall bit rate : 5 625 kb/s
Encoded date : UTC 2018-08-24 15:54:21
Writing application : mkvmerge v20.0.0 ('I Am The Sun') 64-bit
Writing library : libebml v1.3.5 + libmatroska v1.4.8
Writing frontend : StaxRip v1.7.0.6

Video
ID : 1
Format : HEVC
Format/Info : High Efficiency Video Coding
Format profile : Main [email protected]@Main
Codec ID : V_MPEGH/ISO/HEVC
Duration : 43 min 8 s
Bit rate : 5 034 kb/s
Width : 1 920 pixels
Height : 1 080 pixels
Display aspect ratio : 16:9
Frame rate mode : Constant
Frame rate : 23.976 (24000/1001) FPS
Color space : YUV
Chroma subsampling : 4:2:0
Bit depth : 10 bits
Bits/(Pixel*Frame) : 0.101
Stream size : 1.52 GiB (89%)
Writing library : x265 2.8+66-88ee12651e30:[Windows][MSVC 1900][64 bit] 10bit
Encoding settings : cpuid=1111039 / frame-threads=4 / numa-pools=16 / wpp / no-pmode / no-pme / no-psnr / no-ssim / log-level=2 / input-csp=1 / input-res=1920x1080 / interlace=0 / total-frames=62064 / level-idc=0 / high-tier=1 / uhd-bd=0 / ref=5 / no-allow-non-conformance / no-repeat-headers / annexb / no-aud / no-hrd / info / hash=0 / no-temporal-layers / open-gop / min-keyint=23 / keyint=250 / gop-lookahead=0 / bframes=8 / b-adapt=2 / b-pyramid / bframe-bias=0 / rc-lookahead=80 / lookahead-slices=4 / scenecut=40 / radl=0 / no-intra-refresh / ctu=64 / min-cu-size=8 / no-rect / no-amp / max-tu-size=32 / tu-inter-depth=1 / tu-intra-depth=1 / limit-tu=0 / rdoq-level=2 / dynamic-rd=0.00 / no-ssim-rd / signhide / no-tskip / nr-intra=0 / nr-inter=0 / no-constrained-intra / no-strong-intra-smoothing / max-merge=3 / limit-refs=3 / limit-modes / me=3 / subme=5 / merange=57 / temporal-mvp / weightp / weightb / no-analyze-src-pics / deblock=-3:-3 / no-sao / no-sao-non-deblock / rd=4 / no-early-skip / rskip / no-fast-intra / no-tskip-fast / no-cu-lossless / no-b-intra / no-splitrd-skip / rdpenalty=0 / psy-rd=1.00 / psy-rdoq=1.00 / no-rd-refine / no-lossless / cbqpoffs=0 / crqpoffs=0 / rc=crf / crf=21.5 / qcomp=0.60 / qpstep=4 / stats-write=0 / stats-read=0 / ipratio=1.40 / pbratio=1.30 / aq-mode=3 / aq-strength=1.00 / cutree / zone-count=0 / no-strict-cbr / qg-size=32 / no-rc-grain / qpmax=69 / qpmin=0 / no-const-vbv / sar=0 / overscan=0 / videoformat=5 / range=0 / colorprim=2 / transfer=2 / colormatrix=2 / chromaloc=0 / display-window=0 / max-cll=0,0 / min-luma=0 / max-luma=1023 / log2-max-poc-lsb=8 / vui-timing-info / vui-hrd-info / slices=1 / no-opt-qp-pps / no-opt-ref-list-length-pps / no-multi-pass-opt-rps / scenecut-bias=0.05 / no-opt-cu-delta-qp / no-aq-motion / no-hdr / no-hdr-opt / no-dhdr10-opt / no-idr-recovery-sei / analysis-reuse-level=5 / scale-factor=0 / refine-intra=0 / refine-inter=0 / refine-mv=0 / no-limit-sao / ctu-info=0 / no-lowpass-dct / refine-mv-type=0 / copy-pic=1 / max-ausize-factor=1.0 / no-dynamic-refine / no-single-sei
Default : Yes
Forced : No

Audio #1
ID : 2
Format : AAC
Format/Info : Advanced Audio Codec
Format profile : LC
Codec ID : A_AAC
Duration : 43 min 8 s
Bit rate : 457 kb/s
Channel(s) : 6 channels
Channel positions : Front: L C R, Side: L R, LFE
Sampling rate : 48.0 kHz
Frame rate : 46.875 FPS (1024 spf)
Compression mode : Lossy
Delay relative to video : 20 ms
Stream size : 141 MiB (8%)
Language : English
Default : Yes
Forced : No

Audio #2
ID : 3
Format : AAC
Format/Info : Advanced Audio Codec
Format profile : LC
Codec ID : A_AAC
Duration : 43 min 8 s
Bit rate : 106 kb/s
Channel(s) : 2 channels
Channel positions : Front: L R
Sampling rate : 48.0 kHz
Frame rate : 46.875 FPS (1024 spf)
Compression mode : Lossy
Delay relative to video : 9 ms
Stream size : 32.7 MiB (2%)
Language : English
Default : No
Forced : No

Subtitle #1
ID : 4
Format : PGS
Muxing mode : zlib
Codec ID : S_HDMV/PGS
Codec ID/Info : Picture based subtitle format used on BDs/HD-DVDs
Duration : 42 min 12 s
Bit rate : 21.4 kb/s
Count of elements : 932
Stream size : 6.46 MiB (0%)
Language : English
Default : No
Forced : No

Subtitle #2
ID : 5
Format : PGS
Muxing mode : zlib
Codec ID : S_HDMV/PGS
Codec ID/Info : Picture based subtitle format used on BDs/HD-DVDs
Duration : 42 min 12 s
Bit rate : 22.7 kb/s
Count of elements : 1012
Stream size : 6.84 MiB (0%)
Language : English
Default : No
Forced : No

Subtitle #3
ID : 6
Format : PGS
Muxing mode : zlib
Codec ID : S_HDMV/PGS
Codec ID/Info : Picture based subtitle format used on BDs/HD-DVDs
Duration : 42 min 12 s
Bit rate : 19.8 kb/s
Count of elements : 932
Stream size : 5.97 MiB (0%)
Language : Danish
Default : No
Forced : No

Subtitle #4
ID : 7
Format : PGS
Muxing mode : zlib
Codec ID : S_HDMV/PGS
Codec ID/Info : Picture based subtitle format used on BDs/HD-DVDs
Duration : 42 min 59 s
Bit rate : 40.7 kb/s
Count of elements : 1404
Stream size : 12.5 MiB (1%)
Language : Danish
Default : No
Forced : No

Menu
00:00:00.000 : en:Chapter 01
00:03:43.932 : en:Chapter 02
00:12:20.490 : en:Chapter 03
00:19:40.971 : en:Chapter 04
00:25:03.419 : en:Chapter 05
00:32:30.782 : en:Chapter 06
00:42:31.841 : en:Chapter 07

Screens

Download

Download: Google Drive

Extras: Google Drive

Season 5

Lost (2004) Season 5 S05 + Extras (1080p BluRay x265 HEVC 10bit AAC 5.1 Silence)

Files

  • Lost (2004) – S05E01 – Because You Left (1080p BluRay x265 Silence).mkv (1.7 GB)
  • Lost (2004) – S05E02 – The Lie (1080p BluRay x265 Silence).mkv (1.2 GB)
  • Lost (2004) – S05E03 – Jughead (1080p BluRay x265 Silence).mkv (1.9 GB)
  • Lost (2004) – S05E04 – The Little Prince (1080p BluRay x265 Silence).mkv (1.3 GB)
  • Lost (2004) – S05E05 – This Place Is Death (1080p BluRay x265 Silence).mkv (1.6 GB)
  • Lost (2004) – S05E06 – 316 (1080p BluRay x265 Silence).mkv (1.3 GB)
  • Lost (2004) – S05E07 – The Life and Death of Jeremy Bentham (1080p BluRay x265 Silence).mkv (1.3 GB)
  • Lost (2004) – S05E08 – LaFleur (1080p BluRay x265 Silence).mkv (1.6 GB)
  • Lost (2004) – S05E09 – Namaste (1080p BluRay x265 Silence).mkv (1.6 GB)
  • Lost (2004) – S05E10 – He’s Our You (1080p BluRay x265 Silence).mkv (1.3 GB)
  • Lost (2004) – S05E11 – Whatever Happened, Happened (1080p BluRay x265 Silence).mkv (1.4 GB)
  • Lost (2004) – S05E12 – Dead Is Dead (1080p BluRay x265 Silence).mkv (1.3 GB)
  • Lost (2004) – S05E13 – Some Like It Hoth (1080p BluRay x265 Silence).mkv (1.4 GB)
  • Lost (2004) – S05E14 – The Variable (1080p BluRay x265 Silence).mkv (1.3 GB)
  • Lost (2004) – S05E15 – Follow the Leader (1080p BluRay x265 Silence).mkv (1.4 GB)
  • Lost (2004) – S05E16 – The Incident (1) (1080p BluRay x265 Silence).mkv (1.8 GB)
  • Lost (2004) – S05E17 – The Incident (2) (1080p BluRay x265 Silence).mkv (1.6 GB)

Featurettes

    • ABC Starter Kit (LOST Series Recap).mkv (120.8 MB)
    • An Epic Day with Richard Alpert.mkv (424.2 MB)
    • Bloopers.mkv (154.5 MB)
    • Building 23 & Beyond with Michael Emerson.mkv (258.3 MB)

Deleted Scenes

      • 1. No Police.mkv (2.5 MB)
      • 2. Jill the Butcher.mkv (2.6 MB)
      • 3. Finding LaFleur.mkv (2.6 MB)
      • 4. I think He’s One of Ben’s People.mkv (3.8 MB)
      • 5. Breakfast Time.mkv (4.1 MB)
      • 6. Locke’s Promise.mkv (4.1 MB)
      • 7. Phil’s Theory.mkv (7.3 MB)
      • 8. Stones & Boulders.mkv (32.3 MB)

Hidden Extras

      • Ass-dirt.mkv (16.3 MB)
      • Boat in a Bottle.mkv (108.2 MB)
      • Cheech Marin’s Sandwich.mkv (22.2 MB)
      • Damon and Carlton at 100th Episode Party.mkv (72.8 MB)
      • Dharma Times.mkv (9.6 MB)
      • Dharma Van Horn.mkv (28.2 MB)
      • Evil Walt.mkv (18.0 MB)
      • Frogurt’s Return.mkv (20.4 MB)
      • Horses on Set.mkv (49.7 MB)
      • Jacob.mkv (32.9 MB)
      • Jin’s Make-up.mkv (18.8 MB)
      • Jorge Garcia and Michelle Rodriguez Get Caught Up.mkv (19.0 MB)
      • Michael Emerson on Scripts and Acting.mkv (45.4 MB)
      • Michael Emerson on Watching LOST.mkv (81.1 MB)
      • Painting a Sphinx.mkv (3.2 MB)
      • Stunt Coordinators.mkv (58.4 MB)
    • LOST 100.mkv (788.3 MB)

Lost University

      • 1. Introduction.mkv (11.3 MB)
      • 2. Orientation.mkv (34.4 MB)

Art 101 Seminar Inspiration & Expression with Jack Bender

        • Class 1.mkv (47.5 MB)

History 101 Ancient Writing on the Wall

        • Class 1 – Ancient Egypt & the Medu Netjer.mkv (45.8 MB)
        • Class 2 – Deciphering Hieroglyphics.mkv (36.5 MB)

Philosophy 101 I’m LOST, Therefore I Am

        • Class 1 – Important & Influential Thinkers.mkv (34.0 MB)
        • Class 2 – A State of Nature Building a New Society.mkv (59.0 MB)

Philosophy 201 I’m Right, You’re Wrong

        • Class 1 – The Us vs. Them Mentality.mkv (62.2 MB)
        • Discussion 1 – Complex Relationships.mkv (17.3 MB)

Physics 101 Introductory Physics of Time Travel

        • Class 1 – The Perception of Time.mkv (40.3 MB)
        • Class 2 – The Realities of Time Travel.mkv (46.3 MB)

Physics 201 Advanced Physics of Time Travel

        • Class 1 – A Clash in Time.mkv (37.1 MB)
        • Class 2 – The Effects of Time Travel.mkv (44.0 MB)

Physics 301 Seminar New physics with Jeremy Davies

        • Class 1.mkv (39.0 MB)

Psychology 201 Self Discovery Through Family Relationships

        • Class 1.mkv (64.6 MB)

Science 201 Jungle Survival Basics

        • Class 1 – Jungle Survival Basics.mkv (53.1 MB)
        • Exam 1 – Jungle Survival.mkv (7.0 MB)
      • Making up for LOST Time.mkv (550.1 MB)
      • Mysteries of the Universe – The DHARMA Initiative.mkv (135.2 MB)

On Location

      • 1. The Lie.mkv (137.2 MB)
      • 2. The Little Prince.mkv (196.9 MB)
      • 3. The Life and Death of Jeremy Bentham.mkv (292.8 MB)
      • 4. Namaste.mkv (129.2 MB)
      • 5. He’s Our You.mkv (277.5 MB)
      • 6. Whatever Happened, Happened.mkv (237.6 MB)
      • 7. The Incident.mkv (438.0 MB)

Mediainfo

General
Format : Matroska
Format version : Version 4 / Version 2
File size : 1.74 GiB
Duration : 43 min 4 s
Overall bit rate : 5 777 kb/s
Encoded date : UTC 2018-09-02 09:47:39
Writing application : mkvmerge v20.0.0 ('I Am The Sun') 64-bit
Writing library : libebml v1.3.5 + libmatroska v1.4.8
Writing frontend : StaxRip v1.7.0.6

Video
ID : 1
Format : HEVC
Format/Info : High Efficiency Video Coding
Format profile : Main [email protected]@Main
Codec ID : V_MPEGH/ISO/HEVC
Duration : 43 min 4 s
Bit rate : 5 225 kb/s
Width : 1 920 pixels
Height : 1 080 pixels
Display aspect ratio : 16:9
Frame rate mode : Constant
Frame rate : 23.976 (24000/1001) FPS
Color space : YUV
Chroma subsampling : 4:2:0
Bit depth : 10 bits
Bits/(Pixel*Frame) : 0.105
Stream size : 1.57 GiB (90%)
Writing library : x265 2.8+66-88ee12651e30:[Windows][MSVC 1915][64 bit] 10bit
Encoding settings : cpuid=1111039 / frame-threads=4 / numa-pools=16 / wpp / no-pmode / no-pme / no-psnr / no-ssim / log-level=2 / input-csp=1 / input-res=1920x1080 / interlace=0 / total-frames=61968 / level-idc=0 / high-tier=1 / uhd-bd=0 / ref=5 / no-allow-non-conformance / no-repeat-headers / annexb / no-aud / no-hrd / info / hash=0 / no-temporal-layers / open-gop / min-keyint=23 / keyint=250 / gop-lookahead=0 / bframes=8 / b-adapt=2 / b-pyramid / bframe-bias=0 / rc-lookahead=80 / lookahead-slices=4 / scenecut=40 / radl=0 / no-intra-refresh / ctu=64 / min-cu-size=8 / no-rect / no-amp / max-tu-size=32 / tu-inter-depth=1 / tu-intra-depth=1 / limit-tu=0 / rdoq-level=2 / dynamic-rd=0.00 / no-ssim-rd / signhide / no-tskip / nr-intra=0 / nr-inter=0 / no-constrained-intra / no-strong-intra-smoothing / max-merge=3 / limit-refs=3 / limit-modes / me=3 / subme=5 / merange=57 / temporal-mvp / weightp / weightb / no-analyze-src-pics / deblock=-3:-3 / no-sao / no-sao-non-deblock / rd=4 / no-early-skip / rskip / no-fast-intra / no-tskip-fast / no-cu-lossless / no-b-intra / no-splitrd-skip / rdpenalty=0 / psy-rd=1.00 / psy-rdoq=1.00 / no-rd-refine / no-lossless / cbqpoffs=0 / crqpoffs=0 / rc=crf / crf=21.5 / qcomp=0.60 / qpstep=4 / stats-write=0 / stats-read=0 / ipratio=1.40 / pbratio=1.30 / aq-mode=3 / aq-strength=1.00 / cutree / zone-count=0 / no-strict-cbr / qg-size=32 / no-rc-grain / qpmax=69 / qpmin=0 / no-const-vbv / sar=0 / overscan=0 / videoformat=5 / range=0 / colorprim=2 / transfer=2 / colormatrix=2 / chromaloc=0 / display-window=0 / max-cll=0,0 / min-luma=0 / max-luma=1023 / log2-max-poc-lsb=8 / vui-timing-info / vui-hrd-info / slices=1 / no-opt-qp-pps / no-opt-ref-list-length-pps / no-multi-pass-opt-rps / scenecut-bias=0.05 / no-opt-cu-delta-qp / no-aq-motion / no-hdr / no-hdr-opt / no-dhdr10-opt / no-idr-recovery-sei / analysis-reuse-level=5 / scale-factor=0 / refine-intra=0 / refine-inter=0 / refine-mv=0 / no-limit-sao / ctu-info=0 / no-lowpass-dct / refine-mv-type=0 / copy-pic=1 / max-ausize-factor=1.0 / no-dynamic-refine / no-single-sei
Default : Yes
Forced : No

Audio #1
ID : 2
Format : AAC
Format/Info : Advanced Audio Codec
Format profile : LC
Codec ID : A_AAC
Duration : 43 min 4 s
Bit rate : 415 kb/s
Channel(s) : 6 channels
Channel positions : Front: L C R, Side: L R, LFE
Sampling rate : 48.0 kHz
Frame rate : 46.875 FPS (1024 spf)
Compression mode : Lossy
Delay relative to video : 20 ms
Stream size : 128 MiB (7%)
Language : English
Default : Yes
Forced : No

Audio #2
ID : 3
Format : AAC
Format/Info : Advanced Audio Codec
Format profile : LC
Codec ID : A_AAC
Duration : 43 min 4 s
Bit rate : 96.0 kb/s
Channel(s) : 2 channels
Channel positions : Front: L R
Sampling rate : 48.0 kHz
Frame rate : 46.875 FPS (1024 spf)
Compression mode : Lossy
Delay relative to video : 9 ms
Stream size : 29.2 MiB (2%)
Language : English
Default : No
Forced : No

Subtitle #1
ID : 4
Format : PGS
Muxing mode : zlib
Codec ID : S_HDMV/PGS
Codec ID/Info : Picture based subtitle format used on BDs/HD-DVDs
Duration : 42 min 14 s
Bit rate : 27.0 kb/s
Count of elements : 899
Stream size : 8.15 MiB (0%)
Language : English
Default : No
Forced : No

Subtitle #2
ID : 5
Format : PGS
Muxing mode : zlib
Codec ID : S_HDMV/PGS
Codec ID/Info : Picture based subtitle format used on BDs/HD-DVDs
Duration : 42 min 14 s
Bit rate : 29.2 kb/s
Count of elements : 981
Stream size : 8.81 MiB (0%)
Language : English
Default : No
Forced : No

Subtitle #3
ID : 6
Format : PGS
Muxing mode : zlib
Codec ID : S_HDMV/PGS
Codec ID/Info : Picture based subtitle format used on BDs/HD-DVDs
Duration : 42 min 52 s
Bit rate : 74.7 kb/s
Count of elements : 1624
Stream size : 22.9 MiB (1%)
Language : English
Default : No
Forced : No

Menu
00:00:00.000 : en:Chapter 1
00:05:33.917 : en:Chapter 2
00:12:14.609 : en:Chapter 3
00:19:38.803 : en:Chapter 4
00:27:01.036 : en:Chapter 5
00:34:47.210 : en:Chapter 6
00:42:26.711 : en:Chapter 7

Screens

Download

Download: Google Drive

Extras: Google Drive

Season 6

Lost (2004) Season 6 S06 + Extras (1080p BluRay x265 HEVC 10bit AAC 5.1 Silence)

Files

  • Lost (2004) – S06E01-E02 – LA X (1080p BluRay x265 Silence).mkv (2.8 GB)
  • Lost (2004) – S06E03 – What Kate Does (1080p BluRay x265 Silence).mkv (1.2 GB)
  • Lost (2004) – S06E04 – The Substitute (1080p BluRay x265 Silence).mkv (1.6 GB)
  • Lost (2004) – S06E05 – Lighthouse (1080p BluRay x265 Silence).mkv (1.6 GB)
  • Lost (2004) – S06E06 – Sundown (1080p BluRay x265 Silence).mkv (1.5 GB)
  • Lost (2004) – S06E07 – Dr. Linus (1080p BluRay x265 Silence).mkv (1.7 GB)
  • Lost (2004) – S06E08 – Recon (1080p BluRay x265 Silence).mkv (1.2 GB)
  • Lost (2004) – S06E09 – Ab Aeterno (1080p BluRay x265 Silence).mkv (1.8 GB)
  • Lost (2004) – S06E10 – The Package (1080p BluRay x265 Silence).mkv (1.4 GB)
  • Lost (2004) – S06E11 – Happily Ever After (1080p BluRay x265 Silence).mkv (1.4 GB)
  • Lost (2004) – S06E12 – Everybody Loves Hugo (1080p BluRay x265 Silence).mkv (1.6 GB)
  • Lost (2004) – S06E13 – The Last Recruit (1080p BluRay x265 Silence).mkv (1.6 GB)
  • Lost (2004) – S06E14 – The Candidate (1080p BluRay x265 Silence).mkv (1.4 GB)
  • Lost (2004) – S06E15 – Across the Sea (1080p BluRay x265 Silence).mkv (1.6 GB)
  • Lost (2004) – S06E16 – What They Died For (1080p BluRay x265 Silence).mkv (1.4 GB)
  • Lost (2004) – S06E17-E18 – The End (1080p BluRay x265 Silence).mkv (3.3 GB)

Featurettes

    • A Hero’s Journey.mkv (189.0 MB)
    • Bloopers.mkv (70.1 MB)

Deleted Scenes

      • 1. On Guard.mkv (1.7 MB)
      • 2. Bearing Fruit.mkv (3.2 MB)
      • 3. Maternal Instincts.mkv (5.5 MB)
      • 4. Parched.mkv (2.0 MB)
      • 5. A Helping Hand.mkv (3.3 MB)
      • 6. Fatalities.mkv (10.4 MB)
      • 7. The Lab and The Well.mkv (1.5 MB)
      • 8. Epiphany.mkv (9.8 MB)
      • 9. Desmond’s Task.mkv (2.9 MB)

Hidden Extras

      • Aging Clothes.mkv (25.1 MB)
      • Bologne Sandwich.mkv (13.8 MB)
      • Bulletproof Pitch.mkv (64.6 MB)
      • Charlie the Condor.mkv (31.3 MB)
      • Evangaline Lily and Ken Leung Stretch.mkv (67.8 MB)
      • Filming Under Water.mkv (62.7 MB)
      • Jeff Fahey’s Water Stunt.mkv (29.7 MB)
      • Nose Flute.mkv (38.5 MB)
      • Transformation into Smoke.mkv (19.5 MB)
      • Water Tank.mkv (34.5 MB)
    • LOST Recap.mkv (129.6 MB)

LOST University Master’s Program

      • 1. Introduction.mkv (18.8 MB)
      • 2. Orientation.mkv (17.6 MB)

LIT 401 – World Building

        • Class 1 – Writing LOST.mkv (68.3 MB)
        • Class 2 – Archetypes.mkv (60.0 MB)

SPA 101 – Casual Spanish

        • Class 1 – Exploring Spanish with Nestor Carbonell.mkv (36.0 MB)

THE 401 – World Religions

        • Class 1 – Core Beliefs.mkv (69.3 MB)
        • Class 2 – Spirituality in Humanity.mkv (52.4 MB)

THR 401 – On-Camera Acting

        • Class 1 – Creating a Character.mkv (65.7 MB)
      • Lost (2004) – S00E16 – New Man in Charge (1080p BluRay x265 MONOLITH).mkv (435.9 MB)

On Location

      • 1. LA X, Parts 1 & 2.mkv (257.2 MB)
      • 2. The Substitute.mkv (292.9 MB)
      • 3. Recon.mkv (182.6 MB)
      • 4. Ab Aeterno.mkv (194.4 MB)
      • 5. Happily Ever After.mkv (191.9 MB)
      • 6. The Candidate.mkv (245.6 MB)
    • See You In Another Life, Brotha’.mkv (196.8 MB)
    • THE END – Crafting A Final Season.mkv (1.2 GB)

Mediainfo

General
Format : Matroska
Format version : Version 4 / Version 2
File size : 2.76 GiB
Duration : 1 h 24 min
Overall bit rate : 4 705 kb/s
Encoded date : UTC 2018-10-02 21:21:02
Writing application : mkvmerge v17.0.0 ('Be Ur Friend') 64-bit
Writing library : libebml v1.3.5 + libmatroska v1.4.8
Writing frontend : StaxRip v1.7.0.6

Video
ID : 1
Format : HEVC
Format/Info : High Efficiency Video Coding
Format profile : Main [email protected]@Main
Codec ID : V_MPEGH/ISO/HEVC
Duration : 1 h 24 min
Bit rate : 4 173 kb/s
Width : 1 920 pixels
Height : 1 080 pixels
Display aspect ratio : 16:9
Frame rate mode : Constant
Frame rate : 23.976 (24000/1001) FPS
Color space : YUV
Chroma subsampling : 4:2:0
Bit depth : 10 bits
Bits/(Pixel*Frame) : 0.084
Stream size : 2.45 GiB (89%)
Writing library : x265 2.8+66-88ee12651e30:[Windows][MSVC 1915][64 bit] 10bit
Encoding settings : cpuid=1111039 / frame-threads=4 / numa-pools=16 / wpp / no-pmode / no-pme / no-psnr / no-ssim / log-level=2 / input-csp=1 / input-res=1920x1080 / interlace=0 / total-frames=121008 / level-idc=0 / high-tier=1 / uhd-bd=0 / ref=5 / no-allow-non-conformance / no-repeat-headers / annexb / no-aud / no-hrd / info / hash=0 / no-temporal-layers / open-gop / min-keyint=23 / keyint=250 / gop-lookahead=0 / bframes=8 / b-adapt=2 / b-pyramid / bframe-bias=0 / rc-lookahead=80 / lookahead-slices=4 / scenecut=40 / radl=0 / no-intra-refresh / ctu=64 / min-cu-size=8 / no-rect / no-amp / max-tu-size=32 / tu-inter-depth=1 / tu-intra-depth=1 / limit-tu=0 / rdoq-level=2 / dynamic-rd=0.00 / no-ssim-rd / signhide / no-tskip / nr-intra=0 / nr-inter=0 / no-constrained-intra / no-strong-intra-smoothing / max-merge=3 / limit-refs=3 / limit-modes / me=3 / subme=5 / merange=57 / temporal-mvp / weightp / weightb / no-analyze-src-pics / deblock=-3:-3 / no-sao / no-sao-non-deblock / rd=4 / no-early-skip / rskip / no-fast-intra / no-tskip-fast / no-cu-lossless / no-b-intra / no-splitrd-skip / rdpenalty=0 / psy-rd=1.00 / psy-rdoq=1.00 / no-rd-refine / no-lossless / cbqpoffs=0 / crqpoffs=0 / rc=crf / crf=21.5 / qcomp=0.60 / qpstep=4 / stats-write=0 / stats-read=0 / ipratio=1.40 / pbratio=1.30 / aq-mode=3 / aq-strength=1.00 / cutree / zone-count=0 / no-strict-cbr / qg-size=32 / no-rc-grain / qpmax=69 / qpmin=0 / no-const-vbv / sar=0 / overscan=0 / videoformat=5 / range=0 / colorprim=2 / transfer=2 / colormatrix=2 / chromaloc=0 / display-window=0 / max-cll=0,0 / min-luma=0 / max-luma=1023 / log2-max-poc-lsb=8 / vui-timing-info / vui-hrd-info / slices=1 / no-opt-qp-pps / no-opt-ref-list-length-pps / no-multi-pass-opt-rps / scenecut-bias=0.05 / no-opt-cu-delta-qp / no-aq-motion / no-hdr / no-hdr-opt / no-dhdr10-opt / no-idr-recovery-sei / analysis-reuse-level=5 / scale-factor=0 / refine-intra=0 / refine-inter=0 / refine-mv=0 / no-limit-sao / ctu-info=0 / no-lowpass-dct / refine-mv-type=0 / copy-pic=1 / max-ausize-factor=1.0 / no-dynamic-refine / no-single-sei
Default : Yes
Forced : No

Audio #1
ID : 2
Format : AAC
Format/Info : Advanced Audio Codec
Format profile : LC
Codec ID : A_AAC
Duration : 1 h 24 min
Bit rate : 384 kb/s
Channel(s) : 6 channels
Channel positions : Front: L C R, Side: L R, LFE
Sampling rate : 48.0 kHz
Frame rate : 46.875 FPS (1024 spf)
Compression mode : Lossy
Delay relative to video : 20 ms
Stream size : 235 MiB (8%)
Language : English
Default : Yes
Forced : No

Audio #2
ID : 3
Format : AAC
Format/Info : Advanced Audio Codec
Format profile : LC
Codec ID : A_AAC
Duration : 1 h 24 min
Bit rate : 108 kb/s
Channel(s) : 2 channels
Channel positions : Front: L R
Sampling rate : 48.0 kHz
Frame rate : 46.875 FPS (1024 spf)
Compression mode : Lossy
Delay relative to video : 9 ms
Stream size : 65.1 MiB (2%)
Language : English
Default : No
Forced : No

Subtitle #1
ID : 4
Format : PGS
Muxing mode : zlib
Codec ID : S_HDMV/PGS
Codec ID/Info : Picture based subtitle format used on BDs/HD-DVDs
Duration : 1 h 23 min
Bit rate : 21.3 kb/s
Count of elements : 1446
Stream size : 12.7 MiB (0%)
Language : English
Default : No
Forced : No

Subtitle #2
ID : 5
Format : PGS
Muxing mode : zlib
Codec ID : S_HDMV/PGS
Codec ID/Info : Picture based subtitle format used on BDs/HD-DVDs
Duration : 1 h 23 min
Bit rate : 23.8 kb/s
Count of elements : 1644
Stream size : 14.2 MiB (1%)
Language : English
Default : No
Forced : No

Subtitle #3
ID : 6
Format : PGS
Muxing mode : zlib
Codec ID : S_HDMV/PGS
Codec ID/Info : Picture based subtitle format used on BDs/HD-DVDs
Duration : 1 h 23 min
Bit rate : 49.0 kb/s
Count of elements : 2309
Stream size : 29.2 MiB (1%)
Language : English
Default : No
Forced : No

Menu
00:00:00.000 : en:Chapter 1
00:07:14.059 : en:Chapter 2
00:17:41.560 : en:Chapter 3
00:22:45.656 : en:Chapter 4
00:27:34.403 : en:Chapter 5
00:36:23.014 : en:Chapter 6
00:44:02.056 : en:Chapter 7
00:51:01.976 : en:Chapter 8
01:00:14.444 : en:Chapter 9
01:07:38.680 : en:Chapter 10
01:15:39.493 : en:Chapter 11
01:23:28.754 : en:Chapter 12

Screens

Download

Download: Google Drive

Extras: Google Drive

15 thoughts on “Lost (2004) Season 1-6 + Extras (1080p BluRay x265 HEVC 10bit AAC 5.1 Silence)

  1. Not working for me..

    when i click on “Download anyway” , all i get is

    “Error”

    and

    “Access to doc-00-38-docs.googleusercontent.com was deniedYou don’t have authorisation to view this page.
    HTTP ERROR 403″…

    Please @admin do something

  2. Not working for me.. when i click on “Download anyway” , all i get is “Error” and “Access to doc-00-38-docs.googleusercontent.com was deniedYou don’t have authorisation to view this page.
    HTTP ERROR 403″… Please @admin do something

  3. DAMMIT.. I’M FACING THIS GOOGLE DRIVE QUOTA EXCEEDED PROBLEM TOO.. IT WAS WORKING FINE YESTERDAY. I DOWNLOADED SEASON 01.. UNABLE TO DOWNLOAD REST OF THE SHOW ?

  4. Please FIX links..

    All links are having this issue –>> ” Sorry, you can’t view or download this file at this time.
    Too many users have viewed or downloaded this file recently. Please try accessing the file again later. If the file you are trying to access is particularly large or is shared with many people, it may take up to 24 hours to be able to view or download the file. If you still can’t access a file after 24 hours, contact your domain administrator.”

    I was so excited.. Very Disappointed right now

Leave a Reply