DC’s Legends of Tomorrow (2016) Season 1-5 (1080p Mixed x265 HEVC 10bit AAC 5.1 Vyndros)

Plot: When heroes alone are not enough… the world needs legends. Having seen the future, one he will desperately try to prevent from happening, time-traveling rogue Rip Hunter is tasked with assembling a disparate group of both heroes and villains to confront an unstoppable threat—one in which not only is the planet at stake, but all of time itself.

Season 1

DC’s Legends of Tomorrow (2016) Season 1 S01 (1080p BluRay x265 HEVC 10bit AAC 5.1 Vyndros)

Files

  • DC’s.Legends.of.Tomorrow.S01E01.Pilot.(1).1080p.10bit.BluRay.AAC5.1.HEVC-Vyndros.mkv (1.4 GB)
  • DC’s.Legends.of.Tomorrow.S01E02.Pilot.(2).1080p.10bit.BluRay.AAC5.1.HEVC-Vyndros.mkv (1.2 GB)
  • DC’s.Legends.of.Tomorrow.S01E03.Blood.Ties.1080p.10bit.BluRay.AAC5.1.HEVC-Vyndros.mkv (1.0 GB)
  • DC’s.Legends.of.Tomorrow.S01E04.White.Knights.1080p.10bit.BluRay.AAC5.1.HEVC-Vyndros.mkv (1.0 GB)
  • DC’s.Legends.of.Tomorrow.S01E05.Fail-Safe.1080p.10bit.BluRay.AAC5.1.HEVC-Vyndros.mkv (963.1 MB)
  • DC’s.Legends.of.Tomorrow.S01E06.Star.City.2046.1080p.10bit.BluRay.AAC5.1.HEVC-Vyndros.mkv (1.0 GB)
  • DC’s.Legends.of.Tomorrow.S01E07.Marooned.1080p.10bit.BluRay.AAC5.1.HEVC-Vyndros.mkv (1.1 GB)
  • DC’s.Legends.of.Tomorrow.S01E08.Night.of.the.Hawk.1080p.10bit.BluRay.AAC5.1.HEVC-Vyndros.mkv (954.3 MB)
  • DC’s.Legends.of.Tomorrow.S01E09.Left.Behind.1080p.10bit.BluRay.AAC5.1.HEVC-Vyndros.mkv (1.2 GB)
  • DC’s.Legends.of.Tomorrow.S01E10.Progeny.1080p.10bit.BluRay.AAC5.1.HEVC-Vyndros.mkv (1.0 GB)
  • DC’s.Legends.of.Tomorrow.S01E11.The.Magnificent.Eight.1080p.10bit.BluRay.AAC5.1.HEVC-Vyndros.mkv (1.2 GB)
  • DC’s.Legends.of.Tomorrow.S01E12.Last.Refuge.1080p.10bit.BluRay.AAC5.1.HEVC-Vyndros.mkv (1.0 GB)
  • DC’s.Legends.of.Tomorrow.S01E13.Leviathan.1080p.10bit.BluRay.AAC5.1.HEVC-Vyndros.mkv (1.0 GB)
  • DC’s.Legends.of.Tomorrow.S01E14.River.of.Time.1080p.10bit.BluRay.AAC5.1.HEVC-Vyndros.mkv (1.1 GB)
  • DC’s.Legends.of.Tomorrow.S01E15.Destiny.1080p.10bit.BluRay.AAC5.1.HEVC-Vyndros.mkv (1.2 GB)
  • DC’s.Legends.of.Tomorrow.S01E16.Legendary.1080p.10bit.BluRay.AAC5.1.HEVC-Vyndros.mkv (1.3 GB)

Mediainfo

General
Format : Matroska
Format version : Version 4 / Version 2
File size : 1.08 GiB
Duration : 42 min 2 s
Overall bit rate : 3 667 kb/s
Encoded date : UTC 2018-08-01 22:01:00
Writing application : mkvmerge v20.0.0 ('I Am The Sun') 64-bit
Writing library : libebml v1.3.5 + libmatroska v1.4.8
Writing frontend : StaxRip v1.7.0.6

Video
ID : 1
Format : HEVC
Format/Info : High Efficiency Video Coding
Format profile : Main [email protected]@Main
Codec ID : V_MPEGH/ISO/HEVC
Duration : 42 min 1 s
Bit rate : 3 198 kb/s
Width : 1 920 pixels
Height : 1 080 pixels
Display aspect ratio : 16:9
Frame rate mode : Constant
Frame rate : 23.976 (24000/1001) FPS
Color space : YUV
Chroma subsampling : 4:2:0
Bit depth : 10 bits
Bits/(Pixel*Frame) : 0.064
Stream size : 961 MiB (87%)
Writing library : x265 2.8+19-bcdc610cf5f0:[Windows][GCC 7.3.0][64 bit] 10bit
Encoding settings : cpuid=1111039 / frame-threads=2 / numa-pools=4 / wpp / no-pmode / no-pme / no-psnr / ssim / log-level=2 / input-csp=1 / input-res=1920x1080 / interlace=0 / total-frames=60467 / level-idc=0 / high-tier=1 / uhd-bd=0 / ref=3 / no-allow-non-conformance / no-repeat-headers / annexb / no-aud / no-hrd / info / hash=0 / no-temporal-layers / open-gop / min-keyint=23 / keyint=250 / gop-lookahead=0 / bframes=8 / b-adapt=2 / b-pyramid / bframe-bias=0 / rc-lookahead=50 / lookahead-slices=6 / scenecut=40 / radl=0 / no-intra-refresh / ctu=64 / min-cu-size=8 / no-rect / no-amp / max-tu-size=32 / tu-inter-depth=1 / tu-intra-depth=1 / limit-tu=0 / rdoq-level=0 / dynamic-rd=0.00 / no-ssim-rd / signhide / no-tskip / nr-intra=0 / nr-inter=0 / no-constrained-intra / no-strong-intra-smoothing / max-merge=3 / limit-refs=3 / no-limit-modes / me=3 / subme=5 / merange=57 / temporal-mvp / weightp / no-weightb / no-analyze-src-pics / deblock=0:0 / sao / no-sao-non-deblock / rd=3 / no-early-skip / no-rskip / no-fast-intra / no-tskip-fast / no-cu-lossless / no-b-intra / no-splitrd-skip / rdpenalty=0 / psy-rd=2.00 / psy-rdoq=0.00 / no-rd-refine / no-lossless / cbqpoffs=0 / crqpoffs=0 / rc=crf / crf=20.0 / qcomp=0.60 / qpstep=4 / stats-write=0 / stats-read=0 / ipratio=1.40 / pbratio=1.30 / aq-mode=3 / aq-strength=1.00 / cutree / zone-count=0 / no-strict-cbr / qg-size=32 / no-rc-grain / qpmax=69 / qpmin=0 / no-const-vbv / sar=0 / overscan=0 / videoformat=5 / range=0 / colorprim=2 / transfer=2 / colormatrix=2 / chromaloc=0 / display-window=0 / max-cll=0,0 / min-luma=0 / max-luma=1023 / log2-max-poc-lsb=8 / vui-timing-info / vui-hrd-info / slices=1 / no-opt-qp-pps / no-opt-ref-list-length-pps / no-multi-pass-opt-rps / scenecut-bias=0.05 / no-opt-cu-delta-qp / no-aq-motion / no-hdr / no-hdr-opt / no-dhdr10-opt / no-idr-recovery-sei / analysis-reuse-level=5 / scale-factor=0 / refine-intra=0 / refine-inter=0 / refine-mv=0 / no-limit-sao / ctu-info=0 / no-lowpass-dct / refine-mv-type=0 / copy-pic=1 / max-ausize-factor=1.0 / no-dynamic-refine / no-single-sei
Default : Yes
Forced : No

Audio
ID : 2
Format : AAC
Format/Info : Advanced Audio Codec
Format profile : LC
Codec ID : A_AAC
Duration : 42 min 2 s
Bit rate : 449 kb/s
Channel(s) : 6 channels
Channel positions : Front: L C R, Side: L R, LFE
Sampling rate : 48.0 kHz
Frame rate : 46.875 FPS (1024 spf)
Compression mode : Lossy
Stream size : 135 MiB (12%)
Language : English
Default : Yes
Forced : No

Subtitle
ID : 3
Format : PGS
Muxing mode : zlib
Codec ID : S_HDMV/PGS
Codec ID/Info : Picture based subtitle format used on BDs/HD-DVDs
Duration : 41 min 57 s
Bit rate : 56.9 kb/s
Count of elements : 1696
Stream size : 17.1 MiB (2%)
Language : English
Default : No
Forced : No

Download

Download: Google Drive

Season 2

DC’s Legends of Tomorrow (2016) Season 2 S02 (1080p BluRay x265 HEVC 10bit AAC 5.1 Vyndros)

Files

  • DC’s.Legends.of.Tomorrow.S02E01.Out.of.Time.1080p.10bit.BluRay.AAC5.1.HEVC-Vyndros.mkv (1.2 GB)
  • DC’s.Legends.of.Tomorrow.S02E02.The.Justice.Society.of.America.1080p.10bit.BluRay.AAC5.1.HEVC-Vyndros.mkv (1.1 GB)
  • DC’s.Legends.of.Tomorrow.S02E03.Shogun.1080p.10bit.BluRay.AAC5.1.HEVC-Vyndros.mkv (1.4 GB)
  • DC’s.Legends.of.Tomorrow.S02E04.Abominations.1080p.10bit.BluRay.AAC5.1.HEVC-Vyndros.mkv (1.1 GB)
  • DC’s.Legends.of.Tomorrow.S02E05.Compromised.1080p.10bit.BluRay.AAC5.1.HEVC-Vyndros.mkv (937.4 MB)
  • DC’s.Legends.of.Tomorrow.S02E06.Outlaw.Country.1080p.10bit.BluRay.AAC5.1.HEVC-Vyndros.mkv (1.1 GB)
  • DC’s.Legends.of.Tomorrow.S02E07.Invasion!.(4).1080p.10bit.BluRay.AAC5.1.HEVC-Vyndros.mkv (1.1 GB)
  • DC’s.Legends.of.Tomorrow.S02E08.The.Chicago.Way.1080p.10bit.BluRay.AAC5.1.HEVC-Vyndros.mkv (886.3 MB)
  • DC’s.Legends.of.Tomorrow.S02E09.Raiders.of.the.Lost.Art.1080p.10bit.BluRay.AAC5.1.HEVC-Vyndros.mkv (1.0 GB)
  • DC’s.Legends.of.Tomorrow.S02E10.The.Legion.of.Doom.1080p.10bit.BluRay.AAC5.1.HEVC-Vyndros.mkv (894.6 MB)
  • DC’s.Legends.of.Tomorrow.S02E11.Turncoat.1080p.10bit.BluRay.AAC5.1.HEVC-Vyndros.mkv (952.0 MB)
  • DC’s.Legends.of.Tomorrow.S02E12.Camelot.3000.1080p.10bit.BluRay.AAC5.1.HEVC-Vyndros.mkv (1.0 GB)
  • DC’s.Legends.of.Tomorrow.S02E13.Land.of.the.Lost.1080p.10bit.BluRay.AAC5.1.HEVC-Vyndros.mkv (1.1 GB)
  • DC’s.Legends.of.Tomorrow.S02E14.Moonshot.1080p.10bit.BluRay.AAC5.1.HEVC-Vyndros.mkv (1,001.8 MB)
  • DC’s.Legends.of.Tomorrow.S02E15.Fellowship.of.the.Spear.1080p.10bit.BluRay.AAC5.1.HEVC-Vyndros.mkv (940.4 MB)
  • DC’s.Legends.of.Tomorrow.S02E16.Doomworld.1080p.10bit.BluRay.AAC5.1.HEVC-Vyndros.mkv (914.1 MB)
  • DC’s.Legends.of.Tomorrow.S02E17.Aruba.1080p.10bit.BluRay.AAC5.1.HEVC-Silence.mkv (1.1 GB)

Mediainfo

General
Format : Matroska
Format version : Version 4 / Version 2
File size : 1.07 GiB
Duration : 41 min 35 s
Overall bit rate : 3 675 kb/s
Encoded date : UTC 2018-08-07 21:41:44
Writing application : mkvmerge v20.0.0 ('I Am The Sun') 64-bit
Writing library : libebml v1.3.5 + libmatroska v1.4.8
Writing frontend : StaxRip v1.7.0.6

Video
ID : 1
Format : HEVC
Format/Info : High Efficiency Video Coding
Format profile : Main [email protected]@Main
Codec ID : V_MPEGH/ISO/HEVC
Duration : 41 min 35 s
Bit rate : 3 212 kb/s
Width : 1 920 pixels
Height : 1 080 pixels
Display aspect ratio : 16:9
Frame rate mode : Constant
Frame rate : 23.976 (24000/1001) FPS
Color space : YUV
Chroma subsampling : 4:2:0
Bit depth : 10 bits
Bits/(Pixel*Frame) : 0.065
Stream size : 955 MiB (87%)
Writing library : x265 2.8+57-eea92165b035:[Windows][GCC 7.3.0][64 bit] 10bit
Encoding settings : cpuid=1111039 / frame-threads=2 / numa-pools=4 / wpp / no-pmode / no-pme / no-psnr / ssim / log-level=2 / input-csp=1 / input-res=1920x1080 / interlace=0 / total-frames=59822 / level-idc=0 / high-tier=1 / uhd-bd=0 / ref=3 / no-allow-non-conformance / no-repeat-headers / annexb / no-aud / no-hrd / info / hash=0 / no-temporal-layers / open-gop / min-keyint=23 / keyint=250 / gop-lookahead=0 / bframes=8 / b-adapt=2 / b-pyramid / bframe-bias=0 / rc-lookahead=50 / lookahead-slices=6 / scenecut=40 / radl=0 / no-intra-refresh / ctu=64 / min-cu-size=8 / no-rect / no-amp / max-tu-size=32 / tu-inter-depth=1 / tu-intra-depth=1 / limit-tu=0 / rdoq-level=0 / dynamic-rd=0.00 / no-ssim-rd / signhide / no-tskip / nr-intra=0 / nr-inter=0 / no-constrained-intra / no-strong-intra-smoothing / max-merge=3 / limit-refs=3 / no-limit-modes / me=3 / subme=3 / merange=57 / temporal-mvp / weightp / no-weightb / no-analyze-src-pics / deblock=0:0 / sao / no-sao-non-deblock / rd=3 / no-early-skip / no-rskip / no-fast-intra / no-tskip-fast / no-cu-lossless / no-b-intra / no-splitrd-skip / rdpenalty=0 / psy-rd=2.00 / psy-rdoq=0.00 / no-rd-refine / no-lossless / cbqpoffs=0 / crqpoffs=0 / rc=crf / crf=20.0 / qcomp=0.60 / qpstep=4 / stats-write=0 / stats-read=0 / ipratio=1.40 / pbratio=1.30 / aq-mode=3 / aq-strength=1.00 / cutree / zone-count=0 / no-strict-cbr / qg-size=32 / no-rc-grain / qpmax=69 / qpmin=0 / no-const-vbv / sar=0 / overscan=0 / videoformat=5 / range=0 / colorprim=2 / transfer=2 / colormatrix=2 / chromaloc=0 / display-window=0 / max-cll=0,0 / min-luma=0 / max-luma=1023 / log2-max-poc-lsb=8 / vui-timing-info / vui-hrd-info / slices=1 / no-opt-qp-pps / no-opt-ref-list-length-pps / no-multi-pass-opt-rps / scenecut-bias=0.05 / no-opt-cu-delta-qp / no-aq-motion / no-hdr / no-hdr-opt / no-dhdr10-opt / no-idr-recovery-sei / analysis-reuse-level=5 / scale-factor=0 / refine-intra=0 / refine-inter=0 / refine-mv=0 / no-limit-sao / ctu-info=0 / no-lowpass-dct / refine-mv-type=0 / copy-pic=1 / max-ausize-factor=1.0 / no-dynamic-refine / no-single-sei
Default : Yes
Forced : No

Audio
ID : 2
Format : AAC
Format/Info : Advanced Audio Codec
Format profile : LC
Codec ID : A_AAC
Duration : 41 min 35 s
Bit rate : 447 kb/s
Channel(s) : 6 channels
Channel positions : Front: L C R, Side: L R, LFE
Sampling rate : 48.0 kHz
Frame rate : 46.875 FPS (1024 spf)
Compression mode : Lossy
Stream size : 133 MiB (12%)
Language : English
Default : Yes
Forced : No

Subtitle
ID : 3
Format : PGS
Muxing mode : zlib
Codec ID : S_HDMV/PGS
Codec ID/Info : Picture based subtitle format used on BDs/HD-DVDs
Duration : 41 min 30 s
Bit rate : 46.2 kb/s
Count of elements : 1420
Stream size : 13.7 MiB (1%)
Language : English
Default : No
Forced : No

Download

Download: Google Drive

Season 3

DC’s Legends of Tomorrow (2016) Season 3 S03 (1080p BluRay x265 HEVC 10bit AAC 5.1 Vyndros)

Files

  • DC’s.Legends.of.Tomorrow.S03E01.Aruba-Con.1080p.10bit.BluRay.AAC5.1.HEVC-Vyndros.mkv (1.4 GB)
  • DC’s.Legends.of.Tomorrow.S03E02.Freakshow.1080p.10bit.BluRay.AAC5.1.HEVC-Vyndros.mkv (1.2 GB)
  • DC’s.Legends.of.Tomorrow.S03E03.Zari.1080p.10bit.BluRay.AAC5.1.HEVC-Vyndros.mkv (1.2 GB)
  • DC’s.Legends.of.Tomorrow.S03E04.Phone.Home.1080p.10bit.BluRay.AAC5.1.HEVC-Vyndros.mkv (1.1 GB)
  • DC’s.Legends.of.Tomorrow.S03E05.Return.of.the.Mack.1080p.10bit.BluRay.AAC5.1.HEVC-Vyndros.mkv (904.4 MB)
  • DC’s.Legends.of.Tomorrow.S03E06.Helen.Hunt.1080p.10bit.BluRay.AAC5.1.HEVC-Vyndros.mkv (1.1 GB)
  • DC’s.Legends.of.Tomorrow.S03E07.Welcome.to.the.Jungle.1080p.10bit.BluRay.AAC5.1.HEVC-Vyndros.mkv (1.4 GB)
  • DC’s.Legends.of.Tomorrow.S03E08.Crisis.on.Earth-X.(4).1080p.10bit.BluRay.AAC5.1.HEVC-Vyndros.mkv (1.2 GB)
  • DC’s.Legends.of.Tomorrow.S03E09.Beebo.the.God.of.War.1080p.10bit.BluRay.AAC5.1.HEVC-Vyndros.mkv (1.2 GB)
  • DC’s.Legends.of.Tomorrow.S03E10.Daddy.Darhkest.1080p.10bit.BluRay.AAC5.1.HEVC-Vyndros.mkv (1,003.1 MB)
  • DC’s.Legends.of.Tomorrow.S03E11.Here.I.Go.Again.1080p.10bit.BluRay.AAC5.1.HEVC-Vyndros.mkv (1.1 GB)
  • DC’s.Legends.of.Tomorrow.S03E12.The.Curse.of.the.Earth.Totem.1080p.10bit.BluRay.AAC5.1.HEVC-Vyndros.mkv (1.1 GB)
  • DC’s.Legends.of.Tomorrow.S03E13.No.Country.for.Old.Dads.1080p.10bit.BluRay.AAC5.1.HEVC-Vyndros.mkv (878.3 MB)
  • DC’s.Legends.of.Tomorrow.S03E14.Amazing.Grace.1080p.10bit.BluRay.AAC5.1.HEVC-Vyndros.mkv (994.4 MB)
  • DC’s.Legends.of.Tomorrow.S03E15.Necromancing.the.Stone.1080p.10bit.BluRay.AAC5.1.HEVC-Vyndros.mkv (1,020.2 MB)
  • DC’s.Legends.of.Tomorrow.S03E16.I,.Ava.1080p.10bit.BluRay.AAC5.1.HEVC-Vyndros.mkv (1.0 GB)
  • DC’s.Legends.of.Tomorrow.S03E17.Guest.Starring.John.Noble.1080p.10bit.BluRay.AAC5.1.HEVC-Vyndros.mkv (1.1 GB)
  • DC’s.Legends.of.Tomorrow.S03E18.The.Good,.The.Bad.and.The.Cuddly.1080p.10bit.BluRay.AAC5.1.HEVC-Vyndros.mkv (1.3 GB)

Mediainfo

General
Format : Matroska
Format version : Version 4 / Version 2
File size : 1.13 GiB
Duration : 42 min 31 s
Overall bit rate : 3 804 kb/s
Encoded date : UTC 2018-10-20 06:48:09
Writing application : mkvmerge v20.0.0 ('I Am The Sun') 64-bit
Writing library : libebml v1.3.5 + libmatroska v1.4.8
Writing frontend : StaxRip v1.7.0.6

Video
ID : 1
Format : HEVC
Format/Info : High Efficiency Video Coding
Format profile : Main [email protected]@Main
Codec ID : V_MPEGH/ISO/HEVC
Duration : 42 min 31 s
Bit rate : 3 331 kb/s
Width : 1 920 pixels
Height : 1 080 pixels
Display aspect ratio : 16:9
Frame rate mode : Constant
Frame rate : 23.976 (24000/1001) FPS
Color space : YUV
Chroma subsampling : 4:2:0
Bit depth : 10 bits
Bits/(Pixel*Frame) : 0.067
Stream size : 1 013 MiB (88%)
Writing library : x265 2.9+1-169e76b6bbcc:[Windows][GCC 8.2.0][64 bit] 10bit
Encoding settings : cpuid=1111039 / frame-threads=2 / numa-pools=4 / wpp / no-pmode / no-pme / no-psnr / ssim / log-level=2 / input-csp=1 / input-res=1920x1080 / interlace=0 / total-frames=61183 / level-idc=0 / high-tier=1 / uhd-bd=0 / ref=3 / no-allow-non-conformance / no-repeat-headers / annexb / no-aud / no-hrd / info / hash=0 / no-temporal-layers / open-gop / min-keyint=23 / keyint=250 / gop-lookahead=0 / bframes=8 / b-adapt=2 / b-pyramid / bframe-bias=0 / rc-lookahead=50 / lookahead-slices=6 / scenecut=40 / radl=0 / no-intra-refresh / ctu=64 / min-cu-size=8 / no-rect / no-amp / max-tu-size=32 / tu-inter-depth=1 / tu-intra-depth=1 / limit-tu=0 / rdoq-level=0 / dynamic-rd=0.00 / no-ssim-rd / signhide / no-tskip / nr-intra=0 / nr-inter=0 / no-constrained-intra / no-strong-intra-smoothing / max-merge=3 / limit-refs=3 / no-limit-modes / me=3 / subme=5 / merange=57 / temporal-mvp / weightp / no-weightb / no-analyze-src-pics / deblock=0:0 / sao / no-sao-non-deblock / rd=3 / no-early-skip / no-rskip / no-fast-intra / no-tskip-fast / no-cu-lossless / no-b-intra / no-splitrd-skip / rdpenalty=0 / psy-rd=2.00 / psy-rdoq=0.00 / no-rd-refine / no-lossless / cbqpoffs=0 / crqpoffs=0 / rc=crf / crf=20.0 / qcomp=0.60 / qpstep=4 / stats-write=0 / stats-read=0 / ipratio=1.40 / pbratio=1.30 / aq-mode=3 / aq-strength=1.00 / cutree / zone-count=0 / no-strict-cbr / qg-size=32 / no-rc-grain / qpmax=69 / qpmin=0 / no-const-vbv / sar=0 / overscan=0 / videoformat=5 / range=0 / colorprim=2 / transfer=2 / colormatrix=2 / chromaloc=0 / display-window=0 / max-cll=0,0 / min-luma=0 / max-luma=1023 / log2-max-poc-lsb=8 / vui-timing-info / vui-hrd-info / slices=1 / no-opt-qp-pps / no-opt-ref-list-length-pps / no-multi-pass-opt-rps / scenecut-bias=0.05 / no-opt-cu-delta-qp / no-aq-motion / no-hdr / no-hdr-opt / no-dhdr10-opt / no-idr-recovery-sei / analysis-reuse-level=5 / scale-factor=0 / refine-intra=0 / refine-inter=0 / refine-mv=0 / no-limit-sao / ctu-info=0 / no-lowpass-dct / refine-mv-type=0 / copy-pic=1 / max-ausize-factor=1.0 / no-dynamic-refine / no-single-sei
Default : Yes
Forced : No

Audio
ID : 2
Format : AAC
Format/Info : Advanced Audio Codec
Format profile : LC
Codec ID : A_AAC
Duration : 42 min 31 s
Bit rate : 449 kb/s
Channel(s) : 6 channels
Channel positions : Front: L C R, Side: L R, LFE
Sampling rate : 48.0 kHz
Frame rate : 46.875 FPS (1024 spf)
Compression mode : Lossy
Stream size : 137 MiB (12%)
Language : English
Default : Yes
Forced : No

Subtitle
ID : 3
Format : PGS
Muxing mode : zlib
Codec ID : S_HDMV/PGS
Codec ID/Info : Picture based subtitle format used on BDs/HD-DVDs
Duration : 42 min 24 s
Bit rate : 54.4 kb/s
Count of elements : 1602
Stream size : 16.5 MiB (1%)
Language : English
Default : No
Forced : No

Download

Download: Google Drive

Season 4

DC’s Legends of Tomorrow (2016) Season 4 S04 (1080p BluRay x265 HEVC 10bit AAC 5.1 Vyndros)

Files

  • DC’s.Legends.of.Tomorrow.S04E01.The.Virgin.Gary.1080p.10bit.BluRay.AAC5.1.HEVC-Vyndros.mkv (1.2 GB)
  • DC’s.Legends.of.Tomorrow.S04E02.Witch.Hunt.1080p.10bit.BluRay.AAC5.1.HEVC-Vyndros.mkv (1.3 GB)
  • DC’s.Legends.of.Tomorrow.S04E03.Dancing.Queen.1080p.10bit.BluRay.AAC5.1.HEVC-Vyndros.mkv (1.0 GB)
  • DC’s.Legends.of.Tomorrow.S04E04.Wet.Hot.American.Bummer.1080p.10bit.BluRay.AAC5.1.HEVC-Vyndros.mkv (1.1 GB)
  • DC’s.Legends.of.Tomorrow.S04E05.Tagumo.Attacks!!!.1080p.10bit.BluRay.AAC5.1.HEVC-Vyndros.mkv (1.1 GB)
  • DC’s.Legends.of.Tomorrow.S04E06.Tender.Is.the.Nate.1080p.10bit.BluRay.AAC5.1.HEVC-Vyndros.mkv (972.2 MB)
  • DC’s.Legends.of.Tomorrow.S04E07.Hell.No,.Dolly!.1080p.10bit.BluRay.AAC5.1.HEVC-Vyndros.mkv (1,017.4 MB)
  • DC’s.Legends.of.Tomorrow.S04E08.Legends.of.To-Meow-Meow.1080p.10bit.BluRay.AAC5.1.HEVC-Vyndros.mkv (1.1 GB)
  • DC’s.Legends.of.Tomorrow.S04E09.Lucha.de.Apuestas.1080p.10bit.BluRay.AAC5.1.HEVC-Vyndros.mkv (986.3 MB)
  • DC’s.Legends.of.Tomorrow.S04E10.The.Getaway.1080p.10bit.BluRay.AAC5.1.HEVC-Vyndros.mkv (992.0 MB)
  • DC’s.Legends.of.Tomorrow.S04E11.Séance.&.Sensibility.1080p.10bit.BluRay.AAC5.1.HEVC-Vyndros.mkv (1.0 GB)
  • DC’s.Legends.of.Tomorrow.S04E12.The.Eggplant,.the.Witch.&.the.Wardrobe.1080p.10bit.BluRay.AAC5.1.HEVC-Vyndros.mkv (924.4 MB)
  • DC’s.Legends.of.Tomorrow.S04E13.Egg.MacGuffin.1080p.10bit.BluRay.AAC5.1.HEVC-Vyndros.mkv (971.0 MB)
  • DC’s.Legends.of.Tomorrow.S04E14.Nip.Stuck.1080p.10bit.BluRay.AAC5.1.HEVC-Vyndros.mkv (1,011.0 MB)
  • DC’s.Legends.of.Tomorrow.S04E15.Terms.of.Service.1080p.10bit.BluRay.AAC5.1.HEVC-Vyndros.mkv (1,013.4 MB)
  • DC’s.Legends.of.Tomorrow.S04E16.Hey,.World!.1080p.10bit.BluRay.AAC5.1.HEVC-Vyndros.mkv (1.1 GB)

Mediainfo

General
Format : Matroska
Format version : Version 4 / Version 2
File size : 1.15 GiB
Duration : 42 min 29 s
Overall bit rate : 3 861 kb/s
Movie name : DC's Legends of Tomorrow - S04E08 - Legends of To-Meow-Meow
Encoded date : UTC 2020-02-29 19:33:03
Writing application : mkvmerge v20.0.0 ('I Am The Sun') 64-bit
Writing library : libebml v1.3.5 + libmatroska v1.4.8
Writing frontend : StaxRip v1.7.0.6

Video
ID : 1
Format : HEVC
Format/Info : High Efficiency Video Coding
Format profile : Main [email protected]@Main
Codec ID : V_MPEGH/ISO/HEVC
Duration : 42 min 29 s
Bit rate : 3 371 kb/s
Width : 1 920 pixels
Height : 1 080 pixels
Display aspect ratio : 16:9
Frame rate mode : Constant
Frame rate : 23.976 (24000/1001) FPS
Color space : YUV
Chroma subsampling : 4:2:0
Bit depth : 10 bits
Bits/(Pixel*Frame) : 0.068
Stream size : 1.00 GiB (87%)
Writing library : x265 3.3+1-g554c887ac:[Windows][MSVC 1924][64 bit] 10bit
Encoding settings : cpuid=1111039 / frame-threads=2 / numa-pools=4 / wpp / no-pmode / no-pme / no-psnr / ssim / log-level=2 / input-csp=1 / input-res=1920x1080 / interlace=0 / total-frames=61133 / level-idc=0 / high-tier=1 / uhd-bd=0 / ref=3 / no-allow-non-conformance / no-repeat-headers / annexb / no-aud / no-hrd / info / hash=0 / no-temporal-layers / open-gop / min-keyint=23 / keyint=250 / gop-lookahead=0 / bframes=8 / b-adapt=2 / b-pyramid / bframe-bias=0 / rc-lookahead=80 / lookahead-slices=6 / scenecut=40 / hist-scenecut=0 / radl=0 / no-splice / no-intra-refresh / ctu=64 / min-cu-size=8 / no-rect / no-amp / max-tu-size=32 / tu-inter-depth=1 / tu-intra-depth=1 / limit-tu=0 / rdoq-level=0 / dynamic-rd=0.00 / no-ssim-rd / signhide / no-tskip / nr-intra=0 / nr-inter=0 / no-constrained-intra / no-strong-intra-smoothing / max-merge=3 / limit-refs=1 / no-limit-modes / me=3 / subme=5 / merange=57 / temporal-mvp / no-frame-dup / no-hme / weightp / no-weightb / no-analyze-src-pics / deblock=0:0 / sao / no-sao-non-deblock / rd=3 / selective-sao=4 / early-skip / no-rskip / no-fast-intra / no-tskip-fast / no-cu-lossless / b-intra / no-splitrd-skip / rdpenalty=0 / psy-rd=2.00 / psy-rdoq=0.00 / no-rd-refine / no-lossless / cbqpoffs=0 / crqpoffs=0 / rc=crf / crf=20.0 / qcomp=0.60 / qpstep=4 / stats-write=0 / stats-read=0 / ipratio=1.40 / pbratio=1.30 / aq-mode=3 / aq-strength=1.00 / cutree / zone-count=0 / no-strict-cbr / qg-size=32 / no-rc-grain / qpmax=69 / qpmin=0 / no-const-vbv / sar=0 / overscan=0 / videoformat=5 / range=0 / colorprim=2 / transfer=2 / colormatrix=2 / chromaloc=0 / display-window=0 / cll=0,0 / min-luma=0 / max-luma=1023 / log2-max-poc-lsb=8 / vui-timing-info / vui-hrd-info / slices=1 / no-opt-qp-pps / no-opt-ref-list-length-pps / no-multi-pass-opt-rps / scenecut-bias=0.05 / hist-threshold=0.01 / no-opt-cu-delta-qp / no-aq-motion / no-hdr10 / no-hdr10-opt / no-dhdr10-opt / no-idr-recovery-sei / analysis-reuse-level=0 / analysis-save-reuse-level=0 / analysis-load-reuse-level=0 / scale-factor=0 / refine-intra=0 / refine-inter=0 / refine-mv=1 / refine-ctu-distortion=0 / no-limit-sao / ctu-info=0 / no-lowpass-dct / refine-analysis-type=0 / copy-pic=1 / max-ausize-factor=1.0 / no-dynamic-refine / no-single-sei / no-hevc-aq / no-svt / no-field / qp-adaptation-range=1.00 / no-scenecut-aware-qpconformance-window-offsets / right=0 / bottom=0
Default : Yes
Forced : No

Audio
ID : 2
Format : AAC
Format/Info : Advanced Audio Codec
Format profile : LC
Codec ID : A_AAC
Duration : 42 min 29 s
Bit rate : 471 kb/s
Channel(s) : 6 channels
Channel positions : Front: L C R, Side: L R, LFE
Sampling rate : 48.0 kHz
Frame rate : 46.875 FPS (1024 spf)
Compression mode : Lossy
Delay relative to video : 20 ms
Stream size : 143 MiB (12%)
Language : English
Default : Yes
Forced : No

Subtitle
ID : 3
Format : PGS
Muxing mode : zlib
Codec ID : S_HDMV/PGS
Codec ID/Info : Picture based subtitle format used on BDs/HD-DVDs
Duration : 42 min 3 s
Bit rate : 56.4 kb/s
Count of elements : 1696
Stream size : 17.0 MiB (1%)
Language : English
Default : No
Forced : No

Download

Download: Google Drive

Season 5

DC’s Legends of Tomorrow (2016) Season 5 S05 (1080p AMZN WEB-DL x265 HEVC 10bit AAC 5.1 Vyndros)

Files

  • DC’s.Legends.of.Tomorrow.S05E01.Crisis.on.Infinite.Earths.(5).1080p.10bit.AMZN.WEB-DL.AAC5.1.HEVC-Vyndros.mkv (1.1 GB)
  • DC’s.Legends.of.Tomorrow.S05E02.Meet.the.Legends.1080p.10bit.AMZN.WEB-DL.AAC5.1.HEVC-Vyndros.mkv (1,019.6 MB)
  • DC’s.Legends.of.Tomorrow.S05E03.Miss.Me,.Kiss.Me,.Love.Me.1080p.10bit.AMZN.WEB-DL.AAC5.1.HEVC-Vyndros.mkv (892.1 MB)
  • DC’s.Legends.of.Tomorrow.S05E04.Slay.Anything.1080p.10bit.AMZN.WEB-DL.AAC5.1.HEVC-Vyndros.mkv (908.7 MB)
  • DC’s.Legends.of.Tomorrow.S05E05.A.Head.of.Her.Time.1080p.10bit.AMZN.WEB-DL.AAC5.1.HEVC-Vyndros.mkv (1.1 GB)
  • DC’s.Legends.of.Tomorrow.S05E06.Mortal.Khanbat.1080p.10bit.AMZN.WEB-DL.AAC5.1.HEVC-Vyndros.mkv (940.0 MB)
  • DC’s.Legends.of.Tomorrow.S05E07.Mr.Parker’s.Cul-De-Sac.1080p.10bit.AMZN.WEB-DL.AAC5.1.HEVC-Vyndros.mkv (862.2 MB)
  • DC’s.Legends.of.Tomorrow.S05E08.Romeo.V.Juliet.Dawn.of.Justness.1080p.10bit.AMZN.WEB-DL.AAC5.1.HEVC-Vyndros.mkv (798.4 MB)
  • DC’s.Legends.of.Tomorrow.S05E09.Zari,.Not.Zari.1080p.10bit.AMZN.WEB-DL.AAC5.1.HEVC-Vyndros.mkv (1.1 GB)
  • DC’s.Legends.of.Tomorrow.S05E10.The.Great.British.Fake.Off.1080p.10bit.AMZN.WEB-DL.AAC5.1.HEVC-Vyndros.mkv (744.1 MB)
  • DC’s.Legends.of.Tomorrow.S05E11.Ship.Broken.1080p.10bit.AMZN.WEB-DL.AAC5.1.HEVC-Vyndros.mkv (1.0 GB)
  • DC’s.Legends.of.Tomorrow.S05E12.Freaks.and.Greeks.1080p.10bit.AMZN.WEB-DL.AAC5.1.HEVC-Vyndros.mkv (1.1 GB)
  • DC’s.Legends.of.Tomorrow.S05E13.I.Am.Legends.1080p.10bit.AMZN.WEB-DL.AAC5.1.HEVC-Vyndros.mkv (930.8 MB)
  • DC’s.Legends.of.Tomorrow.S05E14.The.One.Where.We’re.Trapped.on.TV.1080p.10bit.AMZN.WEB-DL.AAC5.1.HEVC-Vyndros.mkv (1.0 GB)
  • DC’s.Legends.of.Tomorrow.S05E15.Swan.Thong.1080p.10bit.AMZN.WEB-DL.AAC5.1.HEVC-Vyndros.mkv (1.1 GB)

Mediainfo

General
Format : Matroska
Format version : Version 4 / Version 2
File size : 1.07 GiB
Duration : 42 min 25 s
Overall bit rate : 3 615 kb/s
Encoded date : UTC 2020-06-06 01:36:29
Writing application : mkvmerge v20.0.0 ('I Am The Sun') 64-bit
Writing library : libebml v1.3.5 + libmatroska v1.4.8
Writing frontend : StaxRip v1.7.0.6

Video
ID : 1
Format : HEVC
Format/Info : High Efficiency Video Coding
Format profile : Main [email protected]@Main
Codec ID : V_MPEGH/ISO/HEVC
Duration : 42 min 25 s
Bit rate : 3 149 kb/s
Width : 1 920 pixels
Height : 1 080 pixels
Display aspect ratio : 16:9
Frame rate mode : Constant
Frame rate : 23.976 (24000/1001) FPS
Color space : YUV
Chroma subsampling : 4:2:0
Bit depth : 10 bits
Bits/(Pixel*Frame) : 0.063
Stream size : 955 MiB (87%)
Writing library : x265 3.4+1-7b120308dc64:[Windows][MSVC 1926][64 bit] 10bit
Encoding settings : cpuid=1111039 / frame-threads=3 / numa-pools=12 / wpp / no-pmode / no-pme / no-psnr / ssim / log-level=2 / input-csp=1 / input-res=1920x1080 / interlace=0 / total-frames=61023 / level-idc=0 / high-tier=1 / uhd-bd=0 / ref=3 / no-allow-non-conformance / no-repeat-headers / annexb / no-aud / no-hrd / info / hash=0 / no-temporal-layers / open-gop / min-keyint=23 / keyint=250 / gop-lookahead=0 / bframes=8 / b-adapt=2 / b-pyramid / bframe-bias=0 / rc-lookahead=80 / lookahead-slices=6 / scenecut=40 / hist-scenecut=0 / radl=0 / no-splice / no-intra-refresh / ctu=64 / min-cu-size=8 / no-rect / no-amp / max-tu-size=32 / tu-inter-depth=1 / tu-intra-depth=1 / limit-tu=0 / rdoq-level=0 / dynamic-rd=0.00 / no-ssim-rd / signhide / no-tskip / nr-intra=0 / nr-inter=0 / no-constrained-intra / no-strong-intra-smoothing / max-merge=3 / limit-refs=1 / no-limit-modes / me=3 / subme=5 / merange=57 / temporal-mvp / no-frame-dup / no-hme / weightp / no-weightb / no-analyze-src-pics / deblock=0:0 / sao / no-sao-non-deblock / rd=3 / selective-sao=4 / early-skip / no-rskip / no-fast-intra / no-tskip-fast / no-cu-lossless / b-intra / no-splitrd-skip / rdpenalty=0 / psy-rd=2.00 / psy-rdoq=0.00 / no-rd-refine / no-lossless / cbqpoffs=0 / crqpoffs=0 / rc=crf / crf=20.0 / qcomp=0.60 / qpstep=4 / stats-write=0 / stats-read=0 / ipratio=1.40 / pbratio=1.30 / aq-mode=3 / aq-strength=0.80 / cutree / zone-count=0 / no-strict-cbr / qg-size=32 / no-rc-grain / qpmax=69 / qpmin=0 / no-const-vbv / sar=0 / overscan=0 / videoformat=5 / range=0 / colorprim=2 / transfer=2 / colormatrix=2 / chromaloc=0 / display-window=0 / cll=0,0 / min-luma=0 / max-luma=1023 / log2-max-poc-lsb=8 / vui-timing-info / vui-hrd-info / slices=1 / no-opt-qp-pps / no-opt-ref-list-length-pps / no-multi-pass-opt-rps / scenecut-bias=0.05 / hist-threshold=0.01 / no-opt-cu-delta-qp / no-aq-motion / no-hdr10 / no-hdr10-opt / no-dhdr10-opt / no-idr-recovery-sei / analysis-reuse-level=0 / analysis-save-reuse-level=0 / analysis-load-reuse-level=0 / scale-factor=0 / refine-intra=0 / refine-inter=0 / refine-mv=1 / refine-ctu-distortion=0 / no-limit-sao / ctu-info=0 / no-lowpass-dct / refine-analysis-type=0 / copy-pic=1 / max-ausize-factor=1.0 / no-dynamic-refine / no-single-sei / no-hevc-aq / no-svt / no-field / qp-adaptation-range=1.00 / no-scenecut-aware-qpconformance-window-offsets / right=0 / bottom=0 / decoder-max-rate=0
Default : Yes
Forced : No

Audio
ID : 2
Format : AAC
Format/Info : Advanced Audio Codec
Format profile : LC
Codec ID : A_AAC
Duration : 42 min 25 s
Bit rate : 463 kb/s
Channel(s) : 6 channels
Channel positions : Front: L C R, Side: L R, LFE
Sampling rate : 48.0 kHz
Frame rate : 46.875 FPS (1024 spf)
Compression mode : Lossy
Delay relative to video : 20 ms
Stream size : 141 MiB (13%)
Language : English
Default : Yes
Forced : Yes

Subtitle #1
ID : 3
Format : UTF-8
Codec ID : S_TEXT/UTF8
Codec ID/Info : UTF-8 Plain Text
Duration : 42 min 16 s
Bit rate : 77 b/s
Count of elements : 783
Stream size : 24.0 KiB (0%)
Language : English
Default : No
Forced : No

Subtitle #2
ID : 4
Format : UTF-8
Codec ID : S_TEXT/UTF8
Codec ID/Info : UTF-8 Plain Text
Duration : 42 min 16 s
Bit rate : 84 b/s
Count of elements : 952
Stream size : 26.3 KiB (0%)
Language : English
Default : No
Forced : No

Screens












Download

Download: Google Drive

2 thoughts on “DC’s Legends of Tomorrow (2016) Season 1-5 (1080p Mixed x265 HEVC 10bit AAC 5.1 Vyndros)

Leave a Reply