House, M.D (2004) Season 1-8 (1080p BluRay x265 HEVC 10bit AAC 5.1 Joy)

Summary: Go deeper into the medical mysteries of House, TV’s most compelling drama. Hugh Laurie stars as the brilliant but sarcastic Dr. Gregory House, a maverick physician who is devoid of bedside manner. While his behavior can border on antisocial, Dr. House thrives on the challenge of solving the medical puzzles that other doctors give up on. Together with his hand-picked team of young medical experts, he’ll do whatever it takes in the race against the clock to solve the case.

Season 1

House, M.D (2004) Season 01 S01 REPACK (1080p BluRay x265 HEVC 10bit AAC 5.1 Joy) [UTR]

Files

House, M.D. Season 1 (1080p BD x265 10bit FS86 Joy)

  • House, M.D. S01E01 Pilot – Everybody Lies (1080p x265 10bit Joy).mkv (457.7 MB)
  • House, M.D. S01E02 Paternity (1080p x265 10bit Joy).mkv (454.6 MB)
  • House, M.D. S01E03 Occam’s Razor (1080p x265 10bit Joy).mkv (467.3 MB)
  • House, M.D. S01E04 Maternity (1080p x265 10bit Joy).mkv (457.8 MB)
  • House, M.D. S01E05 Damned If You Do (1080p x265 10bit Joy).mkv (464.6 MB)
  • House, M.D. S01E06 The Socratic Method (1080p x265 10bit Joy).mkv (481.0 MB)
  • House, M.D. S01E07 Fidelity (1080p x265 10bit Joy).mkv (462.4 MB)
  • House, M.D. S01E08 Poison (1080p x265 10bit Joy).mkv (462.6 MB)
  • House, M.D. S01E09 DNR (1080p x265 10bit Joy).mkv (462.9 MB)
  • House, M.D. S01E10 Histories (1080p x265 10bit Joy).mkv (467.3 MB)
  • House, M.D. S01E11 Detox (1080p x265 10bit Joy).mkv (466.1 MB)
  • House, M.D. S01E12 Sports Medicine (1080p x265 10bit Joy).mkv (454.7 MB)
  • House, M.D. S01E13 Cursed (1080p x265 10bit Joy).mkv (461.9 MB)
  • House, M.D. S01E14 Control (1080p x265 10bit Joy).mkv (467.1 MB)
  • House, M.D. S01E15 Mob Rules (1080p x265 10bit Joy).mkv (486.2 MB)
  • House, M.D. S01E16 Heavy (1080p x265 10bit Joy).mkv (468.4 MB)
  • House, M.D. S01E17 Role Model (1080p x265 10bit Joy).mkv (467.2 MB)
  • House, M.D. S01E18 Babies & Bathwater (1080p x265 10bit Joy).mkv (465.7 MB)
  • House, M.D. S01E19 Kids 19 (1080p x265 10bit Joy).mkv (465.6 MB)
  • House, M.D. S01E20 Love Hurts (1080p x265 10bit Joy).mkv (467.8 MB)
  • House, M.D. S01E21 Three Stories (1080p x265 10bit Joy).mkv (465.5 MB)
  • House, M.D. S01E22 Honeymoon (1080p x265 10bit Joy).mkv (467.6 MB)

Featurettes

  • House, M.D. – S01Extra – Casting Session with Hugh Laurie 1.mkv (2.0 MB)
  • House, M.D. – S01Extra – Dr House 2.mkv (12.6 MB)
  • House, M.D. – S01Extra – House-isms 3.mkv (7.7 MB)
  • House, M.D. – S01Extra – Medical Cases 4.mkv (9.1 MB)
  • House, M.D. – S01Extra – Set Tour 5.mkv (16.0 MB)
  • House, M.D. – S01Extra – The Concept 6.mkv (10.2 MB)

Mediainfo

General
Format : Matroska
Format version : Version 4 / Version 2
File size : 458 MiB
Duration : 44 min 5 s
Overall bit rate : 1 451 kb/s
Encoded date : UTC 2019-04-07 03:50:00
Writing application : mkvmerge v24.0.0 ('Beyond The Pale') 64-bit
Writing library : libebml v1.3.6 + libmatroska v1.4.9
Writing frontend : StaxRip v1.8.2.0

Video
ID : 1
Format : HEVC
Format/Info : High Efficiency Video Coding
Format profile : Main @Main
Codec ID : V_MPEGH/ISO/HEVC
Duration : 44 min 5 s
Bit rate : 1 199 kb/s
Width : 1 920 pixels
Height : 1 080 pixels
Display aspect ratio : 16:9
Frame rate mode : Constant
Frame rate : 23.976 (24000/1001) FPS
Color space : YUV
Chroma subsampling : 4:2:0
Bit depth : 10 bits
Bits/(Pixel*Frame) : 0.024
Stream size : 378 MiB (83%)
Writing library : x265 3.0_Au+14-c7e5878bdd31:[Windows][MSVC 1916][64 bit] 10bit
Encoding settings : cpuid=1111039 / frame-threads=4 / numa-pools=16 / wpp / no-pmode / no-pme / no-psnr / ssim / log-level=2 / input-csp=1 / input-res=1920x1080 / interlace=0 / total-frames=63432 / level-idc=0 / high-tier=1 / uhd-bd=0 / ref=4 / no-allow-non-conformance / no-repeat-headers / annexb / no-aud / no-hrd / info / hash=0 / no-temporal-layers / open-gop / min-keyint=23 / keyint=250 / gop-lookahead=0 / bframes=4 / b-adapt=2 / b-pyramid / bframe-bias=0 / rc-lookahead=80 / lookahead-slices=4 / scenecut=40 / radl=0 / no-splice / no-intra-refresh / ctu=64 / min-cu-size=8 / no-rect / no-amp / max-tu-size=32 / tu-inter-depth=1 / tu-intra-depth=1 / limit-tu=0 / rdoq-level=2 / dynamic-rd=0.00 / ssim-rd / signhide / no-tskip / nr-intra=0 / nr-inter=0 / no-constrained-intra / strong-intra-smoothing / max-merge=3 / limit-refs=3 / limit-modes / me=3 / subme=3 / merange=57 / temporal-mvp / weightp / no-weightb / no-analyze-src-pics / deblock=0:0 / sao / no-sao-non-deblock / rd=4 / no-early-skip / rskip / no-fast-intra / no-tskip-fast / no-cu-lossless / no-b-intra / no-splitrd-skip / rdpenalty=0 / psy-rd=0.00 / psy-rdoq=1.00 / no-rd-refine / no-lossless / cbqpoffs=0 / crqpoffs=0 / rc=abr / bitrate=1200 / qcomp=0.50 / qpstep=4 / stats-write=0 / stats-read=2 / cplxblur=20.0 / qblur=0.5 / vbv-maxrate=3600 / vbv-bufsize=7200 / vbv-init=0.9 / ipratio=1.40 / pbratio=1.30 / aq-mode=2 / aq-strength=0.80 / cutree / zone-count=0 / no-strict-cbr / qg-size=32 / no-rc-grain / qpmax=69 / qpmin=0 / no-const-vbv / sar=0 / overscan=0 / videoformat=5 / range=0 / colorprim=2 / transfer=2 / colormatrix=2 / chromaloc=0 / display-window=0 / max-cll=0,0 / min-luma=0 / max-luma=1023 / log2-max-poc-lsb=8 / vui-timing-info / vui-hrd-info / slices=1 / no-opt-qp-pps / no-opt-ref-list-length-pps / multi-pass-opt-rps / scenecut-bias=0.05 / no-opt-cu-delta-qp / no-aq-motion / no-hdr / no-hdr-opt / no-dhdr10-opt / no-idr-recovery-sei / analysis-reuse-level=10 / scale-factor=0 / refine-intra=0 / refine-inter=0 / refine-mv=0 / refine-ctu-distortion=0 / limit-sao / ctu-info=0 / no-lowpass-dct / refine-analysis-type=0 / copy-pic=1 / max-ausize-factor=1.0 / no-dynamic-refine / no-single-sei / no-hevc-aq / no-svt / qp-adaptation-range=1.00
Default : Yes
Forced : No

Audio
ID : 2
Format : AAC
Format/Info : Advanced Audio Codec
Format profile : HE-AAC / LC
Codec ID : A_AAC
Duration : 44 min 5 s
Bit rate : 192 kb/s
Channel(s) : 6 channels
Channel positions : Front: L C R, Side: L R, LFE
Sampling rate : 48.0 kHz / 24.0 kHz
Frame rate : 23.438 FPS (1024 spf)
Compression mode : Lossy
Delay relative to video : 31 ms
Stream size : 60.0 MiB (13%)
Language : English
Default : No
Forced : No

Subtitle #1
ID : 3
Format : VobSub
Muxing mode : zlib
Codec ID : S_VOBSUB
Codec ID/Info : Picture based subtitle format used on DVDs
Duration : 42 min 31 s
Bit rate : 17.5 kb/s
Count of elements : 835
Stream size : 5.31 MiB (1%)
Language : English
Default : No
Forced : No

Subtitle #2
ID : 4
Format : VobSub
Muxing mode : zlib
Codec ID : S_VOBSUB
Codec ID/Info : Picture based subtitle format used on DVDs
Duration : 42 min 28 s
Bit rate : 9 163 b/s
Count of elements : 638
Stream size : 2.78 MiB (1%)
Language : Japanese
Default : No
Forced : No

Subtitle #3
ID : 5
Format : VobSub
Muxing mode : zlib
Codec ID : S_VOBSUB
Codec ID/Info : Picture based subtitle format used on DVDs
Duration : 42 min 29 s
Bit rate : 12.9 kb/s
Count of elements : 582
Stream size : 3.92 MiB (1%)
Language : French
Default : No
Forced : No

Subtitle #4
ID : 6
Format : VobSub
Muxing mode : zlib
Codec ID : S_VOBSUB
Codec ID/Info : Picture based subtitle format used on DVDs
Duration : 42 min 28 s
Bit rate : 16.0 kb/s
Count of elements : 554
Stream size : 4.85 MiB (1%)
Language : German
Default : No
Forced : No

Subtitle #5
ID : 7
Format : VobSub
Muxing mode : zlib
Codec ID : S_VOBSUB
Codec ID/Info : Picture based subtitle format used on DVDs
Duration : 42 min 28 s
Bit rate : 14.8 kb/s
Count of elements : 718
Stream size : 4.50 MiB (1%)
Language : Spanish
Default : No
Forced : No

Subtitle #6
ID : 8
Format : VobSub
Muxing mode : zlib
Codec ID : S_VOBSUB
Codec ID/Info : Picture based subtitle format used on DVDs
Duration : 42 min 28 s
Bit rate : 13.5 kb/s
Count of elements : 658
Stream size : 4.11 MiB (1%)
Language : Portuguese
Default : No
Forced : No

Subtitle #7
ID : 9
Format : VobSub
Muxing mode : zlib
Codec ID : S_VOBSUB
Codec ID/Info : Picture based subtitle format used on DVDs
Duration : 42 min 29 s
Bit rate : 11.6 kb/s
Count of elements : 457
Stream size : 3.54 MiB (1%)
Language : Dutch
Default : No
Forced : No

Menu
00:00:00.000 : en: Chapter 1
00:03:01.390 : en: Chapter 2
00:11:44.245 : en: Chapter 3
00:21:29.163 : en: Chapter 4
00:31:32.474 : en: Chapter 5
00:43:28.105 : en: Chapter 6

Download

Download: Google Drive

Season 2

House, M.D (2004) Season 02 S02 (1080p BluRay x265 HEVC 10bit AAC 5.1 Joy) [UTR]

Files

House, M.D. Season 2 (1080p BD x265 10bit Joy)

  • House, M.D. S02E01 Acceptance (1080p x265 10bit Joy).mkv (484.7 MB)
  • House, M.D. S02E02 Autopsy (1080p x265 10bit Joy).mkv (496.3 MB)
  • House, M.D. S02E03 Humpty Dumpty (1080p x265 10bit Joy).mkv (479.5 MB)
  • House, M.D. S02E04 TB or Not TB (1080p x265 10bit Joy).mkv (490.0 MB)
  • House, M.D. S02E05 Daddy’s Boy (1080p x265 10bit Joy).mkv (485.1 MB)
  • House, M.D. S02E06 Spin (1080p x265 10bit Joy).mkv (491.2 MB)
  • House, M.D. S02E07 Hunting (1080p x265 10bit Joy).mkv (485.1 MB)
  • House, M.D. S02E08 The Mistake (1080p x265 10bit Joy).mkv (493.9 MB)
  • House, M.D. S02E09 Deception (1080p x265 10bit Joy).mkv (492.3 MB)
  • House, M.D. S02E10 Failure to Communicate (1080p x265 10bit Joy).mkv (485.8 MB)
  • House, M.D. S02E11 Need to Know (1080p x265 10bit Joy).mkv (485.4 MB)
  • House, M.D. S02E12 Distractions (1080p x265 10bit Joy).mkv (486.1 MB)
  • House, M.D. S02E13 Skin Deep (1080p x265 10bit Joy).mkv (483.2 MB)
  • House, M.D. S02E14 Sex Kills (1080p x265 10bit Joy).mkv (483.6 MB)
  • House, M.D. S02E15 Clueless (1080p x265 10bit Joy).mkv (501.7 MB)
  • House, M.D. S02E16 Safe (1080p x265 10bit Joy).mkv (480.8 MB)
  • House, M.D. S02E17 All In (1080p x265 10bit Joy).mkv (486.6 MB)
  • House, M.D. S02E18 Sleeping Dogs Lie (1080p x265 10bit Joy).mkv (490.8 MB)
  • House, M.D. S02E19 House vs. God (1080p x265 10bit Joy).mkv (487.2 MB)
  • House, M.D. S02E20 Euphoria (Part 1) (1080p x265 10bit Joy).mkv (486.9 MB)
  • House, M.D. S02E21 Euphoria (Part 2) (1080p x265 10bit Joy).mkv (500.3 MB)
  • House, M.D. S02E22 Forever (1080p x265 10bit Joy).mkv (502.7 MB)
  • House, M.D. S02E23 Who’s Your Daddy (1080p x265 10bit Joy).mkv (479.3 MB)
  • House, M.D. S02E24 No Reason (1080p x265 10bit Joy).mkv (503.8 MB)

Featurettes

  • House, M.D. – S02Extra – Alternate Take from ‘Daddy’s Boy’ – The Valley Girl Version 7.mkv (1.9 MB)
  • House, M.D. – S02Extra – Alternate Take from ‘Sleeping Dogs Lie’ – The Valley Girl Version 8.mkv (1.6 MB)
  • House, M.D. – S02Extra – An Evening with House 9.mkv (26.5 MB)
  • House, M.D. – S02Extra – Blooper Reel 10.mkv (8.4 MB)
  • House, M.D. – S02Extra – It Could be Lupus 11.mkv (2.2 MB)

Mediainfo

General
Format                                   : Matroska
Format version                           : Version 4 / Version 2
File size                                : 485 MiB
Duration                                 : 43 min 42 s
Overall bit rate                         : 1 550 kb/s
Movie name                               : House, M.D. S02E01 Acceptance  (1080p x265 10bit Joy)
Encoded date                             : UTC 2019-04-15 21:36:41
Writing application                      : mkvmerge v26.0.0 ('In The Game') 64-bit
Writing library                          : libebml v1.3.6 + libmatroska v1.4.9
Writing frontend                         : StaxRip v1.9.0.0, a JoyBell Encode

Video
ID                                       : 1
Format                                   : HEVC
Format/Info                              : High Efficiency Video Coding
Format profile                           : Main @Main
Codec ID                                 : V_MPEGH/ISO/HEVC
Duration                                 : 43 min 42 s
Bit rate                                 : 1 200 kb/s
Width                                    : 1 920 pixels
Height                                   : 1 080 pixels
Display aspect ratio                     : 16:9
Frame rate mode                          : Constant
Frame rate                               : 23.976 (24000/1001) FPS
Color space                              : YUV
Chroma subsampling                       : 4:2:0
Bit depth                                : 10 bits
Bits/(Pixel*Frame)                       : 0.024
Stream size                              : 375 MiB (77%)
Writing library                          : x265 3.0_Au+14-c7e5878bdd31:[Windows][MSVC 1916][64 bit] 10bit
Encoding settings                        : cpuid=1111039 / frame-threads=3 / numa-pools=8 / wpp / no-pmode / no-pme / no-psnr / ssim / log-level=2 / input-csp=1 / input-res=1920x1080 / interlace=0 / total-frames=62886 / level-idc=0 / high-tier=1 / uhd-bd=0 / ref=4 / no-allow-non-conformance / no-repeat-headers / annexb / no-aud / no-hrd / info / hash=0 / no-temporal-layers / open-gop / min-keyint=23 / keyint=250 / gop-lookahead=0 / bframes=4 / b-adapt=2 / b-pyramid / bframe-bias=0 / rc-lookahead=80 / lookahead-slices=4 / scenecut=40 / radl=0 / no-splice / no-intra-refresh / ctu=64 / min-cu-size=8 / no-rect / no-amp / max-tu-size=32 / tu-inter-depth=1 / tu-intra-depth=1 / limit-tu=0 / rdoq-level=2 / dynamic-rd=0.00 / ssim-rd / signhide / no-tskip / nr-intra=0 / nr-inter=0 / no-constrained-intra / strong-intra-smoothing / max-merge=3 / limit-refs=3 / limit-modes / me=3 / subme=3 / merange=57 / temporal-mvp / weightp / no-weightb / no-analyze-src-pics / deblock=2:2 / sao / no-sao-non-deblock / rd=4 / early-skip / rskip / no-fast-intra / no-tskip-fast / no-cu-lossless / no-b-intra / splitrd-skip / rdpenalty=0 / psy-rd=0.00 / psy-rdoq=1.00 / no-rd-refine / no-lossless / cbqpoffs=0 / crqpoffs=0 / rc=abr / bitrate=1200 / qcomp=0.60 / qpstep=4 / stats-write=0 / stats-read=2 / cplxblur=20.0 / qblur=0.5 / ipratio=1.40 / pbratio=1.30 / aq-mode=2 / aq-strength=0.80 / cutree / zone-count=0 / no-strict-cbr / qg-size=32 / no-rc-grain / qpmax=69 / qpmin=0 / no-const-vbv / sar=0 / overscan=0 / videoformat=5 / range=0 / colorprim=2 / transfer=2 / colormatrix=2 / chromaloc=0 / display-window=0 / max-cll=0,0 / min-luma=0 / max-luma=1023 / log2-max-poc-lsb=8 / vui-timing-info / vui-hrd-info / slices=1 / no-opt-qp-pps / no-opt-ref-list-length-pps / multi-pass-opt-rps / scenecut-bias=0.05 / no-opt-cu-delta-qp / no-aq-motion / no-hdr / no-hdr-opt / no-dhdr10-opt / no-idr-recovery-sei / analysis-reuse-level=10 / scale-factor=0 / refine-intra=0 / refine-inter=0 / refine-mv=0 / refine-ctu-distortion=0 / limit-sao / ctu-info=0 / no-lowpass-dct / refine-analysis-type=0 / copy-pic=1 / max-ausize-factor=1.0 / no-dynamic-refine / no-single-sei / no-hevc-aq / no-svt / qp-adaptation-range=1.00
Default                                  : Yes
Forced                                   : No

Audio
ID                                       : 2
Format                                   : AAC
Format/Info                              : Advanced Audio Codec
Format profile                           : HE-AAC / LC
Codec ID                                 : A_AAC
Duration                                 : 43 min 42 s
Bit rate                                 : 213 kb/s
Channel(s)                               : 6 channels
Channel positions                        : Front: L C R, Side: L R, LFE
Sampling rate                            : 48.0 kHz / 24.0 kHz
Frame rate                               : 23.438 FPS (1024 spf)
Compression mode                         : Lossy
Delay relative to video                  : 31 ms
Stream size                              : 66.6 MiB (14%)
Language                                 : English
Default                                  : No
Forced                                   : No

Subtitle #1
ID                                       : 3
Format                                   : PGS
Muxing mode                              : zlib
Codec ID                                 : S_HDMV/PGS
Codec ID/Info                            : Picture based subtitle format used on BDs/HD-DVDs
Duration                                 : 41 min 55 s
Bit rate                                 : 80.1 kb/s
Count of elements                        : 1414
Stream size                              : 24.0 MiB (5%)
Language                                 : English
Default                                  : No
Forced                                   : No

Subtitle #2
ID                                       : 4
Format                                   : PGS
Muxing mode                              : zlib
Codec ID                                 : S_HDMV/PGS
Codec ID/Info                            : Picture based subtitle format used on BDs/HD-DVDs
Duration                                 : 43 min 1 s
Bit rate                                 : 34.6 kb/s
Count of elements                        : 1235
Stream size                              : 10.6 MiB (2%)
Language                                 : Japanese
Default                                  : No
Forced                                   : No

Subtitle #3
ID                                       : 5
Format                                   : PGS
Muxing mode                              : zlib
Codec ID                                 : S_HDMV/PGS
Codec ID/Info                            : Picture based subtitle format used on BDs/HD-DVDs
Duration                                 : 43 min 1 s
Bit rate                                 : 63.0 kb/s
Count of elements                        : 1368
Stream size                              : 19.4 MiB (4%)
Language                                 : French
Default                                  : No
Forced                                   : No

Subtitle #4
ID                                       : 6
Format                                   : PGS
Muxing mode                              : zlib
Codec ID                                 : S_HDMV/PGS
Codec ID/Info                            : Picture based subtitle format used on BDs/HD-DVDs
Duration                                 : 41 min 56 s
Bit rate                                 : 65.8 kb/s
Count of elements                        : 870
Stream size                              : 19.7 MiB (4%)
Language                                 : German
Default                                  : No
Forced                                   : No

Subtitle #5
ID                                       : 7
Format                                   : PGS
Muxing mode                              : zlib
Codec ID                                 : S_HDMV/PGS
Codec ID/Info                            : Picture based subtitle format used on BDs/HD-DVDs
Duration                                 : 43 min 1 s
Bit rate                                 : 66.3 kb/s
Count of elements                        : 1096
Stream size                              : 20.4 MiB (4%)
Language                                 : Spanish
Default                                  : No
Forced                                   : No

Subtitle #6
ID                                       : 8
Format                                   : PGS
Muxing mode                              : zlib
Codec ID                                 : S_HDMV/PGS
Codec ID/Info                            : Picture based subtitle format used on BDs/HD-DVDs
Duration                                 : 43 min 1 s
Bit rate                                 : 64.3 kb/s
Count of elements                        : 1334
Stream size                              : 19.8 MiB (4%)
Language                                 : Portuguese
Default                                  : No
Forced                                   : No

Subtitle #7
ID                                       : 9
Format                                   : PGS
Muxing mode                              : zlib
Codec ID                                 : S_HDMV/PGS
Codec ID/Info                            : Picture based subtitle format used on BDs/HD-DVDs
Duration                                 : 41 min 56 s
Bit rate                                 : 56.2 kb/s
Count of elements                        : 858
Stream size                              : 16.9 MiB (3%)
Language                                 : Dutch
Default                                  : No
Forced                                   : No

Menu
00:00:00.000                             : en: Chapter 1
00:03:06.603                             : en: Chapter 2
00:12:22.742                             : en: Chapter 3
00:21:14.815                             : en: Chapter 4
00:30:23.113                             : en: Chapter 5
00:43:05.666                             : en: Chapter 6

Download

Download: Google Drive

Season 3

House, M.D (2004) Season 03 S03 REPACK (1080p BluRay x265 HEVC 10bit AAC 5.1 Joy) [UTR]

Files

House, M.D. Season 3 (1080p BD x265 10bit FS91 Joy)

  • House, M.D. S03E01 Meaning (1080p x265 10bit Joy).mkv (448.6 MB)
  • House, M.D. S03E02 Cane and Able (1080p x265 10bit Joy).mkv (452.2 MB)
  • House, M.D. S03E03 Informed Consent (1080p x265 10bit Joy).mkv (448.3 MB)
  • House, M.D. S03E04 Lines in the Sand (1080p x265 10bit Joy).mkv (454.2 MB)
  • House, M.D. S03E05 Fools for Love (1080p x265 10bit Joy).mkv (456.0 MB)
  • House, M.D. S03E06 Que Será Será (1080p x265 10bit Joy).mkv (448.8 MB)
  • House, M.D. S03E07 Son of Coma Guy (1080p x265 10bit Joy).mkv (453.1 MB)
  • House, M.D. S03E08 Whac-A-Mole (1080p x265 10bit Joy).mkv (455.7 MB)
  • House, M.D. S03E09 Finding Judas (1080p x265 10bit Joy).mkv (451.7 MB)
  • House, M.D. S03E10 Merry Little Christmas (1080p x265 10bit Joy).mkv (453.4 MB)
  • House, M.D. S03E11 Words and Deeds (1080p x265 10bit Joy).mkv (454.0 MB)
  • House, M.D. S03E12 One Day, One Room (1080p x265 10bit Joy).mkv (441.6 MB)
  • House, M.D. S03E13 Needle in a Haystack (1080p x265 10bit Joy).mkv (451.3 MB)
  • House, M.D. S03E14 Insensitive (1080p x265 10bit Joy).mkv (456.8 MB)
  • House, M.D. S03E15 Half-Wit (1080p x265 10bit Joy).mkv (438.8 MB)
  • House, M.D. S03E16 Top Secret (1080p x265 10bit Joy).mkv (463.0 MB)
  • House, M.D. S03E17 Fetal Position (1080p x265 10bit Joy).mkv (454.8 MB)
  • House, M.D. S03E18 Airborne (1080p x265 10bit Joy).mkv (452.0 MB)
  • House, M.D. S03E19 Act Your Age (1080p x265 10bit Joy).mkv (453.0 MB)
  • House, M.D. S03E20 House Training (1080p x265 10bit Joy).mkv (452.3 MB)
  • House, M.D. S03E21 Family (1080p x265 10bit Joy).mkv (495.4 MB)
  • House, M.D. S03E22 Resignation (1080p x265 10bit Joy).mkv (448.6 MB)
  • House, M.D. S03E23 The Jerk (1080p x265 10bit Joy).mkv (517.5 MB)
  • House, M.D. S03E24 Human Error (1080p x265 10bit Joy).mkv (524.3 MB)

Featurettes

  • House, M.D. S03Extra Alternate Take from ‘Cane and Able’ – The Angry Valley Girl Version.mkv (2.5 MB)
  • House, M.D. S03Extra Anatomy of an Episode – ‘The Jerk’.mkv (46.7 MB)
  • House, M.D. S03Extra Blood, Needles and Body Parts – The House Prop Department.mkv (10.3 MB)
  • House, M.D. S03Extra Blooper Reel.mkv (9.3 MB)
  • House, M.D. S03Extra House Soundtrack Session with ‘Band From TV’.mkv (18.5 MB)
  • House, M.D. S03Extra Open House – The Production Office.mkv (10.1 MB)

Mediainfo

General
Format : Matroska
Format version : Version 4 / Version 2
File size : 524 MiB
Duration : 44 min 0 s
Overall bit rate : 1 665 kb/s
Movie name : House, M.D. S03E24 Human Error (1080p x265 10bit Joy)
Encoded date : UTC 2019-04-27 02:31:23
Writing application : mkvmerge v24.0.0 ('Beyond The Pale') 64-bit
Writing library : libebml v1.3.6 + libmatroska v1.4.9
Writing frontend : StaxRip v1.8.2.0, a JoyBell Encode

Video
ID : 1
Format : HEVC
Format/Info : High Efficiency Video Coding
Format profile : Main @Main
Codec ID : V_MPEGH/ISO/HEVC
Duration : 44 min 0 s
Bit rate : 1 433 kb/s
Width : 1 920 pixels
Height : 1 080 pixels
Display aspect ratio : 16:9
Frame rate mode : Constant
Frame rate : 23.976 (24000/1001) FPS
Color space : YUV
Chroma subsampling : 4:2:0
Bit depth : 10 bits
Bits/(Pixel*Frame) : 0.029
Stream size : 451 MiB (86%)
Writing library : x265 3.0_Au+14-c7e5878bdd31:[Windows][MSVC 1916][64 bit] 10bit
Encoding settings : cpuid=1111039 / frame-threads=3 / numa-pools=8 / wpp / no-pmode / no-pme / no-psnr / ssim / log-level=2 / input-csp=1 / input-res=1920x1080 / interlace=0 / total-frames=63313 / level-idc=0 / high-tier=1 / uhd-bd=0 / ref=4 / no-allow-non-conformance / no-repeat-headers / annexb / no-aud / no-hrd / info / hash=0 / no-temporal-layers / open-gop / min-keyint=23 / keyint=250 / gop-lookahead=0 / bframes=8 / b-adapt=2 / b-pyramid / bframe-bias=40 / rc-lookahead=80 / lookahead-slices=4 / scenecut=40 / radl=0 / no-splice / no-intra-refresh / ctu=64 / min-cu-size=8 / no-rect / no-amp / max-tu-size=32 / tu-inter-depth=1 / tu-intra-depth=1 / limit-tu=0 / rdoq-level=2 / dynamic-rd=0.00 / ssim-rd / signhide / no-tskip / nr-intra=0 / nr-inter=0 / no-constrained-intra / strong-intra-smoothing / max-merge=3 / limit-refs=3 / limit-modes / me=3 / subme=3 / merange=57 / temporal-mvp / weightp / no-weightb / no-analyze-src-pics / deblock=0:0 / sao / no-sao-non-deblock / rd=4 / early-skip / rskip / no-fast-intra / no-tskip-fast / no-cu-lossless / no-b-intra / splitrd-skip / rdpenalty=0 / psy-rd=0.00 / psy-rdoq=1.50 / no-rd-refine / no-lossless / cbqpoffs=0 / crqpoffs=0 / rc=abr / bitrate=1200 / qcomp=0.60 / qpstep=4 / stats-write=0 / stats-read=2 / cplxblur=20.0 / qblur=0.5 / ipratio=1.40 / pbratio=1.30 / aq-mode=3 / aq-strength=0.80 / cutree / zone-count=0 / no-strict-cbr / qg-size=32 / no-rc-grain / qpmax=69 / qpmin=0 / no-const-vbv / sar=0 / overscan=0 / videoformat=5 / range=0 / colorprim=2 / transfer=2 / colormatrix=2 / chromaloc=0 / display-window=0 / max-cll=0,0 / min-luma=0 / max-luma=1023 / log2-max-poc-lsb=8 / vui-timing-info / vui-hrd-info / slices=1 / no-opt-qp-pps / no-opt-ref-list-length-pps / multi-pass-opt-rps / scenecut-bias=0.05 / no-opt-cu-delta-qp / no-aq-motion / no-hdr / no-hdr-opt / no-dhdr10-opt / no-idr-recovery-sei / analysis-reuse-level=10 / scale-factor=0 / refine-intra=0 / refine-inter=0 / refine-mv=0 / refine-ctu-distortion=0 / limit-sao / ctu-info=0 / no-lowpass-dct / refine-analysis-type=0 / copy-pic=1 / max-ausize-factor=1.0 / no-dynamic-refine / no-single-sei / no-hevc-aq / no-svt / qp-adaptation-range=1.00
Default : Yes
Forced : No

Audio
ID : 2
Format : AAC
Format/Info : Advanced Audio Codec
Format profile : HE-AAC / LC
Codec ID : A_AAC
Duration : 44 min 0 s
Bit rate : 182 kb/s
Channel(s) : 6 channels
Channel positions : Front: L C R, Side: L R, LFE
Sampling rate : 48.0 kHz / 24.0 kHz
Frame rate : 23.438 FPS (1024 spf)
Compression mode : Lossy
Delay relative to video : 31 ms
Stream size : 57.3 MiB (11%)
Language : English
Default : No
Forced : No

Subtitle #1
ID : 3
Format : VobSub
Muxing mode : zlib
Codec ID : S_VOBSUB
Codec ID/Info : Picture based subtitle format used on DVDs
Duration : 41 min 32 s
Bit rate : 14.2 kb/s
Count of elements : 713
Stream size : 4.22 MiB (1%)
Language : English
Default : No
Forced : No

Subtitle #2
ID : 4
Format : VobSub
Muxing mode : zlib
Codec ID : S_VOBSUB
Codec ID/Info : Picture based subtitle format used on DVDs
Duration : 41 min 26 s
Bit rate : 8 364 b/s
Count of elements : 570
Stream size : 2.48 MiB (0%)
Language : Japanese
Default : No
Forced : No

Subtitle #3
ID : 5
Format : VobSub
Muxing mode : zlib
Codec ID : S_VOBSUB
Codec ID/Info : Picture based subtitle format used on DVDs
Duration : 41 min 27 s
Bit rate : 10.9 kb/s
Count of elements : 524
Stream size : 3.23 MiB (1%)
Language : French
Default : No
Forced : No

Subtitle #4
ID : 6
Format : VobSub
Muxing mode : zlib
Codec ID : S_VOBSUB
Codec ID/Info : Picture based subtitle format used on DVDs
Duration : 41 min 27 s
Bit rate : 13.9 kb/s
Count of elements : 503
Stream size : 4.11 MiB (1%)
Language : German
Default : No
Forced : No

Subtitle #5
ID : 7
Format : VobSub
Muxing mode : zlib
Codec ID : S_VOBSUB
Codec ID/Info : Picture based subtitle format used on DVDs
Duration : 41 min 26 s
Bit rate : 9 312 b/s
Count of elements : 415
Stream size : 2.76 MiB (1%)
Language : Spanish
Default : No
Forced : No

Subtitle #6
ID : 8
Format : VobSub
Muxing mode : zlib
Codec ID : S_VOBSUB
Codec ID/Info : Picture based subtitle format used on DVDs
Duration : 41 min 27 s
Bit rate : 11.8 kb/s
Count of elements : 595
Stream size : 3.49 MiB (1%)
Language : Portuguese
Default : No
Forced : No

Subtitle #7
ID : 9
Format : VobSub
Muxing mode : zlib
Codec ID : S_VOBSUB
Codec ID/Info : Picture based subtitle format used on DVDs
Duration : 41 min 28 s
Bit rate : 10.2 kb/s
Count of elements : 404
Stream size : 3.03 MiB (1%)
Language : Dutch
Default : No
Forced : No

Menu
00:00:00.000 : en: Chapter 1 Chapter 1
00:03:22.786 : en: Chapter 2 Chapter 2
00:12:11.064 : en: Chapter 3 Chapter 3
00:21:52.102 : en: Chapter 4 Chapter 4
00:32:30.615 : en: Chapter 5 Chapter 5
00:43:18.638 : en: Chapter 6 Chapter 6

Download

Download: Google Drive

Season 4

House, M.D (2004) Season 04 S04 (1080p BluRay x265 HEVC 10bit AAC 5.1 Joy) [UTR]

Files

House, M.D. Season 4 (1080p BD x265 10bit FS87 Joy)

  • House, M.D. S04E01 Alone (1080p x265 10bit Joy).mkv (458.8 MB)
  • House, M.D. S04E02 The Right Stuff (1080p x265 10bit Joy).mkv (462.3 MB)
  • House, M.D. S04E03 97 Seconds (1080p x265 10bit Joy).mkv (461.2 MB)
  • House, M.D. S04E04 Guardian Angels (1080p x265 10bit Joy).mkv (462.4 MB)
  • House, M.D. S04E05 Mirror Mirror (1080p x265 10bit Joy).mkv (463.3 MB)
  • House, M.D. S04E06 Whatever It Takes (1080p x265 10bit Joy).mkv (462.6 MB)
  • House, M.D. S04E07 Ugly (1080p x265 10bit Joy).mkv (459.9 MB)
  • House, M.D. S04E08 You Don’t Want to Know (1080p x265 10bit Joy).mkv (461.9 MB)
  • House, M.D. S04E09 Games (1080p x265 10bit Joy).mkv (463.1 MB)
  • House, M.D. S04E10 It’s a Wonderful Lie (1080p x265 10bit Joy).mkv (460.5 MB)
  • House, M.D. S04E11 Frozen (1080p x265 10bit Joy).mkv (484.2 MB)
  • House, M.D. S04E12 Don’t Ever Change (1080p x265 10bit Joy).mkv (481.4 MB)
  • House, M.D. S04E13 No More Mr. Nice Guy (1080p x265 10bit Joy).mkv (480.2 MB)
  • House, M.D. S04E14 Living the Dream (1080p x265 10bit Joy).mkv (481.2 MB)
  • House, M.D. S04E15 House’s Head (1080p x265 10bit Joy).mkv (467.6 MB)
  • House, M.D. S04E16 Wilson’s Heart (1080p x265 10bit Joy).mkv (465.7 MB)

Featurettes

  • House, M.D. – S04Extra – Anatomy of a Scene – The Bus Crash.mkv (14.2 MB)
  • House, M.D. – S04Extra – House’s Soap – Prescription Passion.mkv (11.5 MB)
  • House, M.D. – S04Extra – Meet The Writers.mkv (21.3 MB)
  • House, M.D. – S04Extra – My Favorite Episode so far….mkv (10.8 MB)
  • House, M.D. – S04Extra – New Beginnings.mkv (41.9 MB)
  • House, M.D. – S04Extra – The Visual Effects of House.mkv (26.4 MB)

Mediainfo

General
Format : Matroska
Format version : Version 4 / Version 2
File size : 459 MiB
Duration : 43 min 41 s
Overall bit rate : 1 468 kb/s
Movie name : House, M.D. S04E01 Alone (1080p x265 10bit Joy)
Encoded date : UTC 2019-04-26 10:23:51
Writing application : mkvmerge v28.2.0 ('The Awakening') 64-bit
Writing library : libebml v1.3.6 + libmatroska v1.4.9
Writing frontend : StaxRip v2.0, Encoded by JoyBell

Video
ID : 1
Format : HEVC
Format/Info : High Efficiency Video Coding
Format profile : Main @Main
Codec ID : V_MPEGH/ISO/HEVC
Duration : 43 min 41 s
Bit rate : 1 200 kb/s
Width : 1 920 pixels
Height : 1 080 pixels
Display aspect ratio : 16:9
Frame rate mode : Constant
Frame rate : 23.976 (24000/1001) FPS
Color space : YUV
Chroma subsampling : 4:2:0
Bit depth : 10 bits
Bits/(Pixel*Frame) : 0.024
Stream size : 375 MiB (82%)
Writing library : x265 3.0_Au+14-c7e5878bdd31:[Windows][MSVC 1916][64 bit] 10bit
Encoding settings : cpuid=1111039 / frame-threads=3 / numa-pools=12 / wpp / no-pmode / no-pme / no-psnr / ssim / log-level=2 / input-csp=1 / input-res=1920x1080 / interlace=0 / total-frames=62852 / level-idc=0 / high-tier=1 / uhd-bd=0 / ref=4 / no-allow-non-conformance / no-repeat-headers / annexb / no-aud / no-hrd / info / hash=0 / no-temporal-layers / open-gop / min-keyint=23 / keyint=250 / gop-lookahead=0 / bframes=4 / b-adapt=2 / b-pyramid / bframe-bias=0 / rc-lookahead=80 / lookahead-slices=4 / scenecut=40 / radl=0 / no-splice / no-intra-refresh / ctu=64 / min-cu-size=8 / no-rect / no-amp / max-tu-size=32 / tu-inter-depth=1 / tu-intra-depth=1 / limit-tu=0 / rdoq-level=2 / dynamic-rd=0.00 / ssim-rd / signhide / no-tskip / nr-intra=0 / nr-inter=0 / no-constrained-intra / strong-intra-smoothing / max-merge=3 / limit-refs=3 / limit-modes / me=3 / subme=3 / merange=57 / temporal-mvp / weightp / no-weightb / no-analyze-src-pics / deblock=0:0 / sao / no-sao-non-deblock / rd=4 / early-skip / rskip / no-fast-intra / no-tskip-fast / no-cu-lossless / no-b-intra / splitrd-skip / rdpenalty=0 / psy-rd=2.20 / psy-rdoq=1.15 / no-rd-refine / no-lossless / cbqpoffs=0 / crqpoffs=0 / rc=abr / bitrate=1200 / qcomp=0.60 / qpstep=4 / stats-write=0 / stats-read=2 / cplxblur=20.0 / qblur=0.5 / ipratio=1.40 / pbratio=1.30 / aq-mode=3 / aq-strength=0.80 / cutree / zone-count=0 / no-strict-cbr / qg-size=32 / no-rc-grain / qpmax=69 / qpmin=0 / no-const-vbv / sar=0 / overscan=0 / videoformat=5 / range=0 / colorprim=2 / transfer=2 / colormatrix=2 / chromaloc=0 / display-window=0 / max-cll=0,0 / min-luma=0 / max-luma=1023 / log2-max-poc-lsb=8 / vui-timing-info / vui-hrd-info / slices=1 / no-opt-qp-pps / no-opt-ref-list-length-pps / multi-pass-opt-rps / scenecut-bias=0.05 / no-opt-cu-delta-qp / no-aq-motion / no-hdr / no-hdr-opt / no-dhdr10-opt / no-idr-recovery-sei / analysis-reuse-level=10 / scale-factor=0 / refine-intra=0 / refine-inter=0 / refine-mv=0 / refine-ctu-distortion=0 / limit-sao / ctu-info=0 / no-lowpass-dct / refine-analysis-type=0 / copy-pic=1 / max-ausize-factor=1.0 / no-dynamic-refine / no-single-sei / no-hevc-aq / no-svt / qp-adaptation-range=1.00
Default : Yes
Forced : No

Audio
ID : 2
Format : AAC
Format/Info : Advanced Audio Codec
Format profile : HE-AAC / LC
Codec ID : A_AAC
Duration : 43 min 41 s
Bit rate : 208 kb/s
Channel(s) : 6 channels
Channel positions : Front: L C R, Side: L R, LFE
Sampling rate : 48.0 kHz / 24.0 kHz
Frame rate : 23.438 FPS (1024 spf)
Compression mode : Lossy
Delay relative to video : 31 ms
Stream size : 64.9 MiB (14%)
Language : English
Default : No
Forced : No

Subtitle #1
ID : 3
Format : VobSub
Muxing mode : zlib
Codec ID : S_VOBSUB
Codec ID/Info : Picture based subtitle format used on DVDs
Duration : 42 min 55 s
Bit rate : 15.6 kb/s
Count of elements : 754
Stream size : 4.78 MiB (1%)
Language : English
Default : No
Forced : No

Subtitle #2
ID : 4
Format : VobSub
Muxing mode : zlib
Codec ID : S_VOBSUB
Codec ID/Info : Picture based subtitle format used on DVDs
Duration : 42 min 50 s
Bit rate : 9 285 b/s
Count of elements : 648
Stream size : 2.85 MiB (1%)
Language : Japanese
Default : No
Forced : No

Subtitle #3
ID : 5
Format : VobSub
Muxing mode : zlib
Codec ID : S_VOBSUB
Codec ID/Info : Picture based subtitle format used on DVDs
Duration : 42 min 51 s
Bit rate : 12.2 kb/s
Count of elements : 609
Stream size : 3.74 MiB (1%)
Language : French
Default : No
Forced : No

Subtitle #4
ID : 6
Format : VobSub
Muxing mode : zlib
Codec ID : S_VOBSUB
Codec ID/Info : Picture based subtitle format used on DVDs
Duration : 42 min 51 s
Bit rate : 15.2 kb/s
Count of elements : 591
Stream size : 4.67 MiB (1%)
Language : German
Default : No
Forced : No

Subtitle #5
ID : 7
Format : VobSub
Muxing mode : zlib
Codec ID : S_VOBSUB
Codec ID/Info : Picture based subtitle format used on DVDs
Duration : 42 min 51 s
Bit rate : 13.2 kb/s
Count of elements : 701
Stream size : 4.05 MiB (1%)
Language : Spanish
Default : No
Forced : No

Subtitle #6
ID : 8
Format : VobSub
Muxing mode : zlib
Codec ID : S_VOBSUB
Codec ID/Info : Picture based subtitle format used on DVDs
Duration : 42 min 51 s
Bit rate : 13.2 kb/s
Count of elements : 664
Stream size : 4.05 MiB (1%)
Language : Portuguese
Default : No
Forced : No

Subtitle #7
ID : 9
Format : VobSub
Muxing mode : zlib
Codec ID : S_VOBSUB
Codec ID/Info : Picture based subtitle format used on DVDs
Duration : 42 min 51 s
Bit rate : 11.3 kb/s
Count of elements : 441
Stream size : 3.46 MiB (1%)
Language : Dutch
Default : No
Forced : No

Menu
00:00:00.000 : en: Chapter 1
00:02:24.227 : en: Chapter 2
00:12:08.311 : en: Chapter 3
00:20:52.626 : en: Chapter 4
00:28:45.807 : en: Chapter 5
00:42:59.285 : en: Chapter 6

Download

Download: Google Drive

Season 5

House, M.D (2004) Season 05 S05 (1080p BluRay x265 HEVC 10bit AAC 5.1 Joy) [UTR]

Files

House, M.D. Season 5 (1080p BD x265 10bit FS87 Joy)

  • House, M.D. S05E01 Dying Changes Everything (1080p x265 10bit Joy).mkv (460.0 MB)
  • House, M.D. S05E02 Not Cancer (1080p x265 10bit Joy).mkv (462.4 MB)
  • House, M.D. S05E03 Adverse Events (1080p x265 10bit Joy).mkv (465.0 MB)
  • House, M.D. S05E04 Birthmarks (1080p x265 10bit Joy).mkv (486.1 MB)
  • House, M.D. S05E05 Lucky Thirteen (1080p x265 10bit Joy).mkv (462.9 MB)
  • House, M.D. S05E06 Joy (1080p x265 10bit Joy).mkv (462.2 MB)
  • House, M.D. S05E07 The Itch (1080p x265 10bit Joy).mkv (461.6 MB)
  • House, M.D. S05E08 Emancipation (1080p x265 10bit Joy).mkv (462.1 MB)
  • House, M.D. S05E09 Last Resort (1080p x265 10bit Joy).mkv (525.6 MB)
  • House, M.D. S05E10 Let Them Eat Cake (1080p x265 10bit Joy).mkv (462.3 MB)
  • House, M.D. S05E11 Joy to the World (1080p x265 10bit Joy).mkv (461.8 MB)
  • House, M.D. S05E12 Painless (1080p x265 10bit Joy).mkv (462.6 MB)
  • House, M.D. S05E13 Big Baby (1080p x265 10bit Joy).mkv (463.7 MB)
  • House, M.D. S05E14 The Greater Good (1080p x265 10bit Joy).mkv (462.8 MB)
  • House, M.D. S05E15 Unfaithful (1080p x265 10bit Joy).mkv (461.8 MB)
  • House, M.D. S05E16 The Softer Side (1080p x265 10bit Joy).mkv (462.2 MB)
  • House, M.D. S05E17 The Social Contract (1080p x265 10bit Joy).mkv (467.0 MB)
  • House, M.D. S05E18 Here Kitty (1080p x265 10bit Joy).mkv (463.5 MB)
  • House, M.D. S05E19 Locked In (1080p x265 10bit Joy) (C).mkv (468.7 MB)
  • House, M.D. S05E20 Simple Explanation (1080p x265 10bit Joy).mkv (459.7 MB)
  • House, M.D. S05E21 Saviors (1080p x265 10bit Joy).mkv (462.4 MB)
  • House, M.D. S05E22 House Divided (1080p x265 10bit Joy).mkv (463.0 MB)
  • House, M.D. S05E23 Under My Skin (1080p x265 10bit Joy).mkv (461.8 MB)
  • House, M.D. S05E24 Both Sides Now (1080p x265 10bit Joy).mkv (465.9 MB)

Featurettes

  • House, M.D. – S05Extra – Anatomy Of A Teaser – House Divided.mkv (39.0 MB)
  • House, M.D. – S05Extra – Dr. Mom – Cuddy’s Storyline.mkv (18.2 MB)
  • House, M.D. – S05Extra – House Guests – Casting The Show.mkv (21.7 MB)
  • House, M.D. – S05Extra – House Meets A Milestone – The 100th Episode.mkv (12.7 MB)
  • House, M.D. – S05Extra – Keeping It Real – Accuracy In Writing.mkv (13.9 MB)

Mediainfo

General
Format : Matroska
Format version : Version 4 / Version 2
File size : 460 MiB
Duration : 43 min 29 s
Overall bit rate : 1 479 kb/s
Encoded date : UTC 2019-04-27 13:10:39
Writing application : mkvmerge v24.0.0 ('Beyond The Pale') 64-bit
Writing library : libebml v1.3.6 + libmatroska v1.4.9
Writing frontend : StaxRip v1.8.2.0

Video
ID : 1
Format : HEVC
Format/Info : High Efficiency Video Coding
Format profile : Main @Main
Codec ID : V_MPEGH/ISO/HEVC
Duration : 43 min 29 s
Bit rate : 1 200 kb/s
Width : 1 920 pixels
Height : 1 080 pixels
Display aspect ratio : 16:9
Frame rate mode : Constant
Frame rate : 23.976 (24000/1001) FPS
Color space : YUV
Chroma subsampling : 4:2:0
Bit depth : 10 bits
Bits/(Pixel*Frame) : 0.024
Stream size : 373 MiB (81%)
Writing library : x265 3.0_Au+14-c7e5878bdd31:[Windows][MSVC 1916][64 bit] 10bit
Encoding settings : cpuid=1111039 / frame-threads=4 / numa-pools=16 / wpp / no-pmode / no-pme / no-psnr / ssim / log-level=2 / input-csp=1 / input-res=1920x1080 / interlace=0 / total-frames=62574 / level-idc=0 / high-tier=1 / uhd-bd=0 / ref=4 / no-allow-non-conformance / no-repeat-headers / annexb / no-aud / no-hrd / info / hash=0 / no-temporal-layers / open-gop / min-keyint=23 / keyint=250 / gop-lookahead=0 / bframes=8 / b-adapt=2 / b-pyramid / bframe-bias=40 / rc-lookahead=80 / lookahead-slices=4 / scenecut=40 / radl=0 / no-splice / no-intra-refresh / ctu=64 / min-cu-size=8 / no-rect / no-amp / max-tu-size=32 / tu-inter-depth=1 / tu-intra-depth=1 / limit-tu=0 / rdoq-level=2 / dynamic-rd=0.00 / ssim-rd / signhide / no-tskip / nr-intra=0 / nr-inter=0 / no-constrained-intra / strong-intra-smoothing / max-merge=3 / limit-refs=3 / limit-modes / me=3 / subme=3 / merange=57 / temporal-mvp / weightp / no-weightb / no-analyze-src-pics / deblock=0:0 / sao / no-sao-non-deblock / rd=4 / no-early-skip / rskip / no-fast-intra / no-tskip-fast / no-cu-lossless / no-b-intra / no-splitrd-skip / rdpenalty=0 / psy-rd=0.00 / psy-rdoq=1.00 / no-rd-refine / no-lossless / cbqpoffs=0 / crqpoffs=0 / rc=abr / bitrate=1200 / qcomp=0.50 / qpstep=4 / stats-write=0 / stats-read=2 / cplxblur=20.0 / qblur=0.5 / ipratio=1.40 / pbratio=1.30 / aq-mode=3 / aq-strength=0.80 / cutree / zone-count=0 / no-strict-cbr / qg-size=32 / no-rc-grain / qpmax=69 / qpmin=0 / no-const-vbv / sar=0 / overscan=0 / videoformat=5 / range=0 / colorprim=2 / transfer=2 / colormatrix=2 / chromaloc=0 / display-window=0 / max-cll=0,0 / min-luma=0 / max-luma=1023 / log2-max-poc-lsb=8 / vui-timing-info / vui-hrd-info / slices=1 / no-opt-qp-pps / no-opt-ref-list-length-pps / multi-pass-opt-rps / scenecut-bias=0.05 / no-opt-cu-delta-qp / no-aq-motion / no-hdr / no-hdr-opt / no-dhdr10-opt / no-idr-recovery-sei / analysis-reuse-level=10 / scale-factor=0 / refine-intra=0 / refine-inter=0 / refine-mv=0 / refine-ctu-distortion=0 / limit-sao / ctu-info=0 / no-lowpass-dct / refine-analysis-type=0 / copy-pic=1 / max-ausize-factor=1.0 / no-dynamic-refine / no-single-sei / no-hevc-aq / no-svt / qp-adaptation-range=1.00
Default : Yes
Forced : No

Audio
ID : 2
Format : AAC
Format/Info : Advanced Audio Codec
Format profile : HE-AAC / LC
Codec ID : A_AAC
Duration : 43 min 29 s
Bit rate : 210 kb/s
Channel(s) : 6 channels
Channel positions : Front: L C R, Side: L R, LFE
Sampling rate : 48.0 kHz / 24.0 kHz
Frame rate : 23.438 FPS (1024 spf)
Compression mode : Lossy
Delay relative to video : 31 ms
Stream size : 65.5 MiB (14%)
Language : English
Default : No
Forced : No

Subtitle #1
ID : 3
Format : VobSub
Muxing mode : zlib
Codec ID : S_VOBSUB
Codec ID/Info : Picture based subtitle format used on DVDs
Duration : 42 min 13 s
Bit rate : 18.3 kb/s
Count of elements : 788
Stream size : 5.52 MiB (1%)
Language : English
Default : No
Forced : No

Subtitle #2
ID : 4
Format : VobSub
Muxing mode : zlib
Codec ID : S_VOBSUB
Codec ID/Info : Picture based subtitle format used on DVDs
Duration : 42 min 13 s
Bit rate : 10.4 kb/s
Count of elements : 682
Stream size : 3.13 MiB (1%)
Language : Japanese
Default : No
Forced : No

Subtitle #3
ID : 5
Format : VobSub
Muxing mode : zlib
Codec ID : S_VOBSUB
Codec ID/Info : Picture based subtitle format used on DVDs
Duration : 42 min 12 s
Bit rate : 14.2 kb/s
Count of elements : 692
Stream size : 4.28 MiB (1%)
Language : French
Default : No
Forced : No

Subtitle #4
ID : 6
Format : VobSub
Muxing mode : zlib
Codec ID : S_VOBSUB
Codec ID/Info : Picture based subtitle format used on DVDs
Duration : 42 min 14 s
Bit rate : 18.4 kb/s
Count of elements : 665
Stream size : 5.57 MiB (1%)
Language : German
Default : No
Forced : No

Subtitle #5
ID : 7
Format : VobSub
Muxing mode : zlib
Codec ID : S_VOBSUB
Codec ID/Info : Picture based subtitle format used on DVDs
Duration : 42 min 13 s
Bit rate : 15.5 kb/s
Count of elements : 678
Stream size : 4.67 MiB (1%)
Language : Spanish
Default : No
Forced : No

Subtitle #6
ID : 8
Format : VobSub
Muxing mode : zlib
Codec ID : S_VOBSUB
Codec ID/Info : Picture based subtitle format used on DVDs
Duration : 42 min 12 s
Bit rate : 15.3 kb/s
Count of elements : 664
Stream size : 4.63 MiB (1%)
Language : Portuguese
Default : No
Forced : No

Subtitle #7
ID : 9
Format : VobSub
Muxing mode : zlib
Codec ID : S_VOBSUB
Codec ID/Info : Picture based subtitle format used on DVDs
Duration : 42 min 14 s
Bit rate : 13.1 kb/s
Count of elements : 487
Stream size : 3.96 MiB (1%)
Language : Dutch
Default : No
Forced : No

Menu
00:00:00.000 : en: Chapter 1
00:02:08.837 : en: Chapter 2
00:10:11.736 : en: Chapter 3
00:18:57.928 : en: Chapter 4
00:27:00.285 : en: Chapter 5
00:42:47.690 : en: Chapter 6

Download

Download: Google Drive

Season 6

House, M.D (2004) Season 06 S06 (1080p BluRay x265 HEVC 10bit AAC 5.1 Joy) [UTR]

Files

House, M.D. Season 6 (1080p BD x265 10bit FS84 Joy)

  • House, M.D. S06E01 Broken (1080p x265 10bit Joy).mkv (933.0 MB)
  • House, M.D. S06E02 Epic Fail (1080p x265 10bit Joy).mkv (450.3 MB)
  • House, M.D. S06E03 The Tyrant (1080p x265 10bit Joy).mkv (449.2 MB)
  • House, M.D. S06E04 Instant Karma (1080p x265 10bit Joy).mkv (446.4 MB)
  • House, M.D. S06E05 Brave Heart (1080p x265 10bit Joy).mkv (447.8 MB)
  • House, M.D. S06E06 Known Unknowns (1080p x265 10bit Joy).mkv (453.6 MB)
  • House, M.D. S06E07 Teamwork (1080p x265 10bit Joy).mkv (449.7 MB)
  • House, M.D. S06E08 Ignorance Is Bliss (1080p x265 10bit Joy).mkv (453.4 MB)
  • House, M.D. S06E09 Wilson (1080p x265 10bit Joy).mkv (466.0 MB)
  • House, M.D. S06E10 The Down Low (1080p x265 10bit Joy).mkv (452.0 MB)
  • House, M.D. S06E11 Remorse (1080p x265 10bit Joy).mkv (455.9 MB)
  • House, M.D. S06E12 Moving the Chains (1080p x265 10bit Joy).mkv (458.3 MB)
  • House, M.D. S06E13 5 to 9 (1080p x265 10bit Joy).mkv (471.1 MB)
  • House, M.D. S06E14 Private Lives (1080p x265 10bit Joy).mkv (456.7 MB)
  • House, M.D. S06E15 Black Hole (1080p x265 10bit Joy).mkv (453.6 MB)
  • House, M.D. S06E16 Lockdown (1080p x265 10bit Joy).mkv (448.5 MB)
  • House, M.D. S06E17 Knight Fall (1080p x265 10bit Joy).mkv (456.0 MB)
  • House, M.D. S06E18 Open and Shut (1080p x265 10bit Joy).mkv (454.4 MB)
  • House, M.D. S06E19 The Choice (1080p x265 10bit Joy).mkv (455.6 MB)
  • House, M.D. S06E20 Baggage (1080p x265 10bit Joy).mkv (456.7 MB)
  • House, M.D. S06E21 Help Me (1080p x265 10bit Joy).mkv (476.5 MB)

Featurettes

  • House, M.D. – S06Extra – A Different POV – Hugh Laurie Directs.mkv (35.2 MB)
  • House, M.D. – S06Extra – A New House for House.mkv (108.3 MB)
  • House, M.D. – S06Extra – Before Broken.mkv (47.1 MB)
  • House, M.D. – S06Extra – Crazy Cool Episode – Epic Fail.mkv (107.5 MB)
  • House, M.D. – S06Extra – New Faces in a New House.mkv (41.9 MB)

Mediainfo

General
Format : Matroska
Format version : Version 4 / Version 2
File size : 933 MiB
Duration : 1 h 28 min
Overall bit rate : 1 471 kb/s
Movie name : House, M.D. S06E01 Broken (1080p x265 10bit Joy)
Encoded date : UTC 2019-04-29 07:56:40
Writing application : mkvmerge v28.2.0 ('The Awakening') 64-bit
Writing library : libebml v1.3.6 + libmatroska v1.4.9
Writing frontend : StaxRip v2.0, Encoded by JoyBell

Video
ID : 1
Format : HEVC
Format/Info : High Efficiency Video Coding
Format profile : Main @Main
Codec ID : V_MPEGH/ISO/HEVC
Duration : 1 h 28 min
Bit rate : 1 201 kb/s
Width : 1 920 pixels
Height : 1 080 pixels
Display aspect ratio : 16:9
Frame rate mode : Constant
Frame rate : 23.976 (24000/1001) FPS
Color space : YUV
Chroma subsampling : 4:2:0
Bit depth : 10 bits
Bits/(Pixel*Frame) : 0.024
Stream size : 762 MiB (82%)
Writing library : x265 3.0_Au+14-c7e5878bdd31:[Windows][MSVC 1916][64 bit] 10bit
Encoding settings : cpuid=1111039 / frame-threads=3 / numa-pools=12 / wpp / no-pmode / no-pme / no-psnr / ssim / log-level=2 / input-csp=1 / input-res=1920x1080 / interlace=0 / total-frames=127575 / level-idc=0 / high-tier=1 / uhd-bd=0 / ref=4 / no-allow-non-conformance / no-repeat-headers / annexb / no-aud / no-hrd / info / hash=0 / no-temporal-layers / open-gop / min-keyint=23 / keyint=250 / gop-lookahead=0 / bframes=4 / b-adapt=2 / b-pyramid / bframe-bias=0 / rc-lookahead=80 / lookahead-slices=4 / scenecut=40 / radl=0 / no-splice / no-intra-refresh / ctu=64 / min-cu-size=8 / no-rect / no-amp / max-tu-size=32 / tu-inter-depth=1 / tu-intra-depth=1 / limit-tu=0 / rdoq-level=2 / dynamic-rd=0.00 / ssim-rd / signhide / no-tskip / nr-intra=0 / nr-inter=0 / no-constrained-intra / strong-intra-smoothing / max-merge=3 / limit-refs=3 / limit-modes / me=3 / subme=3 / merange=57 / temporal-mvp / weightp / no-weightb / no-analyze-src-pics / deblock=0:0 / sao / no-sao-non-deblock / rd=4 / early-skip / rskip / no-fast-intra / no-tskip-fast / no-cu-lossless / no-b-intra / splitrd-skip / rdpenalty=0 / psy-rd=2.20 / psy-rdoq=1.15 / no-rd-refine / no-lossless / cbqpoffs=0 / crqpoffs=0 / rc=abr / bitrate=1200 / qcomp=0.60 / qpstep=4 / stats-write=0 / stats-read=2 / cplxblur=20.0 / qblur=0.5 / ipratio=1.40 / pbratio=1.30 / aq-mode=3 / aq-strength=0.80 / cutree / zone-count=0 / no-strict-cbr / qg-size=32 / no-rc-grain / qpmax=69 / qpmin=0 / no-const-vbv / sar=0 / overscan=0 / videoformat=5 / range=0 / colorprim=2 / transfer=2 / colormatrix=2 / chromaloc=0 / display-window=0 / max-cll=0,0 / min-luma=0 / max-luma=1023 / log2-max-poc-lsb=8 / vui-timing-info / vui-hrd-info / slices=1 / no-opt-qp-pps / no-opt-ref-list-length-pps / multi-pass-opt-rps / scenecut-bias=0.05 / no-opt-cu-delta-qp / no-aq-motion / no-hdr / no-hdr-opt / no-dhdr10-opt / no-idr-recovery-sei / analysis-reuse-level=10 / scale-factor=0 / refine-intra=0 / refine-inter=0 / refine-mv=0 / refine-ctu-distortion=0 / limit-sao / ctu-info=0 / no-lowpass-dct / refine-analysis-type=0 / copy-pic=1 / max-ausize-factor=1.0 / no-dynamic-refine / no-single-sei / no-hevc-aq / no-svt / qp-adaptation-range=1.00
Default : Yes
Forced : No

Audio #1
ID : 2
Format : AAC
Format/Info : Advanced Audio Codec
Format profile : HE-AAC / LC
Codec ID : A_AAC
Duration : 1 h 28 min
Bit rate : 210 kb/s
Channel(s) : 6 channels
Channel positions : Front: L C R, Side: L R, LFE
Sampling rate : 48.0 kHz / 24.0 kHz
Frame rate : 23.438 FPS (1024 spf)
Compression mode : Lossy
Delay relative to video : 31 ms
Stream size : 133 MiB (14%)
Language : English
Default : No
Forced : No

Audio #2
ID : 3
Format : AAC
Format/Info : Advanced Audio Codec
Format profile : HE-AAC / LC
Codec ID : A_AAC
Duration : 1 h 28 min
Bit rate : 43.9 kb/s
Channel(s) : 2 channels
Channel positions : Front: L R
Sampling rate : 48.0 kHz / 24.0 kHz
Frame rate : 23.438 FPS (1024 spf)
Compression mode : Lossy
Delay relative to video : 31 ms
Stream size : 27.8 MiB (3%)
Title : Commentary
Language : English
Default : No
Forced : No

Subtitle #1
ID : 4
Format : VobSub
Muxing mode : zlib
Codec ID : S_VOBSUB
Codec ID/Info : Picture based subtitle format used on DVDs
Duration : 1 h 26 min
Bit rate : 12.4 kb/s
Count of elements : 1216
Stream size : 7.67 MiB (1%)
Language : English
Default : No
Forced : No

Subtitle #2
ID : 5
Format : VobSub
Muxing mode : zlib
Codec ID : S_VOBSUB
Codec ID/Info : Picture based subtitle format used on DVDs
Duration : 1 h 25 min
Bit rate : 11.0 kb/s
Count of elements : 975
Stream size : 6.77 MiB (1%)
Language : Spanish
Default : No
Forced : No

Menu
00:00:00.000 : en: Chapter 1
00:17:49.860 : en: Chapter 2
00:43:59.595 : en: Chapter 3
01:04:18.480 : en: Chapter 4

Download

Download: Google Drive

Season 7

House, M.D (2004) Season 07 S07 (1080p BluRay x265 HEVC 10bit AAC 5.1 Joy) [UTR]

Files

House, M.D. Season 7 (1080p BD x265 10bit FS90 Joy)

  • House, M.D. S07E01 Now What (1080p x265 10bit Joy).mkv (425.5 MB)
  • House, M.D. S07E02 Selfish (1080p x265 10bit Joy).mkv (453.3 MB)
  • House, M.D. S07E03 Unwritten (1080p x265 10bit Joy).mkv (450.4 MB)
  • House, M.D. S07E04 Massage Therapy (1080p x265 10bit Joy).mkv (449.4 MB)
  • House, M.D. S07E05 Unplanned Parenthood (1080p x265 10bit Joy).mkv (450.7 MB)
  • House, M.D. S07E06 Office Politics (1080p x265 10bit Joy).mkv (454.1 MB)
  • House, M.D. S07E07 A Pox on Our House (1080p x265 10bit Joy).mkv (452.2 MB)
  • House, M.D. S07E08 Small Sacrifices (1080p x265 10bit Joy).mkv (452.7 MB)
  • House, M.D. S07E09 Larger Than Life (1080p x265 10bit Joy).mkv (451.5 MB)
  • House, M.D. S07E10 Carrot or Stick (1080p x265 10bit Joy).mkv (452.2 MB)
  • House, M.D. S07E11 Family Practice (1080p x265 10bit Joy).mkv (450.9 MB)
  • House, M.D. S07E12 You Must Remember This (1080p x265 10bit Joy).mkv (451.3 MB)
  • House, M.D. S07E13 Two Stories (1080p x265 10bit Joy).mkv (448.0 MB)
  • House, M.D. S07E14 Recession Proof (1080p x265 10bit Joy).mkv (451.9 MB)
  • House, M.D. S07E15 Bombshells (1080p x265 10bit Joy).mkv (459.9 MB)
  • House, M.D. S07E16 Out of the Chute (1080p x265 10bit Joy).mkv (451.9 MB)
  • House, M.D. S07E17 Fall from Grace (1080p x265 10bit Joy).mkv (439.5 MB)
  • House, M.D. S07E18 The Dig (1080p x265 10bit Joy).mkv (464.4 MB)
  • House, M.D. S07E19 Last Temptation (1080p x265 10bit Joy).mkv (450.9 MB)
  • House, M.D. S07E20 Changes (1080p x265 10bit Joy).mkv (453.7 MB)
  • House, M.D. S07E21 The Fix (1080p x265 10bit Joy).mkv (441.7 MB)
  • House, M.D. S07E22 After Hours (1080p x265 10bit Joy).mkv (450.7 MB)
  • House, M.D. S07E23 Moving On (1080p x265 10bit Joy).mkv (465.6 MB)

Mediainfo

General
Format : Matroska
Format version : Version 4 / Version 2
File size : 426 MiB
Duration : 41 min 40 s
Overall bit rate : 1 427 kb/s
Movie name : House, M.D. S07E01 Now What (1080p x265 10bit Joy)
Encoded date : UTC 2019-05-05 11:17:48
Writing application : mkvmerge v24.0.0 ('Beyond The Pale') 64-bit
Writing library : libebml v1.3.6 + libmatroska v1.4.9
Writing frontend : StaxRip v1.8.2.0, a JoyBell Encode

Video
ID : 1
Format : HEVC
Format/Info : High Efficiency Video Coding
Format profile : Main @Main
Codec ID : V_MPEGH/ISO/HEVC
Duration : 41 min 40 s
Bit rate : 1 200 kb/s
Width : 1 920 pixels
Height : 1 080 pixels
Display aspect ratio : 16:9
Frame rate mode : Constant
Frame rate : 23.976 (24000/1001) FPS
Color space : YUV
Chroma subsampling : 4:2:0
Bit depth : 10 bits
Bits/(Pixel*Frame) : 0.024
Stream size : 358 MiB (84%)
Writing library : x265 3.0_Au+14-c7e5878bdd31:[Windows][MSVC 1916][64 bit] 10bit
Encoding settings : cpuid=1111039 / frame-threads=3 / numa-pools=8 / wpp / no-pmode / no-pme / no-psnr / ssim / log-level=2 / input-csp=1 / input-res=1920x1080 / interlace=0 / total-frames=59962 / level-idc=0 / high-tier=1 / uhd-bd=0 / ref=4 / no-allow-non-conformance / no-repeat-headers / annexb / no-aud / no-hrd / info / hash=0 / no-temporal-layers / open-gop / min-keyint=23 / keyint=250 / gop-lookahead=0 / bframes=8 / b-adapt=2 / b-pyramid / bframe-bias=40 / rc-lookahead=80 / lookahead-slices=4 / scenecut=40 / radl=0 / no-splice / no-intra-refresh / ctu=64 / min-cu-size=8 / no-rect / no-amp / max-tu-size=32 / tu-inter-depth=1 / tu-intra-depth=1 / limit-tu=0 / rdoq-level=2 / dynamic-rd=0.00 / ssim-rd / signhide / no-tskip / nr-intra=0 / nr-inter=0 / no-constrained-intra / strong-intra-smoothing / max-merge=3 / limit-refs=3 / limit-modes / me=3 / subme=3 / merange=57 / temporal-mvp / weightp / no-weightb / no-analyze-src-pics / deblock=0:0 / sao / no-sao-non-deblock / rd=4 / early-skip / rskip / no-fast-intra / no-tskip-fast / no-cu-lossless / no-b-intra / splitrd-skip / rdpenalty=0 / psy-rd=0.00 / psy-rdoq=1.50 / no-rd-refine / no-lossless / cbqpoffs=0 / crqpoffs=0 / rc=abr / bitrate=1200 / qcomp=0.60 / qpstep=4 / stats-write=0 / stats-read=2 / cplxblur=20.0 / qblur=0.5 / ipratio=1.40 / pbratio=1.30 / aq-mode=3 / aq-strength=0.80 / cutree / zone-count=0 / no-strict-cbr / qg-size=32 / no-rc-grain / qpmax=69 / qpmin=0 / no-const-vbv / sar=0 / overscan=0 / videoformat=5 / range=0 / colorprim=2 / transfer=2 / colormatrix=2 / chromaloc=0 / display-window=0 / max-cll=0,0 / min-luma=0 / max-luma=1023 / log2-max-poc-lsb=8 / vui-timing-info / vui-hrd-info / slices=1 / no-opt-qp-pps / no-opt-ref-list-length-pps / multi-pass-opt-rps / scenecut-bias=0.05 / no-opt-cu-delta-qp / no-aq-motion / no-hdr / no-hdr-opt / no-dhdr10-opt / no-idr-recovery-sei / analysis-reuse-level=10 / scale-factor=0 / refine-intra=0 / refine-inter=0 / refine-mv=0 / refine-ctu-distortion=0 / limit-sao / ctu-info=0 / no-lowpass-dct / refine-analysis-type=0 / copy-pic=1 / max-ausize-factor=1.0 / no-dynamic-refine / no-single-sei / no-hevc-aq / no-svt / qp-adaptation-range=1.00
Default : Yes
Forced : No

Audio
ID : 2
Format : AAC
Format/Info : Advanced Audio Codec
Format profile : HE-AACv2 / HE-AAC / LC
Codec ID : A_AAC
Duration : 41 min 40 s
Bit rate : 209 kb/s
Channel(s) : 6 channels
Channel(s)_Original : 2 channels / 19 channels / 19 channels
Channel positions : Front: L R / Front: 5, Side: L R, Back: 11, LFE / Front: 5, Side: L R, Back: 11, LFE
Sampling rate : 48.0 kHz / 48.0 kHz / 24.0 kHz
Frame rate : 23.438 FPS (1024 spf)
Compression mode : Lossy
Delay relative to video : 31 ms
Stream size : 62.2 MiB (15%)
Language : English
Default : No
Forced : No

Subtitle #1
ID : 3
Format : VobSub
Muxing mode : zlib
Codec ID : S_VOBSUB
Codec ID/Info : Picture based subtitle format used on DVDs
Duration : 40 min 30 s
Bit rate : 14.4 kb/s
Count of elements : 677
Stream size : 4.18 MiB (1%)
Language : English
Default : No
Forced : No

Subtitle #2
ID : 4
Format : VobSub
Muxing mode : zlib
Codec ID : S_VOBSUB
Codec ID/Info : Picture based subtitle format used on DVDs
Duration : 40 min 30 s
Bit rate : 13.1 kb/s
Count of elements : 563
Stream size : 3.78 MiB (1%)
Language : Spanish
Default : No
Forced : No

Menu
00:00:00.000 : en: Chapter 1
00:04:36.735 : en: Chapter 2
00:17:46.190 : en: Chapter 3
00:30:21.653 : en: Chapter 4

Download

Download: Google Drive

Season 1

House, M.D (2004) Season 08 S08 (1080p BluRay x265 HEVC 10bit AAC 5.1 Joy) [UTR]

Files

House, M.D. Season 8 (1080p BD x265 10bit FS92 Joy)

  • House, M.D. S08E01 Twenty Vicodin (1080p x265 10bit Joy).mkv (450.5 MB)
  • House, M.D. S08E02 Transplant (1080p x265 10bit Joy).mkv (470.6 MB)
  • House, M.D. S08E03 Charity Case (1080p x265 10bit Joy).mkv (447.7 MB)
  • House, M.D. S08E04 Risky Business (1080p x265 10bit Joy).mkv (452.5 MB)
  • House, M.D. S08E05 The Confession (1080p x265 10bit Joy).mkv (452.3 MB)
  • House, M.D. S08E06 Parents (1080p x265 10bit Joy).mkv (453.5 MB)
  • House, M.D. S08E07 Dead + Buried (1080p x265 10bit Joy).mkv (450.1 MB)
  • House, M.D. S08E08 Perils of Paranoia (1080p x265 10bit Joy).mkv (450.8 MB)
  • House, M.D. S08E09 Better Half (1080p x265 10bit Joy).mkv (449.7 MB)
  • House, M.D. S08E10 Runaways (1080p x265 10bit Joy).mkv (451.7 MB)
  • House, M.D. S08E11 Nobody’s Fault (1080p x265 10bit Joy).mkv (450.5 MB)
  • House, M.D. S08E12 Chase (1080p x265 10bit Joy) (C).mkv (466.8 MB)
  • House, M.D. S08E13 Man of the House (1080p x265 10bit Joy).mkv (452.0 MB)
  • House, M.D. S08E14 Love Is Blind (1080p x265 10bit Joy).mkv (452.8 MB)
  • House, M.D. S08E15 Blowing the Whistle (1080p x265 10bit Joy).mkv (446.4 MB)
  • House, M.D. S08E16 Gut Check (1080p x265 10bit Joy).mkv (451.7 MB)
  • House, M.D. S08E17 We Need the Eggs (1080p x265 10bit Joy).mkv (450.2 MB)
  • House, M.D. S08E18 Body + Soul (1080p x265 10bit Joy).mkv (452.5 MB)
  • House, M.D. S08E19 The C-Word (1080p x265 10bit Joy).mkv (451.0 MB)
  • House, M.D. S08E20 Post Mortem (1080p x265 10bit Joy).mkv (448.5 MB)
  • House, M.D. S08E21 Holding On (1080p x265 10bit Joy).mkv (451.9 MB)
  • House, M.D. S08E22 Everybody Dies (1080p x265 10bit Joy).mkv (452.7 MB)

Mediainfo

General
Format : Matroska
Format version : Version 4 / Version 2
File size : 451 MiB
Duration : 43 min 58 s
Overall bit rate : 1 433 kb/s
Encoded date : UTC 2019-05-04 20:18:46
Writing application : mkvmerge v24.0.0 ('Beyond The Pale') 64-bit
Writing library : libebml v1.3.6 + libmatroska v1.4.9
Writing frontend : StaxRip v1.8.2.0

Video
ID : 1
Format : HEVC
Format/Info : High Efficiency Video Coding
Format profile : Main @Main
Codec ID : V_MPEGH/ISO/HEVC
Duration : 43 min 58 s
Bit rate : 1 200 kb/s
Width : 1 920 pixels
Height : 1 080 pixels
Display aspect ratio : 16:9
Frame rate mode : Constant
Frame rate : 23.976 (24000/1001) FPS
Color space : YUV
Chroma subsampling : 4:2:0
Bit depth : 10 bits
Bits/(Pixel*Frame) : 0.024
Stream size : 378 MiB (84%)
Writing library : x265 3.0_Au+14-c7e5878bdd31:[Windows][MSVC 1916][64 bit] 10bit
Encoding settings : cpuid=1111039 / frame-threads=4 / numa-pools=16 / wpp / no-pmode / no-pme / no-psnr / ssim / log-level=2 / input-csp=1 / input-res=1920x1080 / interlace=0 / total-frames=63255 / level-idc=0 / high-tier=1 / uhd-bd=0 / ref=4 / no-allow-non-conformance / no-repeat-headers / annexb / no-aud / no-hrd / info / hash=0 / no-temporal-layers / open-gop / min-keyint=23 / keyint=250 / gop-lookahead=0 / bframes=8 / b-adapt=2 / b-pyramid / bframe-bias=40 / rc-lookahead=80 / lookahead-slices=4 / scenecut=40 / radl=0 / no-splice / no-intra-refresh / ctu=64 / min-cu-size=8 / no-rect / no-amp / max-tu-size=32 / tu-inter-depth=1 / tu-intra-depth=1 / limit-tu=0 / rdoq-level=2 / dynamic-rd=0.00 / ssim-rd / signhide / no-tskip / nr-intra=0 / nr-inter=0 / no-constrained-intra / strong-intra-smoothing / max-merge=3 / limit-refs=3 / limit-modes / me=3 / subme=3 / merange=57 / temporal-mvp / weightp / no-weightb / no-analyze-src-pics / deblock=0:0 / sao / no-sao-non-deblock / rd=4 / no-early-skip / rskip / no-fast-intra / no-tskip-fast / no-cu-lossless / no-b-intra / no-splitrd-skip / rdpenalty=0 / psy-rd=0.00 / psy-rdoq=1.00 / no-rd-refine / no-lossless / cbqpoffs=0 / crqpoffs=0 / rc=abr / bitrate=1200 / qcomp=0.50 / qpstep=4 / stats-write=0 / stats-read=2 / cplxblur=20.0 / qblur=0.5 / ipratio=1.40 / pbratio=1.30 / aq-mode=3 / aq-strength=0.80 / cutree / zone-count=0 / no-strict-cbr / qg-size=32 / no-rc-grain / qpmax=69 / qpmin=0 / no-const-vbv / sar=0 / overscan=0 / videoformat=5 / range=0 / colorprim=2 / transfer=2 / colormatrix=2 / chromaloc=0 / display-window=0 / max-cll=0,0 / min-luma=0 / max-luma=1023 / log2-max-poc-lsb=8 / vui-timing-info / vui-hrd-info / slices=1 / no-opt-qp-pps / no-opt-ref-list-length-pps / multi-pass-opt-rps / scenecut-bias=0.05 / no-opt-cu-delta-qp / no-aq-motion / no-hdr / no-hdr-opt / no-dhdr10-opt / no-idr-recovery-sei / analysis-reuse-level=10 / scale-factor=0 / refine-intra=0 / refine-inter=0 / refine-mv=0 / refine-ctu-distortion=0 / limit-sao / ctu-info=0 / no-lowpass-dct / refine-analysis-type=0 / copy-pic=1 / max-ausize-factor=1.0 / no-dynamic-refine / no-single-sei / no-hevc-aq / no-svt / qp-adaptation-range=1.00
Default : Yes
Forced : No

Audio
ID : 2
Format : AAC
Format/Info : Advanced Audio Codec
Format profile : HE-AAC / LC
Codec ID : A_AAC
Duration : 43 min 58 s
Bit rate : 217 kb/s
Channel(s) : 6 channels
Channel positions : Front: L C R, Side: L R, LFE
Sampling rate : 48.0 kHz / 24.0 kHz
Frame rate : 23.438 FPS (1024 spf)
Compression mode : Lossy
Delay relative to video : 31 ms
Stream size : 68.3 MiB (15%)
Language : English
Default : No
Forced : No

Subtitle #1
ID : 3
Format : VobSub
Muxing mode : zlib
Codec ID : S_VOBSUB
Codec ID/Info : Picture based subtitle format used on DVDs
Duration : 42 min 39 s
Bit rate : 11.6 kb/s
Count of elements : 584
Stream size : 3.54 MiB (1%)
Language : English
Default : No
Forced : No

Subtitle #2
ID : 4
Format : VobSub
Muxing mode : zlib
Codec ID : S_VOBSUB
Codec ID/Info : Picture based subtitle format used on DVDs
Duration : 43 min 2 s
Bit rate : 9 902 b/s
Count of elements : 563
Stream size : 3.05 MiB (1%)
Language : Spanish
Default : No
Forced : No

Menu
00:00:00.000 : en:Chapter 1
00:01:32.718 : en:Chapter 2
00:17:25.836 : en:Chapter 3
00:30:28.452 : en:Chapter 4

Download

Download: Google Drive

3 thoughts on “House, M.D (2004) Season 1-8 (1080p BluRay x265 HEVC 10bit AAC 5.1 Joy)

Leave a Reply