Homeland (2011) Season 1-8 (1080p Mixed x265 HEVC 10bit AAC 5.1 Silence)

Summary: A bipolar CIA operative becomes convinced a prisoner of war has been turned by al-Qaeda and is planning to carry out a terrorist attack on American soil.

Season 1

Homeland (2011) Season 1 S01 + Extras (1080p Blu-ray x265 HEVC 10bit AAC 5.1 Silence)

Files

Homeland (2011) Season 1 S01 (1080p Blu-ray x265 HEVC 10bit AAC 5.1 Silence)

  • Homeland (2011) – S01E01 – Pilot (1080p Blu-ray x265 Silence).mkv (1.3 GB)
  • Homeland (2011) – S01E02 – Grace (1080p Blu-ray x265 Silence).mkv (1.2 GB)
  • Homeland (2011) – S01E03 – Clean Skin (1080p Blu-ray x265 Silence).mkv (1.3 GB)
  • Homeland (2011) – S01E04 – Semper I (1080p Blu-ray x265 Silence).mkv (1.1 GB)
  • Homeland (2011) – S01E05 – Blind Spot (1080p Blu-ray x265 Silence).mkv (1.3 GB)
  • Homeland (2011) – S01E06 – The Good Soldier (1080p Blu-ray x265 Silence).mkv (1.2 GB)
  • Homeland (2011) – S01E07 – The Weekend (1080p Blu-ray x265 Silence).mkv (1.5 GB)
  • Homeland (2011) – S01E08 – Achilles Heel (1080p Blu-ray x265 Silence).mkv (1.2 GB)
  • Homeland (2011) – S01E09 – Crossfire (1080p Blu-ray x265 Silence).mkv (1.4 GB)
  • Homeland (2011) – S01E10 – Representative Brody (1080p Blu-ray x265 Silence).mkv (1.4 GB)
  • Homeland (2011) – S01E11 – The Vest (1080p Blu-ray x265 Silence).mkv (1.4 GB)
  • Homeland (2011) – S01E12 – Marine One (1080p Blu-ray x265 Silence).mkv (1.9 GB)

Featurettes

  • Deleted Scenes 2.mkv (32.5 MB)
  • Deleted Scenes 3.mkv (16.3 MB)
  • Homeland Season One – Under Surveillance.mkv (370.6 MB)
  • Menu Art.mkv (23.4 MB)
  • Week 10 – Prologue to Season 2.mkv (32.1 MB)
  • Deleted Scenes 1.mkv (41.9 MB)

Mediainfo

General
Format : Matroska
Format version : Version 4 / Version 2
File size : 1.33 GiB
Duration : 55 min 19 s
Overall bit rate : 3 433 kb/s
Movie name : Homeland, Season 1 Disc 1
Encoded date : UTC 2018-07-30 14:14:46
Writing application : mkvmerge v20.0.0 ('I Am The Sun') 64-bit
Writing library : libebml v1.3.5 + libmatroska v1.4.8
Writing frontend : StaxRip v1.7.0.6

Video
ID : 1
Format : HEVC
Format/Info : High Efficiency Video Coding
Format profile : Main [email protected]@Main
Codec ID : V_MPEGH/ISO/HEVC
Duration : 55 min 19 s
Bit rate : 3 042 kb/s
Width : 1 920 pixels
Height : 1 080 pixels
Display aspect ratio : 16:9
Frame rate mode : Constant
Frame rate : 23.976 (24000/1001) FPS
Color space : YUV
Chroma subsampling : 4:2:0
Bit depth : 10 bits
Bits/(Pixel*Frame) : 0.061
Stream size : 1.18 GiB (89%)
Writing library : x265 2.8+10-703eade86b53:[Windows][MSVC 1900][64 bit] 10bit
Encoding settings : cpuid=1111039 / frame-threads=4 / numa-pools=16 / wpp / no-pmode / no-pme / no-psnr / no-ssim / log-level=2 / input-csp=1 / input-res=1920x1080 / interlace=0 / total-frames=79595 / level-idc=0 / high-tier=1 / uhd-bd=0 / ref=5 / no-allow-non-conformance / no-repeat-headers / annexb / no-aud / no-hrd / info / hash=0 / no-temporal-layers / open-gop / min-keyint=23 / keyint=250 / gop-lookahead=0 / bframes=8 / b-adapt=2 / b-pyramid / bframe-bias=0 / rc-lookahead=80 / lookahead-slices=4 / scenecut=40 / radl=0 / no-intra-refresh / ctu=64 / min-cu-size=8 / no-rect / no-amp / max-tu-size=32 / tu-inter-depth=1 / tu-intra-depth=1 / limit-tu=0 / rdoq-level=2 / dynamic-rd=0.00 / no-ssim-rd / signhide / no-tskip / nr-intra=0 / nr-inter=0 / no-constrained-intra / no-strong-intra-smoothing / max-merge=3 / limit-refs=3 / limit-modes / me=3 / subme=5 / merange=57 / temporal-mvp / weightp / weightb / no-analyze-src-pics / deblock=-3:-3 / no-sao / no-sao-non-deblock / rd=4 / no-early-skip / rskip / no-fast-intra / no-tskip-fast / no-cu-lossless / b-intra / no-splitrd-skip / rdpenalty=0 / psy-rd=1.50 / psy-rdoq=1.00 / no-rd-refine / no-lossless / cbqpoffs=0 / crqpoffs=0 / rc=crf / crf=21.0 / qcomp=0.60 / qpstep=4 / stats-write=0 / stats-read=0 / ipratio=1.40 / pbratio=1.30 / aq-mode=3 / aq-strength=1.00 / cutree / zone-count=0 / no-strict-cbr / qg-size=32 / no-rc-grain / qpmax=69 / qpmin=0 / no-const-vbv / sar=0 / overscan=0 / videoformat=5 / range=0 / colorprim=2 / transfer=2 / colormatrix=2 / chromaloc=0 / display-window=0 / max-cll=0,0 / min-luma=0 / max-luma=1023 / log2-max-poc-lsb=8 / vui-timing-info / vui-hrd-info / slices=1 / no-opt-qp-pps / no-opt-ref-list-length-pps / no-multi-pass-opt-rps / scenecut-bias=0.05 / no-opt-cu-delta-qp / no-aq-motion / no-hdr / no-hdr-opt / no-dhdr10-opt / no-idr-recovery-sei / analysis-reuse-level=5 / scale-factor=0 / refine-intra=0 / refine-inter=0 / refine-mv=0 / no-limit-sao / ctu-info=0 / no-lowpass-dct / refine-mv-type=0 / copy-pic=1 / max-ausize-factor=1.0 / no-dynamic-refine / no-single-sei
Default : Yes
Forced : No

Audio
ID : 2
Format : AAC
Format/Info : Advanced Audio Codec
Format profile : LC
Codec ID : A_AAC
Duration : 55 min 19 s
Bit rate : 353 kb/s
Channel(s) : 6 channels
Channel positions : Front: L C R, Side: L R, LFE
Sampling rate : 48.0 kHz
Frame rate : 46.875 FPS (1024 spf)
Compression mode : Lossy
Delay relative to video : 20 ms
Stream size : 141 MiB (10%)
Language : English
Default : Yes
Forced : No

Subtitle
ID : 3
Format : PGS
Muxing mode : zlib
Codec ID : S_HDMV/PGS
Codec ID/Info : Picture based subtitle format used on BDs/HD-DVDs
Duration : 55 min 11 s
Bit rate : 72.0 kb/s
Count of elements : 1612
Stream size : 28.4 MiB (2%)
Language : English
Default : No
Forced : No

Menu
00:00:00.000 : en:Chapter 01
00:03:15.320 : en:Chapter 02
00:08:45.858 : en:Chapter 03
00:12:16.610 : en:Chapter 04
00:15:54.912 : en:Chapter 05
00:22:06.325 : en:Chapter 06
00:25:18.517 : en:Chapter 07
00:32:26.694 : en:Chapter 08
00:39:31.327 : en:Chapter 09
00:43:26.186 : en:Chapter 10
00:48:35.329 : en:Chapter 11
00:52:27.394 : en:Chapter 12

Screens

Download

Season: Google Drive (16.43 GB)

Extras: Google Drive (0.51 GB)

Season 2

Homeland (2011) Season 2 S02 + Extras (1080p BluRay x265 HEVC 10bit AAC 5.1 Silence)

Files

Homeland (2011) Season 2 S02 + Extras (1080p BluRay x265 HEVC 10bit AAC 5.1 Silence)

  • Homeland (2011) – S02E01 – The Smile (1080p BluRay x265 Silence).mkv (1.4 GB)
  • Homeland (2011) – S02E02 – Beirut Is Back (1080p BluRay x265 Silence).mkv (1.4 GB)
  • Homeland (2011) – S02E03 – State of Independence (1080p BluRay x265 Silence).mkv (1.4 GB)
  • Homeland (2011) – S02E04 – New Car Smell (1080p BluRay x265 Silence).mkv (1.4 GB)
  • Homeland (2011) – S02E05 – Q&A (1080p BluRay x265 Silence).mkv (1.2 GB)
  • Homeland (2011) – S02E06 – A Gettysburg Address (1080p BluRay x265 Silence).mkv (1.3 GB)
  • Homeland (2011) – S02E07 – The Clearing (1080p BluRay x265 Silence).mkv (1.7 GB)
  • Homeland (2011) – S02E08 – I’ll Fly Away (1080p BluRay x265 Silence).mkv (1.4 GB)
  • Homeland (2011) – S02E09 – Two Hats (1080p BluRay x265 Silence).mkv (1.2 GB)
  • Homeland (2011) – S02E10 – Broken Hearts (1080p BluRay x265 Silence).mkv (1.1 GB)
  • Homeland (2011) – S02E11 – In Memoriam (1080p BluRay x265 Silence).mkv (1.2 GB)
  • Homeland (2011) – S02E12 – The Choice (1080p BluRay x265 Silence).mkv (1.4 GB)

Featurettes

  • Menu Art.mkv (13.5 MB)
  • Return to the Homeland – Filming In Israel.mkv (201.2 MB)
  • The Border – A Prologue to Season Three.mkv (29.9 MB)
  • The Choice – The Making of the Season Finale.mkv (180.6 MB)
  • A Super 8 Film Diary by Actor Damian Lewis.mkv (543.4 MB)
  • Deleted Scene 1.mkv (28.2 MB)
  • Deleted Scene 2.mkv (8.8 MB)
  • Deleted Scene 3.mkv (9.9 MB)

Mediainfo

General
Format : Matroska
Format version : Version 4 / Version 2
File size : 1.38 GiB
Duration : 55 min 23 s
Overall bit rate : 3 578 kb/s
Movie name : Homeland, Season 2, Disc 1
Encoded date : UTC 2018-08-16 04:32:06
Writing application : mkvmerge v20.0.0 ('I Am The Sun') 64-bit
Writing library : libebml v1.3.5 + libmatroska v1.4.8
Writing frontend : StaxRip v1.7.0.6

Video
ID : 1
Format : HEVC
Format/Info : High Efficiency Video Coding
Format profile : Main [email protected]@Main
Codec ID : V_MPEGH/ISO/HEVC
Duration : 55 min 23 s
Bit rate : 3 172 kb/s
Width : 1 920 pixels
Height : 1 080 pixels
Display aspect ratio : 16:9
Frame rate mode : Constant
Frame rate : 23.976 (24000/1001) FPS
Color space : YUV
Chroma subsampling : 4:2:0
Bit depth : 10 bits
Bits/(Pixel*Frame) : 0.064
Stream size : 1.23 GiB (89%)
Writing library : x265 2.8+3-450421921079:[Windows][MSVC 1900][64 bit] 10bit
Encoding settings : cpuid=1111039 / frame-threads=3 / numa-pools=8 / wpp / no-pmode / no-pme / no-psnr / no-ssim / log-level=2 / input-csp=1 / input-res=1920x1080 / interlace=0 / total-frames=79681 / level-idc=0 / high-tier=1 / uhd-bd=0 / ref=5 / no-allow-non-conformance / no-repeat-headers / annexb / no-aud / no-hrd / info / hash=0 / no-temporal-layers / open-gop / min-keyint=23 / keyint=250 / gop-lookahead=0 / bframes=8 / b-adapt=2 / b-pyramid / bframe-bias=0 / rc-lookahead=80 / lookahead-slices=4 / scenecut=40 / radl=0 / no-intra-refresh / ctu=64 / min-cu-size=8 / no-rect / no-amp / max-tu-size=32 / tu-inter-depth=1 / tu-intra-depth=1 / limit-tu=0 / rdoq-level=2 / dynamic-rd=0.00 / no-ssim-rd / signhide / no-tskip / nr-intra=0 / nr-inter=0 / no-constrained-intra / no-strong-intra-smoothing / max-merge=3 / limit-refs=3 / limit-modes / me=3 / subme=5 / merange=57 / temporal-mvp / weightp / weightb / no-analyze-src-pics / deblock=-3:-3 / no-sao / no-sao-non-deblock / rd=4 / no-early-skip / rskip / no-fast-intra / no-tskip-fast / no-cu-lossless / b-intra / no-splitrd-skip / rdpenalty=0 / psy-rd=1.50 / psy-rdoq=1.00 / no-rd-refine / no-lossless / cbqpoffs=0 / crqpoffs=0 / rc=crf / crf=21.5 / qcomp=0.60 / qpstep=4 / stats-write=0 / stats-read=0 / ipratio=1.40 / pbratio=1.30 / aq-mode=3 / aq-strength=1.00 / cutree / zone-count=0 / no-strict-cbr / qg-size=32 / no-rc-grain / qpmax=69 / qpmin=0 / no-const-vbv / sar=0 / overscan=0 / videoformat=5 / range=0 / colorprim=2 / transfer=2 / colormatrix=2 / chromaloc=0 / display-window=0 / max-cll=0,0 / min-luma=0 / max-luma=1023 / log2-max-poc-lsb=8 / vui-timing-info / vui-hrd-info / slices=1 / no-opt-qp-pps / no-opt-ref-list-length-pps / no-multi-pass-opt-rps / scenecut-bias=0.05 / no-opt-cu-delta-qp / no-aq-motion / no-hdr / no-hdr-opt / no-dhdr10-opt / no-idr-recovery-sei / analysis-reuse-level=5 / scale-factor=0 / refine-intra=0 / refine-inter=0 / refine-mv=0 / no-limit-sao / ctu-info=0 / no-lowpass-dct / refine-mv-type=0 / copy-pic=1 / max-ausize-factor=1.0 / no-dynamic-refine / no-single-sei
Default : Yes
Forced : No

Audio
ID : 2
Format : AAC
Format/Info : Advanced Audio Codec
Format profile : LC
Codec ID : A_AAC
Duration : 55 min 23 s
Bit rate : 395 kb/s
Channel(s) : 6 channels
Channel positions : Front: L C R, Side: L R, LFE
Sampling rate : 48.0 kHz
Frame rate : 46.875 FPS (1024 spf)
Compression mode : Lossy
Delay relative to video : 20 ms
Stream size : 157 MiB (11%)
Language : English
Default : Yes
Forced : No

Subtitle
ID : 3
Format : PGS
Muxing mode : zlib
Codec ID : S_HDMV/PGS
Codec ID/Info : Picture based subtitle format used on BDs/HD-DVDs
Duration : 53 min 58 s
Bit rate : 49.9 kb/s
Count of elements : 1446
Stream size : 19.3 MiB (1%)
Language : English
Default : No
Forced : No

Menu
00:00:00.000 : en:Chapter 01
00:04:29.936 : en:Chapter 02
00:06:49.992 : en:Chapter 03
00:11:29.021 : en:Chapter 04
00:13:54.667 : en:Chapter 05
00:17:13.449 : en:Chapter 06
00:24:43.231 : en:Chapter 07
00:29:03.241 : en:Chapter 08
00:33:16.744 : en:Chapter 09
00:39:41.420 : en:Chapter 10
00:46:40.839 : en:Chapter 11
00:51:30.170 : en:Chapter 12

Screens

Download

Season: Google Drive (16.04 GB)

Extras: Google Drive (0.9 GB)

Season 3

Homeland (2011) Season 3 S03 + Extras (1080p BluRay x265 HEVC 10bit AAC 5.1 Silence)

Files

Homeland (2011) Season 3 S03 + Extras (1080p BluRay x265 HEVC 10bit AAC 5.1 Silence)

  • Homeland (2011) – S03E01 – Tin Man Is Down (1080p BluRay x265 Silence).mkv (1.1 GB)
  • Homeland (2011) – S03E02 – Uh… Oh… Ah… (1080p BluRay x265 Silence).mkv (1.2 GB)
  • Homeland (2011) – S03E03 – Tower of David (1080p BluRay x265 Silence).mkv (1.5 GB)
  • Homeland (2011) – S03E04 – Game On (1080p BluRay x265 Silence).mkv (1.4 GB)
  • Homeland (2011) – S03E05 – The Yoga Play (1080p BluRay x265 Silence).mkv (1.5 GB)
  • Homeland (2011) – S03E06 – Still Positive (1080p BluRay x265 Silence).mkv (1.4 GB)
  • Homeland (2011) – S03E07 – Gerontion (1080p BluRay x265 Silence).mkv (1.3 GB)
  • Homeland (2011) – S03E08 – A Red Wheelbarrow (1080p BluRay x265 Silence).mkv (1.2 GB)
  • Homeland (2011) – S03E09 – One Last Thing (1080p BluRay x265 Silence).mkv (1.6 GB)
  • Homeland (2011) – S03E10 – Good Night (1080p BluRay x265 Silence).mkv (1.5 GB)
  • Homeland (2011) – S03E11 – Big Man in Tehran (1080p BluRay x265 Silence).mkv (1.6 GB)
  • Homeland (2011) – S03E12 – The Star (1080p BluRay x265 Silence).mkv (1.6 GB)

Featurettes

  • Homeland Season Three – Recreating the Tower of David.mkv (112.0 MB)
  • Menu Art.mkv (11.0 MB)
  • The Last Days – Filming the Season Finale In Morocco.mkv (185.6 MB)

Deleted Scenes

  • Deleted Scene 2.mkv (26.5 MB)
  • Deleted Scene 3.mkv (8.0 MB)
  • Deleted Scene 4.mkv (12.7 MB)
  • Deleted Scene 5.mkv (4.5 MB)
  • Deleted Scene 6.mkv (19.6 MB)
  • Deleted Scene 7.mkv (5.5 MB)
  • Deleted Scene 8.mkv (14.0 MB)
  • Deleted Scene 9.mkv (14.7 MB)
  • Deleted Scene 1.mkv (24.5 MB)

Mediainfo

General
Format : Matroska
Format version : Version 4 / Version 2
File size : 1.09 GiB
Duration : 58 min 7 s
Overall bit rate : 2 692 kb/s
Movie name : Homeland, Season 3, Disc 1
Encoded date : UTC 2018-08-18 18:31:15
Writing application : mkvmerge v20.0.0 ('I Am The Sun') 64-bit
Writing library : libebml v1.3.5 + libmatroska v1.4.8
Writing frontend : StaxRip v1.7.0.6

Video
ID : 1
Format : HEVC
Format/Info : High Efficiency Video Coding
Format profile : Main [email protected]@Main
Codec ID : V_MPEGH/ISO/HEVC
Duration : 58 min 7 s
Bit rate : 2 267 kb/s
Width : 1 920 pixels
Height : 1 080 pixels
Display aspect ratio : 16:9
Frame rate mode : Constant
Frame rate : 23.976 (24000/1001) FPS
Color space : YUV
Chroma subsampling : 4:2:0
Bit depth : 10 bits
Bits/(Pixel*Frame) : 0.046
Stream size : 943 MiB (84%)
Writing library : x265 2.8+3-450421921079:[Windows][MSVC 1900][64 bit] 10bit
Encoding settings : cpuid=1111039 / frame-threads=3 / numa-pools=8 / wpp / no-pmode / no-pme / no-psnr / no-ssim / log-level=2 / input-csp=1 / input-res=1920x1080 / interlace=0 / total-frames=83617 / level-idc=0 / high-tier=1 / uhd-bd=0 / ref=5 / no-allow-non-conformance / no-repeat-headers / annexb / no-aud / no-hrd / info / hash=0 / no-temporal-layers / open-gop / min-keyint=23 / keyint=250 / gop-lookahead=0 / bframes=8 / b-adapt=2 / b-pyramid / bframe-bias=0 / rc-lookahead=80 / lookahead-slices=4 / scenecut=40 / radl=0 / no-intra-refresh / ctu=64 / min-cu-size=8 / no-rect / no-amp / max-tu-size=32 / tu-inter-depth=1 / tu-intra-depth=1 / limit-tu=0 / rdoq-level=2 / dynamic-rd=0.00 / no-ssim-rd / signhide / no-tskip / nr-intra=0 / nr-inter=0 / no-constrained-intra / no-strong-intra-smoothing / max-merge=3 / limit-refs=3 / limit-modes / me=3 / subme=5 / merange=57 / temporal-mvp / weightp / weightb / no-analyze-src-pics / deblock=-3:-3 / no-sao / no-sao-non-deblock / rd=4 / no-early-skip / rskip / no-fast-intra / no-tskip-fast / no-cu-lossless / b-intra / no-splitrd-skip / rdpenalty=0 / psy-rd=1.50 / psy-rdoq=1.00 / no-rd-refine / no-lossless / cbqpoffs=0 / crqpoffs=0 / rc=crf / crf=21.0 / qcomp=0.60 / qpstep=4 / stats-write=0 / stats-read=0 / ipratio=1.40 / pbratio=1.30 / aq-mode=3 / aq-strength=1.00 / cutree / zone-count=0 / no-strict-cbr / qg-size=32 / no-rc-grain / qpmax=69 / qpmin=0 / no-const-vbv / sar=0 / overscan=0 / videoformat=5 / range=0 / colorprim=2 / transfer=2 / colormatrix=2 / chromaloc=0 / display-window=0 / max-cll=0,0 / min-luma=0 / max-luma=1023 / log2-max-poc-lsb=8 / vui-timing-info / vui-hrd-info / slices=1 / no-opt-qp-pps / no-opt-ref-list-length-pps / no-multi-pass-opt-rps / scenecut-bias=0.05 / no-opt-cu-delta-qp / no-aq-motion / no-hdr / no-hdr-opt / no-dhdr10-opt / no-idr-recovery-sei / analysis-reuse-level=5 / scale-factor=0 / refine-intra=0 / refine-inter=0 / refine-mv=0 / no-limit-sao / ctu-info=0 / no-lowpass-dct / refine-mv-type=0 / copy-pic=1 / max-ausize-factor=1.0 / no-dynamic-refine / no-single-sei
Default : Yes
Forced : No

Audio
ID : 2
Format : AAC
Format/Info : Advanced Audio Codec
Format profile : LC
Codec ID : A_AAC
Duration : 58 min 7 s
Bit rate : 413 kb/s
Channel(s) : 6 channels
Channel positions : Front: L C R, Side: L R, LFE
Sampling rate : 48.0 kHz
Frame rate : 46.875 FPS (1024 spf)
Compression mode : Lossy
Delay relative to video : 20 ms
Stream size : 172 MiB (15%)
Language : English
Default : Yes
Forced : No

Subtitle
ID : 3
Format : PGS
Muxing mode : zlib
Codec ID : S_HDMV/PGS
Codec ID/Info : Picture based subtitle format used on BDs/HD-DVDs
Duration : 57 min 59 s
Bit rate : 52.6 kb/s
Count of elements : 1462
Stream size : 21.8 MiB (2%)
Language : English
Default : No
Forced : No

Menu
00:00:00.000 : en:Chapter 01
00:02:44.622 : en:Chapter 02
00:08:16.287 : en:Chapter 03
00:13:19.465 : en:Chapter 04
00:18:12.424 : en:Chapter 05
00:22:07.534 : en:Chapter 06
00:24:26.882 : en:Chapter 07
00:28:58.820 : en:Chapter 08
00:35:08.189 : en:Chapter 09
00:44:19.281 : en:Chapter 10
00:49:54.074 : en:Chapter 11
00:51:45.352 : en:Chapter 12

Screens

Download

Season: Google Drive (16.78 GB)

Extras: Google Drive (0.4 GB)

Season 4

Homeland (2011) Season 4 S04 + Extras (1080p BluRay x265 HEVC 10bit AAC 5.1 Silence)

Files

Homeland (2011) Season 4 S04 + Extras (1080p BluRay x265 HEVC 10bit AAC 5.1 Silence)

  • Homeland (2011) – S04E01 – The Drone Queen (1080p BluRay x265 Silence).mkv (1.4 GB)
  • Homeland (2011) – S04E02 – Trylon and Perisphere (1080p BluRay x265 Silence).mkv (1.0 GB)
  • Homeland (2011) – S04E03 – Shalwar Kameez (1080p BluRay x265 Silence).mkv (1.4 GB)
  • Homeland (2011) – S04E04 – Iron in the Fire (1080p BluRay x265 Silence).mkv (1.3 GB)
  • Homeland (2011) – S04E05 – About a Boy (1080p BluRay x265 Silence).mkv (1.2 GB)
  • Homeland (2011) – S04E06 – From A to B and Back Again (1080p BluRay x265 Silence).mkv (1.5 GB)
  • Homeland (2011) – S04E07 – Redux (1080p BluRay x265 Silence).mkv (1.5 GB)
  • Homeland (2011) – S04E08 – Halfway to a Donut (1080p BluRay x265 Silence).mkv (1.6 GB)
  • Homeland (2011) – S04E09 – There’s Something Else Going On (1080p BluRay x265 Silence).mkv (1.5 GB)
  • Homeland (2011) – S04E10 – 13 Hours in Islamabad (1080p BluRay x265 Silence).mkv (1.2 GB)
  • Homeland (2011) – S04E11 – Krieg Nicht Lieb (1080p BluRay x265 Silence).mkv (1.4 GB)
  • Homeland (2011) – S04E12 – Long Time Coming (1080p BluRay x265 Silence).mkv (1.6 GB)

Featurettes

  • Menu Art.mkv (22.8 MB)
  • Peter Quinn – The Assassin.mkv (87.9 MB)

Mediainfo

General
Format : Matroska
Format version : Version 4 / Version 2
File size : 1.40 GiB
Duration : 48 min 53 s
Overall bit rate : 4 106 kb/s
Movie name : Homeland, Season 4 Disc 1
Encoded date : UTC 2018-08-24 08:25:56
Writing application : mkvmerge v20.0.0 ('I Am The Sun') 64-bit
Writing library : libebml v1.3.5 + libmatroska v1.4.8
Writing frontend : StaxRip v1.7.0.6

Video
ID : 1
Format : HEVC
Format/Info : High Efficiency Video Coding
Format profile : Main [email protected]@Main
Codec ID : V_MPEGH/ISO/HEVC
Duration : 48 min 53 s
Bit rate : 3 652 kb/s
Width : 1 920 pixels
Height : 1 080 pixels
Display aspect ratio : 16:9
Frame rate mode : Constant
Frame rate : 23.976 (24000/1001) FPS
Color space : YUV
Chroma subsampling : 4:2:0
Bit depth : 10 bits
Bits/(Pixel*Frame) : 0.073
Stream size : 1.25 GiB (89%)
Writing library : x265 2.8+3-450421921079:[Windows][MSVC 1900][64 bit] 10bit
Encoding settings : cpuid=1111039 / frame-threads=3 / numa-pools=8 / wpp / no-pmode / no-pme / no-psnr / no-ssim / log-level=2 / input-csp=1 / input-res=1920x1080 / interlace=0 / total-frames=70340 / level-idc=0 / high-tier=1 / uhd-bd=0 / ref=5 / no-allow-non-conformance / no-repeat-headers / annexb / no-aud / no-hrd / info / hash=0 / no-temporal-layers / open-gop / min-keyint=23 / keyint=250 / gop-lookahead=0 / bframes=8 / b-adapt=2 / b-pyramid / bframe-bias=0 / rc-lookahead=80 / lookahead-slices=4 / scenecut=40 / radl=0 / no-intra-refresh / ctu=64 / min-cu-size=8 / no-rect / no-amp / max-tu-size=32 / tu-inter-depth=1 / tu-intra-depth=1 / limit-tu=0 / rdoq-level=2 / dynamic-rd=0.00 / no-ssim-rd / signhide / no-tskip / nr-intra=0 / nr-inter=0 / no-constrained-intra / no-strong-intra-smoothing / max-merge=3 / limit-refs=3 / limit-modes / me=3 / subme=5 / merange=57 / temporal-mvp / weightp / weightb / no-analyze-src-pics / deblock=-3:-3 / no-sao / no-sao-non-deblock / rd=4 / no-early-skip / rskip / no-fast-intra / no-tskip-fast / no-cu-lossless / b-intra / no-splitrd-skip / rdpenalty=0 / psy-rd=1.50 / psy-rdoq=1.00 / no-rd-refine / no-lossless / cbqpoffs=0 / crqpoffs=0 / rc=crf / crf=21.0 / qcomp=0.60 / qpstep=4 / stats-write=0 / stats-read=0 / ipratio=1.40 / pbratio=1.30 / aq-mode=3 / aq-strength=1.00 / cutree / zone-count=0 / no-strict-cbr / qg-size=32 / no-rc-grain / qpmax=69 / qpmin=0 / no-const-vbv / sar=0 / overscan=0 / videoformat=5 / range=0 / colorprim=2 / transfer=2 / colormatrix=2 / chromaloc=0 / display-window=0 / max-cll=0,0 / min-luma=0 / max-luma=1023 / log2-max-poc-lsb=8 / vui-timing-info / vui-hrd-info / slices=1 / no-opt-qp-pps / no-opt-ref-list-length-pps / no-multi-pass-opt-rps / scenecut-bias=0.05 / no-opt-cu-delta-qp / no-aq-motion / no-hdr / no-hdr-opt / no-dhdr10-opt / no-idr-recovery-sei / analysis-reuse-level=5 / scale-factor=0 / refine-intra=0 / refine-inter=0 / refine-mv=0 / no-limit-sao / ctu-info=0 / no-lowpass-dct / refine-mv-type=0 / copy-pic=1 / max-ausize-factor=1.0 / no-dynamic-refine / no-single-sei
Default : Yes
Forced : No

Audio
ID : 2
Format : AAC
Format/Info : Advanced Audio Codec
Format profile : LC
Codec ID : A_AAC
Duration : 48 min 53 s
Bit rate : 444 kb/s
Channel(s) : 6 channels
Channel positions : Front: L C R, Side: L R, LFE
Sampling rate : 48.0 kHz
Frame rate : 46.875 FPS (1024 spf)
Compression mode : Lossy
Delay relative to video : 20 ms
Stream size : 155 MiB (11%)
Language : English
Default : Yes
Forced : No

Subtitle
ID : 3
Format : PGS
Muxing mode : zlib
Codec ID : S_HDMV/PGS
Codec ID/Info : Picture based subtitle format used on BDs/HD-DVDs
Duration : 47 min 53 s
Bit rate : 42.4 kb/s
Count of elements : 1076
Stream size : 14.5 MiB (1%)
Language : English
Default : No
Forced : No

Menu
00:00:00.000 : en:Chapter 01
00:03:26.206 : en:Chapter 02
00:06:18.127 : en:Chapter 03
00:10:38.929 : en:Chapter 04
00:16:09.510 : en:Chapter 05
00:19:56.153 : en:Chapter 06
00:23:39.543 : en:Chapter 07
00:26:08.400 : en:Chapter 08
00:29:56.085 : en:Chapter 09
00:33:32.719 : en:Chapter 10
00:38:15.001 : en:Chapter 11
00:44:24.912 : en:Chapter 12

Screens

Download

Season: Google Drive (16.53 GB)

Extras: Google Drive (0.1 GB)

Season 5

Homeland (2011) Season 5 S05 + Extras (1080p BluRay x265 HEVC 10bit AAC 5.1 Silence)

Files

Homeland (2011) Season 5 S05 + Extras (1080p BluRay x265 HEVC 10bit AAC 5.1 Silence)

  • Homeland (2011) – S05E01 – Separation Anxiety (1080p BluRay x265 Silence).mkv (915.6 MB)
  • Homeland (2011) – S05E02 – The Tradition of Hospitality (1080p BluRay x265 Silence).mkv (1.2 GB)
  • Homeland (2011) – S05E03 – Super Powers (1080p BluRay x265 Silence).mkv (1.2 GB)
  • Homeland (2011) – S05E04 – Why Is This Night Different (1080p BluRay x265 Silence).mkv (1.2 GB)
  • Homeland (2011) – S05E05 – Better Call Saul (1080p BluRay x265 Silence).mkv (1.2 GB)
  • Homeland (2011) – S05E06 – Parabiosis (1080p BluRay x265 Silence).mkv (988.7 MB)
  • Homeland (2011) – S05E07 – Oriole (1080p BluRay x265 Silence).mkv (1.1 GB)
  • Homeland (2011) – S05E08 – All About Allison (1080p BluRay x265 Silence).mkv (1.1 GB)
  • Homeland (2011) – S05E09 – The Litvinov Ruse (1080p BluRay x265 Silence).mkv (1.2 GB)
  • Homeland (2011) – S05E10 – New Normal (1080p BluRay x265 Silence).mkv (1.1 GB)
  • Homeland (2011) – S05E11 – Our Man in Damascus (1080p BluRay x265 Silence).mkv (1.2 GB)
  • Homeland (2011) – S05E12 – A False Glimmer (1080p BluRay x265 Silence).mkv (1.0 GB)

Featurettes

  • Menu Art_new.mkv (4.3 MB)
  • The Evolution of Carrie Mathison_new.mkv (142.7 MB)

Mediainfo

General
Format : Matroska
Format version : Version 4 / Version 2
File size : 916 MiB
Duration : 50 min 9 s
Overall bit rate : 2 552 kb/s
Movie name : Homeland, Season 5 Disc 1
Encoded date : UTC 2018-09-09 14:27:27
Writing application : mkvmerge v17.0.0 ('Be Ur Friend') 64-bit
Writing library : libebml v1.3.5 + libmatroska v1.4.8
Cover : Yes
Attachments : cover.jpg
Writing frontend : StaxRip v1.7.0.6

Video
ID : 1
Format : HEVC
Format/Info : High Efficiency Video Coding
Format profile : Main [email protected]@Main
Codec ID : V_MPEGH/ISO/HEVC
Duration : 50 min 9 s
Bit rate : 2 175 kb/s
Width : 1 920 pixels
Height : 1 080 pixels
Display aspect ratio : 16:9
Frame rate mode : Constant
Frame rate : 23.976 (24000/1001) FPS
Color space : YUV
Chroma subsampling : 4:2:0
Bit depth : 10 bits
Bits/(Pixel*Frame) : 0.044
Stream size : 780 MiB (85%)
Writing library : x265 2.8+66-88ee12651e30:[Windows][MSVC 1900][64 bit] 10bit
Encoding settings : cpuid=1111039 / frame-threads=3 / numa-pools=8 / wpp / no-pmode / no-pme / no-psnr / no-ssim / log-level=2 / input-csp=1 / input-res=1920x1080 / interlace=0 / total-frames=72145 / level-idc=0 / high-tier=1 / uhd-bd=0 / ref=5 / no-allow-non-conformance / no-repeat-headers / annexb / no-aud / no-hrd / info / hash=0 / no-temporal-layers / open-gop / min-keyint=23 / keyint=250 / gop-lookahead=0 / bframes=8 / b-adapt=2 / b-pyramid / bframe-bias=0 / rc-lookahead=80 / lookahead-slices=4 / scenecut=40 / radl=0 / no-intra-refresh / ctu=64 / min-cu-size=8 / no-rect / no-amp / max-tu-size=32 / tu-inter-depth=1 / tu-intra-depth=1 / limit-tu=0 / rdoq-level=2 / dynamic-rd=0.00 / no-ssim-rd / signhide / no-tskip / nr-intra=0 / nr-inter=0 / no-constrained-intra / no-strong-intra-smoothing / max-merge=3 / limit-refs=3 / limit-modes / me=3 / subme=5 / merange=57 / temporal-mvp / weightp / weightb / no-analyze-src-pics / deblock=-3:-3 / no-sao / no-sao-non-deblock / rd=4 / no-early-skip / rskip / no-fast-intra / no-tskip-fast / no-cu-lossless / b-intra / no-splitrd-skip / rdpenalty=0 / psy-rd=1.50 / psy-rdoq=1.00 / no-rd-refine / no-lossless / cbqpoffs=0 / crqpoffs=0 / rc=crf / crf=20.0 / qcomp=0.60 / qpstep=4 / stats-write=0 / stats-read=0 / ipratio=1.40 / pbratio=1.30 / aq-mode=3 / aq-strength=1.00 / cutree / zone-count=0 / no-strict-cbr / qg-size=32 / no-rc-grain / qpmax=69 / qpmin=0 / no-const-vbv / sar=0 / overscan=0 / videoformat=5 / range=0 / colorprim=2 / transfer=2 / colormatrix=2 / chromaloc=0 / display-window=0 / max-cll=0,0 / min-luma=0 / max-luma=1023 / log2-max-poc-lsb=8 / vui-timing-info / vui-hrd-info / slices=1 / no-opt-qp-pps / no-opt-ref-list-length-pps / no-multi-pass-opt-rps / scenecut-bias=0.05 / no-opt-cu-delta-qp / no-aq-motion / no-hdr / no-hdr-opt / no-dhdr10-opt / no-idr-recovery-sei / analysis-reuse-level=5 / scale-factor=0 / refine-intra=0 / refine-inter=0 / refine-mv=0 / no-limit-sao / ctu-info=0 / no-lowpass-dct / refine-mv-type=0 / copy-pic=1 / max-ausize-factor=1.0 / no-dynamic-refine / no-single-sei
Default : Yes
Forced : No

Audio
ID : 2
Format : AAC
Format/Info : Advanced Audio Codec
Format profile : LC
Codec ID : A_AAC
Duration : 50 min 9 s
Bit rate : 367 kb/s
Channel(s) : 6 channels
Channel positions : Front: L C R, Side: L R, LFE
Sampling rate : 48.0 kHz
Frame rate : 46.875 FPS (1024 spf)
Compression mode : Lossy
Delay relative to video : 20 ms
Stream size : 132 MiB (14%)
Language : English
Default : Yes
Forced : No

Subtitle
ID : 3
Format : PGS
Muxing mode : zlib
Codec ID : S_HDMV/PGS
Codec ID/Info : Picture based subtitle format used on BDs/HD-DVDs
Duration : 50 min 0 s
Bit rate : 45.5 kb/s
Count of elements : 1244
Stream size : 16.3 MiB (2%)
Language : English
Default : No
Forced : No

Menu
00:00:00.000 : en:Chapter 01
00:02:00.036 : en:Chapter 02
00:07:13.141 : en:Chapter 03
00:09:37.952 : en:Chapter 04
00:14:56.186 : en:Chapter 05
00:19:48.729 : en:Chapter 06
00:23:07.344 : en:Chapter 07
00:25:01.249 : en:Chapter 08
00:29:16.337 : en:Chapter 09
00:35:17.073 : en:Chapter 10
00:39:23.110 : en:Chapter 11
00:43:33.360 : en:Chapter 12

Screens

Download

Season: Google Drive (13.30 GB)

Extras: Google Drive (0.1 GB)

Season 6

Homeland (2011) Season 6 S06 + Extras (1080p BluRay x265 HEVC 10bit AAC 5.1 Silence)

Files

Homeland (2011) Season 6 S06 + Extras (1080p BluRay x265 HEVC 10bit AAC 5.1 Silence)

  • Homeland (2011) – S06E01 – Fair Game (1080p BluRay x265 Silence).mkv (1.1 GB)
  • Homeland (2011) – S06E02 – The Man in the Basement (1080p BluRay x265 Silence).mkv (1.1 GB)
  • Homeland (2011) – S06E03 – The Covenant (1080p BluRay x265 Silence).mkv (1.1 GB)
  • Homeland (2011) – S06E04 – A Flash of Light (1080p BluRay x265 Silence).mkv (1.2 GB)
  • Homeland (2011) – S06E05 – Casus Belli (1080p BluRay x265 Silence).mkv (1.0 GB)
  • Homeland (2011) – S06E06 – The Return (1080p BluRay x265 Silence).mkv (1.0 GB)
  • Homeland (2011) – S06E07 – Imminent Risk (1080p BluRay x265 Silence).mkv (1.0 GB)
  • Homeland (2011) – S06E08 – Alt.Truth (1080p BluRay x265 Silence).mkv (1.2 GB)
  • Homeland (2011) – S06E09 – Sock Puppets (1080p BluRay x265 Silence).mkv (1.0 GB)
  • Homeland (2011) – S06E10 – The Flag House (1080p BluRay x265 Silence).mkv (1,012.8 MB)
  • Homeland (2011) – S06E11 – R Is for Romeo (1080p BluRay x265 Silence).mkv (873.2 MB)
  • Homeland (2011) – S06E12 – America First (1080p BluRay x265 Silence).mkv (1.1 GB)

Featurettes

  • About Season 6.mkv (61.1 MB)
  • Menu Art.mkv (8.5 MB)
  • On Location – New York City.mkv (54.1 MB)

Mediainfo

General
Format : Matroska
Format version : Version 4 / Version 2
File size : 1.12 GiB
Duration : 50 min 49 s
Overall bit rate : 3 159 kb/s
Movie name : Homeland, Season 6 Disc 1
Encoded date : UTC 2018-09-09 21:24:28
Writing application : mkvmerge v17.0.0 ('Be Ur Friend') 64-bit
Writing library : libebml v1.3.5 + libmatroska v1.4.8
Cover : Yes
Attachments : cover.jpg
Writing frontend : StaxRip v1.7.0.6

Video
ID : 1
Format : HEVC
Format/Info : High Efficiency Video Coding
Format profile : Main [email protected]@Main
Codec ID : V_MPEGH/ISO/HEVC
Duration : 50 min 49 s
Bit rate : 2 752 kb/s
Width : 1 920 pixels
Height : 1 080 pixels
Display aspect ratio : 16:9
Frame rate mode : Constant
Frame rate : 23.976 (24000/1001) FPS
Color space : YUV
Chroma subsampling : 4:2:0
Bit depth : 10 bits
Bits/(Pixel*Frame) : 0.055
Stream size : 1 000 MiB (87%)
Writing library : x265 2.8+66-88ee12651e30:[Windows][MSVC 1900][64 bit] 10bit
Encoding settings : cpuid=1111039 / frame-threads=3 / numa-pools=8 / wpp / no-pmode / no-pme / no-psnr / no-ssim / log-level=2 / input-csp=1 / input-res=1920x1080 / interlace=0 / total-frames=73105 / level-idc=0 / high-tier=1 / uhd-bd=0 / ref=5 / no-allow-non-conformance / no-repeat-headers / annexb / no-aud / no-hrd / info / hash=0 / no-temporal-layers / open-gop / min-keyint=23 / keyint=250 / gop-lookahead=0 / bframes=8 / b-adapt=2 / b-pyramid / bframe-bias=0 / rc-lookahead=80 / lookahead-slices=4 / scenecut=40 / radl=0 / no-intra-refresh / ctu=64 / min-cu-size=8 / no-rect / no-amp / max-tu-size=32 / tu-inter-depth=1 / tu-intra-depth=1 / limit-tu=0 / rdoq-level=2 / dynamic-rd=0.00 / no-ssim-rd / signhide / no-tskip / nr-intra=0 / nr-inter=0 / no-constrained-intra / no-strong-intra-smoothing / max-merge=3 / limit-refs=3 / limit-modes / me=3 / subme=5 / merange=57 / temporal-mvp / weightp / weightb / no-analyze-src-pics / deblock=-3:-3 / no-sao / no-sao-non-deblock / rd=4 / no-early-skip / rskip / no-fast-intra / no-tskip-fast / no-cu-lossless / b-intra / no-splitrd-skip / rdpenalty=0 / psy-rd=1.50 / psy-rdoq=1.00 / no-rd-refine / no-lossless / cbqpoffs=0 / crqpoffs=0 / rc=crf / crf=20.5 / qcomp=0.60 / qpstep=4 / stats-write=0 / stats-read=0 / ipratio=1.40 / pbratio=1.30 / aq-mode=3 / aq-strength=1.00 / cutree / zone-count=0 / no-strict-cbr / qg-size=32 / no-rc-grain / qpmax=69 / qpmin=0 / no-const-vbv / sar=0 / overscan=0 / videoformat=5 / range=0 / colorprim=2 / transfer=2 / colormatrix=2 / chromaloc=0 / display-window=0 / max-cll=0,0 / min-luma=0 / max-luma=1023 / log2-max-poc-lsb=8 / vui-timing-info / vui-hrd-info / slices=1 / no-opt-qp-pps / no-opt-ref-list-length-pps / no-multi-pass-opt-rps / scenecut-bias=0.05 / no-opt-cu-delta-qp / no-aq-motion / no-hdr / no-hdr-opt / no-dhdr10-opt / no-idr-recovery-sei / analysis-reuse-level=5 / scale-factor=0 / refine-intra=0 / refine-inter=0 / refine-mv=0 / no-limit-sao / ctu-info=0 / no-lowpass-dct / refine-mv-type=0 / copy-pic=1 / max-ausize-factor=1.0 / no-dynamic-refine / no-single-sei
Default : Yes
Forced : No

Audio
ID : 2
Format : AAC
Format/Info : Advanced Audio Codec
Format profile : LC
Codec ID : A_AAC
Duration : 50 min 49 s
Bit rate : 384 kb/s
Channel(s) : 6 channels
Channel positions : Front: L C R, Side: L R, LFE
Sampling rate : 48.0 kHz
Frame rate : 46.875 FPS (1024 spf)
Compression mode : Lossy
Delay relative to video : 20 ms
Stream size : 142 MiB (12%)
Language : English
Default : Yes
Forced : No

Subtitle
ID : 3
Format : PGS
Muxing mode : zlib
Codec ID : S_HDMV/PGS
Codec ID/Info : Picture based subtitle format used on BDs/HD-DVDs
Duration : 48 min 25 s
Bit rate : 50.2 kb/s
Count of elements : 1706
Stream size : 17.4 MiB (2%)
Language : English
Default : No
Forced : No

Menu
00:00:00.000 : en:Chapter 01
00:01:36.763 : en:Chapter 02
00:06:08.951 : en:Chapter 03
00:11:58.551 : en:Chapter 04
00:14:02.758 : en:Chapter 05
00:18:16.220 : en:Chapter 06
00:21:01.802 : en:Chapter 07
00:25:53.635 : en:Chapter 08
00:32:02.295 : en:Chapter 09
00:33:47.650 : en:Chapter 10
00:38:29.307 : en:Chapter 11
00:43:25.144 : en:Chapter 12

Screens

Download

Season: Google Drive (12.69 GB)

Extras: Google Drive (0.1 GB)

Season 7

Homeland (2011) Season 7 S07 (1080p BluRay x265 HEVC 10bit AAC 5.1 Silence)

Files

Homeland (2011) Season 7 S07 (1080p BluRay x265 HEVC 10bit AAC 5.1 Silence)

  • Homeland (2011) – S07E01 – Enemy of the State (1080p BluRay x265 Silence).mkv (1.3 GB)
  • Homeland (2011) – S07E02 – Rebel Rebel (1080p BluRay x265 Silence).mkv (1.4 GB)
  • Homeland (2011) – S07E03 – Standoff (1080p BluRay x265 Silence).mkv (1.4 GB)
  • Homeland (2011) – S07E04 – Like Bad at Things (1080p BluRay x265 Silence).mkv (1.5 GB)
  • Homeland (2011) – S07E05 – Active Measures (1080p BluRay x265 Silence).mkv (1.2 GB)
  • Homeland (2011) – S07E06 – Species Jump (1080p BluRay x265 Silence).mkv (1.5 GB)
  • Homeland (2011) – S07E07 – Andante (1080p BluRay x265 Silence).mkv (1.2 GB)
  • Homeland (2011) – S07E08 – Lies, Amplifiers, Fking Twitter (1080p BluRay x265 Silence).mkv (1.1 GB)
  • Homeland (2011) – S07E09 – Useful Idiot (1080p BluRay x265 Silence).mkv (1.1 GB)
  • Homeland (2011) – S07E10 – Clarity (1080p BluRay x265 Silence).mkv (1.5 GB)
  • Homeland (2011) – S07E11 – All In (1080p BluRay x265 Silence).mkv (1.1 GB)
  • Homeland (2011) – S07E12 – Paean to the People (1080p BluRay x265 Silence).mkv (1.1 GB)

Mediainfo

General
Format : Matroska
Format version : Version 4 / Version 2
File size : 1.34 GiB
Duration : 59 min 14 s
Overall bit rate : 3 241 kb/s
Movie name : Homeland - S07E01 - Enemy of the State
Encoded date : UTC 2018-09-28 09:04:51
Writing application : mkvmerge v20.0.0 ('I Am The Sun') 64-bit
Writing library : libebml v1.3.5 + libmatroska v1.4.8
Writing frontend : StaxRip v1.7.0.6

Video
ID : 1
Format : HEVC
Format/Info : High Efficiency Video Coding
Format profile : Main [email protected]@Main
Codec ID : V_MPEGH/ISO/HEVC
Duration : 59 min 14 s
Bit rate : 2 820 kb/s
Width : 1 920 pixels
Height : 1 080 pixels
Display aspect ratio : 16:9
Frame rate mode : Constant
Frame rate : 23.976 (24000/1001) FPS
Color space : YUV
Chroma subsampling : 4:2:0
Bit depth : 10 bits
Bits/(Pixel*Frame) : 0.057
Stream size : 1.17 GiB (87%)
Writing library : x265 2.8+66-88ee12651e30:[Windows][MSVC 1915][64 bit] 10bit
Encoding settings : cpuid=1111039 / frame-threads=4 / numa-pools=16 / wpp / no-pmode / no-pme / no-psnr / no-ssim / log-level=2 / input-csp=1 / input-res=1920x1080 / interlace=0 / total-frames=85225 / level-idc=0 / high-tier=1 / uhd-bd=0 / ref=5 / no-allow-non-conformance / no-repeat-headers / annexb / no-aud / no-hrd / info / hash=0 / no-temporal-layers / open-gop / min-keyint=23 / keyint=250 / gop-lookahead=0 / bframes=8 / b-adapt=2 / b-pyramid / bframe-bias=0 / rc-lookahead=80 / lookahead-slices=4 / scenecut=40 / radl=0 / no-intra-refresh / ctu=64 / min-cu-size=8 / no-rect / no-amp / max-tu-size=32 / tu-inter-depth=1 / tu-intra-depth=1 / limit-tu=0 / rdoq-level=2 / dynamic-rd=0.00 / no-ssim-rd / signhide / no-tskip / nr-intra=0 / nr-inter=0 / no-constrained-intra / no-strong-intra-smoothing / max-merge=3 / limit-refs=3 / limit-modes / me=3 / subme=5 / merange=57 / temporal-mvp / weightp / weightb / no-analyze-src-pics / deblock=-3:-3 / no-sao / no-sao-non-deblock / rd=4 / no-early-skip / rskip / no-fast-intra / no-tskip-fast / no-cu-lossless / b-intra / no-splitrd-skip / rdpenalty=0 / psy-rd=1.50 / psy-rdoq=1.00 / no-rd-refine / no-lossless / cbqpoffs=0 / crqpoffs=0 / rc=crf / crf=20.5 / qcomp=0.60 / qpstep=4 / stats-write=0 / stats-read=0 / ipratio=1.40 / pbratio=1.30 / aq-mode=3 / aq-strength=1.00 / cutree / zone-count=0 / no-strict-cbr / qg-size=32 / no-rc-grain / qpmax=69 / qpmin=0 / no-const-vbv / sar=0 / overscan=0 / videoformat=5 / range=0 / colorprim=2 / transfer=2 / colormatrix=2 / chromaloc=0 / display-window=0 / max-cll=0,0 / min-luma=0 / max-luma=1023 / log2-max-poc-lsb=8 / vui-timing-info / vui-hrd-info / slices=1 / no-opt-qp-pps / no-opt-ref-list-length-pps / no-multi-pass-opt-rps / scenecut-bias=0.05 / no-opt-cu-delta-qp / no-aq-motion / no-hdr / no-hdr-opt / no-dhdr10-opt / no-idr-recovery-sei / analysis-reuse-level=5 / scale-factor=0 / refine-intra=0 / refine-inter=0 / refine-mv=0 / no-limit-sao / ctu-info=0 / no-lowpass-dct / refine-mv-type=0 / copy-pic=1 / max-ausize-factor=1.0 / no-dynamic-refine / no-single-sei
Default : Yes
Forced : No

Audio
ID : 2
Format : AAC
Format/Info : Advanced Audio Codec
Format profile : LC
Codec ID : A_AAC
Duration : 59 min 14 s
Bit rate : 384 kb/s
Channel(s) : 6 channels
Channel positions : Front: L C R, Side: L R, LFE
Sampling rate : 48.0 kHz
Frame rate : 46.875 FPS (1024 spf)
Compression mode : Lossy
Delay relative to video : 20 ms
Stream size : 162 MiB (12%)
Language : English
Default : Yes
Forced : No

Subtitle #1
ID : 3
Format : PGS
Muxing mode : zlib
Codec ID : S_HDMV/PGS
Codec ID/Info : Picture based subtitle format used on BDs/HD-DVDs
Duration : 58 min 41 s
Bit rate : 47.5 kb/s
Count of elements : 1918
Stream size : 19.9 MiB (1%)
Language : English
Default : No
Forced : No

Subtitle #2
ID : 4
Format : PGS
Muxing mode : zlib
Codec ID : S_HDMV/PGS
Codec ID/Info : Picture based subtitle format used on BDs/HD-DVDs
Duration : 59 min 11 s
Bit rate : 41.3 kb/s
Count of elements : 1444
Stream size : 17.5 MiB (1%)
Language : Danish
Default : No
Forced : No

Menu
00:00:00.000 : en:Chapter 1
00:01:56.575 : en:Chapter 2
00:07:10.805 : en:Chapter 3
00:10:23.122 : en:Chapter 4
00:11:59.761 : en:Chapter 5
00:16:32.909 : en:Chapter 6
00:20:11.210 : en:Chapter 7
00:23:50.512 : en:Chapter 8
00:30:02.467 : en:Chapter 9
00:34:17.514 : en:Chapter 10
00:38:27.430 : en:Chapter 11
00:44:52.064 : en:Chapter 12

Screens

Download

Season: Google Drive (15.49 GB)

Season 8

Homeland (2011) Season 8 S08 (1080p AMZN WEB-DL x265 HEVC 10bit DDP 5.1 Vyndros)

Files

Homeland (2011) Season 8 S08 (1080p AMZN WEB-DL x265 HEVC 10bit DDP 5.1 Vyndros)

  • Homeland.S08E01.Deception.Indicated.1080p.10bit.AMZN.WEB-DL.DDP5.1.HEVC-Vyndros.mkv (1.2 GB)
  • Homeland.S08E02.Catch.and.Release.1080p.10bit.AMZN.WEB-DL.DDP5.1.HEVC-Vyndros.mkv (1.1 GB)
  • Homeland.S08E03.False.Friends.1080p.10bit.AMZN.WEB-DL.DDP5.1.HEVC-Vyndros.mkv (1.0 GB)
  • Homeland.S08E04.Chalk.One.Up.1080p.10bit.AMZN.WEB-DL.DDP5.1.HEVC-Vyndros.mkv (1.3 GB)
  • Homeland.S08E05.Chalk.Two.Down.1080p.10bit.AMZN.WEB-DL.DDP5.1.HEVC-Vyndros.mkv (1.4 GB)
  • Homeland.S08E06.Two.Minutes.1080p.10bit.AMZN.WEB-DL.DDP5.1.HEVC-Vyndros.mkv (1.1 GB)
  • Homeland.S08E07.Fucker.Shot.Me.1080p.10bit.AMZN.WEB-DL.DDP5.1.HEVC-Vyndros.mkv (1.4 GB)
  • Homeland.S08E08.Threnody(s).1080p.10bit.AMZN.WEB-DL.DDP5.1.HEVC-Vyndros.mkv (1.0 GB)
  • Homeland.S08E09.In.Full.Flight.1080p.10bit.AMZN.WEB-DL.DDP5.1.HEVC-Vyndros.mkv (880.2 MB)
  • Homeland.S08E10.Designated.Driver.1080p.10bit.AMZN.WEB-DL.DDP5.1.HEVC-Vyndros.mkv (1.3 GB)
  • Homeland.S08E11.The.English.Teacher.1080p.10bit.AMZN.WEB-DL.DDP5.1.HEVC-Vyndros.mkv (999.5 MB)
  • Homeland.S08E12.Prisoners.of.War.1080p.10bit.AMZN.WEB-DL.DDP5.1.HEVC-Vyndros.mkv (1.2 GB)

Mediainfo

General
Format : Matroska
Format version : Version 4 / Version 2
File size : 1.23 GiB
Duration : 1 h 6 min
Overall bit rate : 2 655 kb/s
Encoded date : UTC 2020-04-27 15:33:29
Writing application : mkvmerge v20.0.0 ('I Am The Sun') 64-bit
Writing library : libebml v1.3.5 + libmatroska v1.4.8
Writing frontend : StaxRip v1.7.0.6

Video
ID : 1
Format : HEVC
Format/Info : High Efficiency Video Coding
Format profile : Main [email protected]@Main
Codec ID : V_MPEGH/ISO/HEVC
Duration : 1 h 6 min
Bit rate : 2 013 kb/s
Width : 1 920 pixels
Height : 1 080 pixels
Display aspect ratio : 16:9
Frame rate mode : Constant
Frame rate : 23.976 (24000/1001) FPS
Color space : YUV
Chroma subsampling : 4:2:0
Bit depth : 10 bits
Bits/(Pixel*Frame) : 0.040
Stream size : 959 MiB (76%)
Writing library : x265 3.3+1-g554c887ac:[Windows][MSVC 1924][64 bit] 10bit
Encoding settings : cpuid=1111039 / frame-threads=3 / numa-pools=12 / wpp / no-pmode / no-pme / no-psnr / ssim / log-level=2 / input-csp=1 / input-res=1920x1080 / interlace=0 / total-frames=95786 / level-idc=0 / high-tier=1 / uhd-bd=0 / ref=3 / no-allow-non-conformance / no-repeat-headers / annexb / no-aud / no-hrd / info / hash=0 / no-temporal-layers / open-gop / min-keyint=23 / keyint=250 / gop-lookahead=0 / bframes=8 / b-adapt=2 / b-pyramid / bframe-bias=0 / rc-lookahead=80 / lookahead-slices=6 / scenecut=40 / hist-scenecut=0 / radl=0 / no-splice / no-intra-refresh / ctu=64 / min-cu-size=8 / no-rect / no-amp / max-tu-size=32 / tu-inter-depth=1 / tu-intra-depth=1 / limit-tu=0 / rdoq-level=0 / dynamic-rd=0.00 / no-ssim-rd / signhide / no-tskip / nr-intra=0 / nr-inter=0 / no-constrained-intra / no-strong-intra-smoothing / max-merge=3 / limit-refs=1 / no-limit-modes / me=3 / subme=5 / merange=57 / temporal-mvp / no-frame-dup / no-hme / weightp / no-weightb / no-analyze-src-pics / deblock=0:0 / sao / no-sao-non-deblock / rd=3 / selective-sao=4 / early-skip / no-rskip / no-fast-intra / no-tskip-fast / no-cu-lossless / b-intra / no-splitrd-skip / rdpenalty=0 / psy-rd=2.00 / psy-rdoq=0.00 / no-rd-refine / no-lossless / cbqpoffs=0 / crqpoffs=0 / rc=crf / crf=20.0 / qcomp=0.60 / qpstep=4 / stats-write=0 / stats-read=0 / ipratio=1.40 / pbratio=1.30 / aq-mode=3 / aq-strength=0.80 / cutree / zone-count=0 / no-strict-cbr / qg-size=32 / no-rc-grain / qpmax=69 / qpmin=0 / no-const-vbv / sar=0 / overscan=0 / videoformat=5 / range=0 / colorprim=2 / transfer=2 / colormatrix=2 / chromaloc=0 / display-window=0 / cll=0,0 / min-luma=0 / max-luma=1023 / log2-max-poc-lsb=8 / vui-timing-info / vui-hrd-info / slices=1 / no-opt-qp-pps / no-opt-ref-list-length-pps / no-multi-pass-opt-rps / scenecut-bias=0.05 / hist-threshold=0.01 / no-opt-cu-delta-qp / no-aq-motion / no-hdr10 / no-hdr10-opt / no-dhdr10-opt / no-idr-recovery-sei / analysis-reuse-level=0 / analysis-save-reuse-level=0 / analysis-load-reuse-level=0 / scale-factor=0 / refine-intra=0 / refine-inter=0 / refine-mv=1 / refine-ctu-distortion=0 / no-limit-sao / ctu-info=0 / no-lowpass-dct / refine-analysis-type=0 / copy-pic=1 / max-ausize-factor=1.0 / no-dynamic-refine / no-single-sei / no-hevc-aq / no-svt / no-field / qp-adaptation-range=1.00 / no-scenecut-aware-qpconformance-window-offsets / right=0 / bottom=0
Default : Yes
Forced : No

Audio
ID : 2
Format : E-AC-3
Format/Info : Enhanced Audio Coding 3
Format settings, Endianness : Big
Codec ID : A_EAC3
Duration : 1 h 6 min
Bit rate mode : Constant
Bit rate : 640 kb/s
Channel(s) : 6 channels
Channel positions : Front: L C R, Side: L R, LFE
Sampling rate : 48.0 kHz
Frame rate : 187.500 FPS (256 spf)
Compression mode : Lossy
Delay relative to video : 18 ms
Stream size : 305 MiB (24%)
Language : English
Default : No
Forced : No

Subtitle
ID : 3
Format : UTF-8
Codec ID : S_TEXT/UTF8
Codec ID/Info : UTF-8 Plain Text
Duration : 1 h 6 min
Bit rate : 48 b/s
Count of elements : 850
Stream size : 23.4 KiB (0%)
Language : English
Default : No
Forced : No

Screens










Download

Season: Google Drive (13.87 GB)

5 thoughts on “Homeland (2011) Season 1-8 (1080p Mixed x265 HEVC 10bit AAC 5.1 Silence)

Leave a Reply