Hannibal (2013) Season 1-3 (1080p Bluray x265 HEVC 10bit AAC 5.1 Tigole)

Summary: Both a gift and a curse, Will Graham has the extraordinary ability to think like his prey—he sees what they see, feels what they feel. But while Graham is pursuing an especially troubling, cannibalistic murderer, Special Agent Jack Crawford teams him with a highly respected psychiatrist – a man with a taste for the criminal minded – Dr. Hannibal Lecter.

Season 01

Hannibal (2013) Season 1 S01 (1080p Bluray x265 HEVC 10bit AAC 5.1 Tigole) [UTR]

Files

Hannibal 2013 Season 1 S01 (1080p Bluray x265 HEVC 10bit AAC 5.1 Tigole)
Hannibal S01E01 Aperitif (1080p x265 10bit Tigole).mkv (875.2 MB)
Hannibal S01E02 Amuse-Bouche (1080p x265 10bit Tigole).mkv (876.8 MB)
Hannibal S01E03 Potage (1080p x265 10bit Tigole).mkv (876.7 MB)
Hannibal S01E04 Oeuf (1080p x265 10bit Tigole).mkv (876.9 MB)
Hannibal S01E05 Coquilles (1080p x265 10bit Tigole).mkv (876.2 MB)
Hannibal S01E06 Entree (1080p x265 10bit Tigole).mkv (876.9 MB)
Hannibal S01E07 Sorbet (1080p x265 10bit Tigole).mkv (879.1 MB)
Hannibal S01E08 Fromage (1080p x265 10bit Tigole).mkv (878.9 MB)
Hannibal S01E09 Trou Normand (1080p x265 10bit Tigole).mkv (879.1 MB)
Hannibal S01E10 Buffet Froid (1080p x265 10bit Tigole).mkv (879.1 MB)
Hannibal S01E11 Roti (1080p x265 10bit Tigole).mkv (877.0 MB)
Hannibal S01E12 Releves (1080p x265 10bit Tigole).mkv (878.1 MB)
Hannibal S01E13 Savoureux (1080p x265 10bit Tigole).mkv (877.0 MB)

Mediainfo

General
Format                                   : Matroska
Format version                           : Version 4 / Version 2
File size                                : 875 MiB
Duration                                 : 43 min 17 s
Overall bit rate                         : 2 826 kb/s
Movie name                               : Hannibal.S01E01.Apéritif.BluRay.1080p.AVC.DTS-HD.MA.5.1.REMUX-FraMeSToR
Encoded date                             : UTC 2016-12-06 16:26:05
Writing application                      : mkvmerge v9.4.0 ('Knurl') 64bit
Writing library                          : libebml v1.3.4 + libmatroska v1.4.5

Video
ID                                       : 1
Format                                   : HEVC
Format/Info                              : High Efficiency Video Coding
Format profile                           : Main [email protected]@Main
Codec ID                                 : V_MPEGH/ISO/HEVC
Duration                                 : 43 min 17 s
Bit rate                                 : 2 478 kb/s
Width                                    : 1 920 pixels
Height                                   : 1 080 pixels
Display aspect ratio                     : 16:9
Frame rate mode                          : Constant
Frame rate                               : 24.000 FPS
Color space                              : YUV
Chroma subsampling                       : 4:2:0
Bit depth                                : 10 bits
Bits/(Pixel*Frame)                       : 0.050
Stream size                              : 767 MiB (88%)
Writing library                          : x265 2.1+59-a895b6344a82:[Windows][GCC 6.2.0][64 bit] 10bit
Encoding settings                        : cpuid=1173503 / frame-threads=3 / numa-pools=8 / wpp / no-pmode / no-pme / no-psnr / no-ssim / log-level=2 / input-csp=1 / input-res=1920x1080 / interlace=0 / total-frames=62343 / level-idc=0 / high-tier=1 / uhd-bd=0 / ref=3 / no-allow-non-conformance / no-repeat-headers / annexb / no-aud / no-hrd / info / hash=0 / no-temporal-layers / open-gop / min-keyint=24 / keyint=250 / bframes=4 / b-adapt=2 / b-pyramid / bframe-bias=0 / rc-lookahead=20 / lookahead-slices=6 / scenecut=40 / no-intra-refresh / ctu=64 / min-cu-size=8 / no-rect / no-amp / max-tu-size=32 / tu-inter-depth=1 / tu-intra-depth=1 / limit-tu=0 / rdoq-level=0 / signhide / no-tskip / nr-intra=0 / nr-inter=0 / no-constrained-intra / strong-intra-smoothing / max-merge=2 / limit-refs=3 / no-limit-modes / me=1 / subme=2 / merange=57 / temporal-mvp / weightp / no-weightb / no-analyze-src-pics / deblock=0:0 / sao / no-sao-non-deblock / rd=3 / no-early-skip / rskip / no-fast-intra / no-tskip-fast / no-cu-lossless / no-b-intra / rdpenalty=0 / psy-rd=2.00 / psy-rdoq=0.00 / no-rd-refine / analysis-mode=0 / no-lossless / cbqpoffs=0 / crqpoffs=0 / rc=abr / bitrate=2478 / qcomp=0.60 / qpstep=4 / stats-write=0 / stats-read=2 / stats-file=E:\Hannibal / Season / S01E01 / Aperitif_temp\Hannibal / S01E01 / Aperitif_new.stats / cplxblur=20.0 / qblur=0.5 / ipratio=1.40 / pbratio=1.30 / aq-mode=2 / aq-strength=1.00 / cutree / zone-count=0 / no-strict-cbr / qg-size=32 / no-rc-grain / qpmax=69 / qpmin=0 / sar=0 / overscan=0 / videoformat=5 / range=0 / colorprim=2 / transfer=2 / colormatrix=2 / chromaloc=0 / display-window=0 / max-cll=0,0 / min-luma=0 / max-luma=1023 / log2-max-poc-lsb=8 / vui-timing-info / vui-hrd-info / slices=1 / opt-qp-pps / opt-ref-list-length-pps / no-multi-pass-opt-rps / scenecut-bias=0.05
Default                                  : Yes
Forced                                   : No

Audio
ID                                       : 2
Format                                   : AAC
Format/Info                              : Advanced Audio Codec
Format profile                           : LC
Codec ID                                 : A_AAC
Duration                                 : 43 min 17 s
Bit rate                                 : 340 kb/s
Channel(s)                               : 6 channels
Channel positions                        : Front: L C R, Side: L R, LFE
Sampling rate                            : 48.0 kHz
Frame rate                               : 46.875 FPS (1024 spf)
Compression mode                         : Lossy
Delay relative to video                  : 20 ms
Stream size                              : 105 MiB (12%)
Language                                 : English
Default                                  : Yes
Forced                                   : No

Text
ID                                       : 3
Format                                   : VobSub
Muxing mode                              : zlib
Codec ID                                 : S_VOBSUB
Codec ID/Info                            : Picture based subtitle format used on DVDs
Duration                                 : 41 min 33 s
Bit rate                                 : 6 310 b/s
Count of elements                        : 464
Stream size                              : 1.88 MiB (0%)
Language                                 : English
Default                                  : No
Forced                                   : No

Menu
00:00:00.000                             : en:00:00:00.000
00:11:10.375                             : en:00:11:10.375
00:16:16.250                             : en:00:16:16.250
00:22:37.292                             : en:00:22:37.292
00:28:32.708                             : en:00:28:32.708
00:38:19.167                             : en:00:38:19.167

Download

Download: Google Drive (11.14 GB)

Season 02

Hannibal (2013) Season 2 S02 (1080p Bluray x265 HEVC 10bit AAC 5.1 Tigole) [UTR]

Files

Hannibal 2013 Season 2 S02 (1080p Bluray x265 HEVC 10bit AAC 5.1 Tigole)
Hannibal S02E01 Kaiseki (1080p x265 10bit Tigole).mkv (894.2 MB)
Hannibal S02E02 Sakizuke (1080p x265 10bit Tigole).mkv (894.5 MB)
Hannibal S02E03 Hassun (1080p x265 10bit Tigole).mkv (877.5 MB)
Hannibal S02E04 Takiawase (1080p x265 10bit Tigole).mkv (894.8 MB)
Hannibal S02E05 Mukozuke (1080p x265 10bit Tigole).mkv (874.8 MB)
Hannibal S02E06 Futamono (1080p x265 10bit Tigole).mkv (875.1 MB)
Hannibal S02E07 Yakimono (1080p x265 10bit Tigole).mkv (894.8 MB)
Hannibal S02E08 Su-zakana (1080p x265 10bit Tigole).mkv (894.3 MB)
Hannibal S02E09 Shiizakana (1080p x265 10bit Tigole).mkv (868.7 MB)
Hannibal S02E10 Naka-Choko (1080p x265 10bit Tigole).mkv (892.9 MB)
Hannibal S02E11 Ko No Mono (1080p x265 10bit Tigole).mkv (873.7 MB)
Hannibal S02E12 Tome-wan (1080p x265 10bit Tigole).mkv (873.7 MB)
Hannibal S02E13 Mizumono (1080p x265 10bit Tigole).mkv (913.5 MB)

Mediainfo

General
Format                                   : Matroska
Format version                           : Version 4 / Version 2
File size                                : 894 MiB
Duration                                 : 43 min 11 s
Overall bit rate                         : 2 894 kb/s
Encoded date                             : UTC 2016-12-07 05:53:17
Writing application                      : mkvmerge v9.4.0 ('Knurl') 64bit
Writing library                          : libebml v1.3.4 + libmatroska v1.4.5

Video
ID                                       : 1
Format                                   : HEVC
Format/Info                              : High Efficiency Video Coding
Format profile                           : Main [email protected]@Main
Codec ID                                 : V_MPEGH/ISO/HEVC
Duration                                 : 43 min 11 s
Bit rate                                 : 2 487 kb/s
Width                                    : 1 920 pixels
Height                                   : 1 080 pixels
Display aspect ratio                     : 16:9
Frame rate mode                          : Constant
Frame rate                               : 23.976 (24000/1001) FPS
Color space                              : YUV
Chroma subsampling                       : 4:2:0
Bit depth                                : 10 bits
Bits/(Pixel*Frame)                       : 0.050
Stream size                              : 768 MiB (86%)
Writing library                          : x265 2.1+59-a895b6344a82:[Windows][GCC 6.2.0][64 bit] 10bit
Encoding settings                        : cpuid=1173503 / frame-threads=3 / numa-pools=8 / wpp / no-pmode / no-pme / no-psnr / no-ssim / log-level=2 / input-csp=1 / input-res=1920x1080 / interlace=0 / total-frames=62137 / level-idc=0 / high-tier=1 / uhd-bd=0 / ref=3 / no-allow-non-conformance / no-repeat-headers / annexb / no-aud / no-hrd / info / hash=0 / no-temporal-layers / open-gop / min-keyint=23 / keyint=250 / bframes=4 / b-adapt=2 / b-pyramid / bframe-bias=0 / rc-lookahead=20 / lookahead-slices=6 / scenecut=40 / no-intra-refresh / ctu=64 / min-cu-size=8 / no-rect / no-amp / max-tu-size=32 / tu-inter-depth=1 / tu-intra-depth=1 / limit-tu=0 / rdoq-level=0 / signhide / no-tskip / nr-intra=0 / nr-inter=0 / no-constrained-intra / strong-intra-smoothing / max-merge=2 / limit-refs=3 / no-limit-modes / me=1 / subme=2 / merange=57 / temporal-mvp / weightp / no-weightb / no-analyze-src-pics / deblock=0:0 / sao / no-sao-non-deblock / rd=3 / no-early-skip / rskip / no-fast-intra / no-tskip-fast / no-cu-lossless / no-b-intra / rdpenalty=0 / psy-rd=2.00 / psy-rdoq=0.00 / no-rd-refine / analysis-mode=0 / no-lossless / cbqpoffs=0 / crqpoffs=0 / rc=abr / bitrate=2487 / qcomp=0.60 / qpstep=4 / stats-write=0 / stats-read=2 / stats-file=E:\Hannibal / Season / S02E01 / Kaiseki_temp\Hannibal / S02E01 / Kaiseki_new.stats / cplxblur=20.0 / qblur=0.5 / ipratio=1.40 / pbratio=1.30 / aq-mode=2 / aq-strength=1.00 / cutree / zone-count=0 / no-strict-cbr / qg-size=32 / no-rc-grain / qpmax=69 / qpmin=0 / sar=0 / overscan=0 / videoformat=5 / range=0 / colorprim=2 / transfer=2 / colormatrix=2 / chromaloc=0 / display-window=0 / max-cll=0,0 / min-luma=0 / max-luma=1023 / log2-max-poc-lsb=8 / vui-timing-info / vui-hrd-info / slices=1 / opt-qp-pps / opt-ref-list-length-pps / no-multi-pass-opt-rps / scenecut-bias=0.05
Default                                  : Yes
Forced                                   : No

Audio #1
ID                                       : 2
Format                                   : AAC
Format/Info                              : Advanced Audio Codec
Format profile                           : LC
Codec ID                                 : A_AAC
Duration                                 : 43 min 11 s
Bit rate                                 : 329 kb/s
Channel(s)                               : 6 channels
Channel positions                        : Front: L C R, Side: L R, LFE
Sampling rate                            : 48.0 kHz
Frame rate                               : 46.875 FPS (1024 spf)
Compression mode                         : Lossy
Delay relative to video                  : 20 ms
Stream size                              : 102 MiB (11%)
Language                                 : English
Default                                  : Yes
Forced                                   : No

Audio #2
ID                                       : 3
Format                                   : AAC
Format/Info                              : Advanced Audio Codec
Format profile                           : HE-AAC / LC
Codec ID                                 : A_AAC
Duration                                 : 43 min 11 s
Bit rate                                 : 66.2 kb/s
Channel(s)                               : 2 channels
Channel positions                        : Front: L R
Sampling rate                            : 48.0 kHz / 24.0 kHz
Frame rate                               : 23.438 FPS (1024 spf)
Compression mode                         : Lossy
Delay relative to video                  : 40 ms
Stream size                              : 20.3 MiB (2%)
Title                                    : Commentary
Language                                 : English
Default                                  : No
Forced                                   : No

Text #1
ID                                       : 4
Format                                   : VobSub
Muxing mode                              : zlib
Codec ID                                 : S_VOBSUB
Codec ID/Info                            : Picture based subtitle format used on DVDs
Duration                                 : 42 min 26 s
Bit rate                                 : 5 051 b/s
Count of elements                        : 469
Stream size                              : 1.53 MiB (0%)
Language                                 : English
Default                                  : No
Forced                                   : No

Text #2
ID                                       : 5
Format                                   : VobSub
Muxing mode                              : zlib
Codec ID                                 : S_VOBSUB
Codec ID/Info                            : Picture based subtitle format used on DVDs
Duration                                 : 40 min 55 s
Bit rate                                 : 5 022 b/s
Count of elements                        : 458
Stream size                              : 1.47 MiB (0%)
Language                                 : Spanish
Default                                  : No
Forced                                   : No

Menu
00:00:00.000                             : en:Chapter 01
00:00:01.084                             : en:Chapter 02
00:00:50.425                             : en:Chapter 03
00:09:07.171                             : en:Chapter 04
00:16:36.578                             : en:Chapter 05
00:22:24.926                             : en:Chapter 06
00:29:40.653                             : en:Chapter 07
00:35:57.738                             : en:Chapter 08
00:42:33.008                             : en:Chapter 09

Download

Download: Google Drive (11.25 GB)

Season 03

Hannibal (2013) Season 3 S03 (1080p Bluray x265 HEVC 10bit AAC 5.1 Tigole) [UTR]

Files

Hannibal 2013 Season 3 S03 (1080p Bluray x265 HEVC 10bit AAC 5.1 Tigole)
Hannibal S03E01 Antipasto (1080p x265 10bit Tigole).mkv (870.4 MB)
Hannibal S03E02 Primavera (1080p x265 10bit Tigole).mkv (870.0 MB)
Hannibal S03E03 Secondo (1080p x265 10bit Tigole).mkv (870.3 MB)
Hannibal S03E04 Aperitivo (1080p x265 10bit Tigole).mkv (870.5 MB)
Hannibal S03E05 Contorno (1080p x265 10bit Tigole).mkv (870.8 MB)
Hannibal S03E06 Dolce (1080p x265 10bit Tigole).mkv (870.5 MB)
Hannibal S03E07 Digestivo (1080p x265 10bit Tigole).mkv (870.3 MB)
Hannibal S03E08 The Great Red Dragon (1080p x265 10bit Tigole).mkv (869.6 MB)
Hannibal S03E09 And the Woman Clothed with the Sun (1080p x265 10bit Tigole).mkv (869.5 MB)
Hannibal S03E10 And the Woman Clothed in Sun (1080p x265 10bit Tigole).mkv (870.2 MB)
Hannibal S03E11 And the Beast from the Sea (1080p x265 10bit Tigole).mkv (869.9 MB)
Hannibal S03E12 The Number of the Beast Is 666 (1080p x265 10bit Tigole).mkv (869.8 MB)
Hannibal S03E13 The Wrath of the Lamb (1080p x265 10bit Tigole).mkv (873.7 MB)

Mediainfo

General
Complete name                            : Hannibal S03E01 Antipasto (1080p x265 10bit Tigole).mkv
Format                                   : Matroska
Format version                           : Version 4 / Version 2
File size                                : 870 MiB
Duration                                 : 43 min 3 s
Overall bit rate                         : 2 827 kb/s
Encoded date                             : UTC 2016-12-05 12:33:48
Writing application                      : mkvmerge v9.4.0 ('Knurl') 64bit
Writing library                          : libebml v1.3.4 + libmatroska v1.4.5

Video
ID                                       : 1
Format                                   : HEVC
Format/Info                              : High Efficiency Video Coding
Format profile                           : Main [email protected]@Main
Codec ID                                 : V_MPEGH/ISO/HEVC
Duration                                 : 43 min 3 s
Bit rate                                 : 2 494 kb/s
Width                                    : 1 920 pixels
Height                                   : 1 080 pixels
Display aspect ratio                     : 16:9
Frame rate mode                          : Constant
Frame rate                               : 24.000 FPS
Color space                              : YUV
Chroma subsampling                       : 4:2:0
Bit depth                                : 10 bits
Bits/(Pixel*Frame)                       : 0.050
Stream size                              : 768 MiB (88%)
Writing library                          : x265 2.1+59-a895b6344a82:[Windows][GCC 6.2.0][64 bit] 10bit
Encoding settings                        : cpuid=1173503 / frame-threads=3 / numa-pools=8 / wpp / no-pmode / no-pme / no-psnr / no-ssim / log-level=2 / input-csp=1 / input-res=1920x1080 / interlace=0 / total-frames=61994 / level-idc=0 / high-tier=1 / uhd-bd=0 / ref=3 / no-allow-non-conformance / no-repeat-headers / annexb / no-aud / no-hrd / info / hash=0 / no-temporal-layers / open-gop / min-keyint=24 / keyint=250 / bframes=4 / b-adapt=2 / b-pyramid / bframe-bias=0 / rc-lookahead=20 / lookahead-slices=6 / scenecut=40 / no-intra-refresh / ctu=64 / min-cu-size=8 / no-rect / no-amp / max-tu-size=32 / tu-inter-depth=1 / tu-intra-depth=1 / limit-tu=0 / rdoq-level=0 / signhide / no-tskip / nr-intra=0 / nr-inter=0 / no-constrained-intra / strong-intra-smoothing / max-merge=2 / limit-refs=3 / no-limit-modes / me=1 / subme=2 / merange=57 / temporal-mvp / weightp / no-weightb / no-analyze-src-pics / deblock=0:0 / sao / no-sao-non-deblock / rd=3 / no-early-skip / rskip / no-fast-intra / no-tskip-fast / no-cu-lossless / no-b-intra / rdpenalty=0 / psy-rd=2.00 / psy-rdoq=0.00 / no-rd-refine / analysis-mode=0 / no-lossless / cbqpoffs=0 / crqpoffs=0 / rc=abr / bitrate=2492 / qcomp=0.60 / qpstep=4 / stats-write=0 / stats-read=2 / stats-file=E:\Hannibal / Season / S03E01 / Antipasto_temp\Hannibal / S03E01 / Antipasto_new.stats / cplxblur=20.0 / qblur=0.5 / ipratio=1.40 / pbratio=1.30 / aq-mode=2 / aq-strength=1.00 / cutree / zone-count=0 / no-strict-cbr / qg-size=32 / no-rc-grain / qpmax=69 / qpmin=0 / sar=0 / overscan=0 / videoformat=5 / range=0 / colorprim=2 / transfer=2 / colormatrix=2 / chromaloc=0 / display-window=0 / max-cll=0,0 / min-luma=0 / max-luma=1023 / log2-max-poc-lsb=8 / vui-timing-info / vui-hrd-info / slices=1 / opt-qp-pps / opt-ref-list-length-pps / no-multi-pass-opt-rps / scenecut-bias=0.05
Default                                  : Yes
Forced                                   : No

Audio
ID                                       : 2
Format                                   : AAC
Format/Info                              : Advanced Audio Codec
Format profile                           : LC
Codec ID                                 : A_AAC
Duration                                 : 43 min 3 s
Bit rate                                 : 327 kb/s
Channel(s)                               : 6 channels
Channel positions                        : Front: L C R, Side: L R, LFE
Sampling rate                            : 48.0 kHz
Frame rate                               : 46.875 FPS (1024 spf)
Compression mode                         : Lossy
Delay relative to video                  : 20 ms
Stream size                              : 101 MiB (12%)
Language                                 : English
Default                                  : Yes
Forced                                   : No

Text
ID                                       : 3
Format                                   : VobSub
Muxing mode                              : zlib
Codec ID                                 : S_VOBSUB
Codec ID/Info                            : Picture based subtitle format used on DVDs
Duration                                 : 41 min 32 s
Bit rate                                 : 4 123 b/s
Count of elements                        : 345
Stream size                              : 1.23 MiB (0%)
Language                                 : English
Default                                  : No
Forced                                   : No

Menu
00:00:00.000                             : en:00:00:00.000
00:06:17.083                             : en:00:06:17.083
00:14:19.708                             : en:00:14:19.708
00:21:37.500                             : en:00:21:37.500
00:27:57.750                             : en:00:27:57.750
00:36:35.250                             : en:00:36:35.250

Download

Download: Google Drive (11.05 GB)

3 thoughts on “Hannibal (2013) Season 1-3 (1080p Bluray x265 HEVC 10bit AAC 5.1 Tigole)

  1. Bro Hannibal se1e6, se2e12 and se3e5 is split up and not working. How to resolve it? Can you upload this three episodes correctly?

Leave a Reply