Gotham (2014) Season 1-5 (1080p BluRay x265 HEVC 10bit AAC 5.1 Vyndros)

Summary: In crime ridden Gotham City, Thomas and Martha Wayne are murdered before young Bruce Wayne’s eyes. Although the idealistic Gotham City Police Dept. detective James Gordon, and his cynical partner, Harvey Bullock, seem to solve the case quickly, things are not so simple. Inspired by Bruce’s traumatized desire for justice, Gordon vows to find it amid Gotham’s corruption. Thus begins Gordon’s lonely quest that would set him against his own comrades and the underworld with their own deadly rivalries and mysteries. In the coming wars, innocence will be lost and compromises will be made as some criminals will fall as casualties while others will rise as supervillains. All the while, young Bruce observes this war with a growing obsession that would one day drive him to seek his own justice against the evil of Gotham as The Batman.

Season 1

Gotham (2014) Season 1 S01 (1080p BluRay x265 HEVC 10bit AAC 5.1 Vyndros)

Files

Gotham.S01E01.Pilot.1080p.10bit.BluRay.AAC5.1.HEVC-Vyndros.mkv (1.3 GB)
Gotham.S01E02.Selina.Kyle.1080p.10bit.BluRay.AAC5.1.HEVC-Vyndros.mkv (958.9 MB)
Gotham.S01E03.The.Balloonman.1080p.10bit.BluRay.AAC5.1.HEVC-Vyndros.mkv (1.1 GB)
Gotham.S01E04.Arkham.1080p.10bit.BluRay.AAC5.1.HEVC-Vyndros.mkv (964.5 MB)
Gotham.S01E05.Viper.1080p.10bit.BluRay.AAC5.1.HEVC-Vyndros.mkv (1,023.3 MB)
Gotham.S01E06.Spirit.of.the.Goat.1080p.10bit.BluRay.AAC5.1.HEVC-Vyndros.mkv (887.5 MB)
Gotham.S01E07.Penguin's.Umbrella.1080p.10bit.BluRay.AAC5.1.HEVC-Vyndros.mkv (945.7 MB)
Gotham.S01E08.The.Mask.1080p.10bit.BluRay.AAC5.1.HEVC-Vyndros.mkv (931.4 MB)
Gotham.S01E09.Harvey.Dent.1080p.10bit.BluRay.AAC5.1.HEVC-Vyndros.mkv (1,017.4 MB)
Gotham.S01E10.Lovecraft.1080p.10bit.BluRay.AAC5.1.HEVC-Vyndros.mkv (896.9 MB)
Gotham.S01E11.Rogues'.Gallery.1080p.10bit.BluRay.AAC5.1.HEVC-Vyndros.mkv (844.8 MB)
Gotham.S01E12.What.the.Little.Bird.Told.Him.1080p.10bit.BluRay.AAC5.1.HEVC-Vyndros.mkv (866.7 MB)
Gotham.S01E13.Welcome.Back,.Jim.Gordon.1080p.10bit.BluRay.AAC5.1.HEVC-Vyndros.mkv (879.1 MB)
Gotham.S01E14.The.Fearsome.Dr.Crane.1080p.10bit.BluRay.AAC5.1.HEVC-Vyndros.mkv (865.6 MB)
Gotham.S01E15.The.Scarecrow.1080p.10bit.BluRay.AAC5.1.HEVC-Vyndros.mkv (932.8 MB)
Gotham.S01E16.The.Blind.Fortune.Teller.1080p.10bit.BluRay.AAC5.1.HEVC-Vyndros.mkv (820.3 MB)
Gotham.S01E17.Red.Hood.1080p.10bit.BluRay.AAC5.1.HEVC-Vyndros.mkv (916.8 MB)
Gotham.S01E18.Everyone.Has.a.Cobblepot.1080p.10bit.BluRay.AAC5.1.HEVC-Vyndros.mkv (791.1 MB)
Gotham.S01E19.Beasts.of.Prey.1080p.10bit.BluRay.AAC5.1.HEVC-Vyndros.mkv (801.0 MB)
Gotham.S01E20.Under.the.Knife.1080p.10bit.BluRay.AAC5.1.HEVC-Vyndros.mkv (868.5 MB)
Gotham.S01E21.The.Anvil.or.the.Hammer.1080p.10bit.BluRay.AAC5.1.HEVC-Vyndros.mkv (853.9 MB)
Gotham.S01E22.All.Happy.Families.are.Alike.1080p.10bit.BluRay.AAC5.1.HEVC-Vyndros.mkv (848.9 MB)

Mediainfo

General 
Format : Matroska 
Format version : Version 4 / Version 2 
File size : 854 MiB 
Duration : 44 min 2 s 
Overall bit rate : 2 710 kb/s 
Encoded date : UTC 2018-09-26 14:49:34 
Writing application : mkvmerge v25.0.0 ('Prog Noir') 64-bit 
Writing library : libebml v1.3.6 + libmatroska v1.4.9 
Writing frontend : StaxRip v1.7.0.6 

Video 
ID : 1 
Format : HEVC 
Format/Info : High Efficiency Video Coding 
Format profile : Main [email protected]@Main 
Codec ID : V_MPEGH/ISO/HEVC 
Duration : 44 min 1 s 
Bit rate : 2 262 kb/s 
Width : 1 920 pixels 
Height : 1 080 pixels 
Display aspect ratio : 16:9 
Frame rate mode : Constant 
Frame rate : 23.976 (24000/1001) FPS 
Color space : YUV 
Chroma subsampling : 4:2:0 
Bit depth : 10 bits 
Bits/(Pixel*Frame) : 0.046 
Stream size : 712 MiB (83%) 
Writing library : x265 2.8+57-eea92165b035:[Windows][GCC 7.3.0][64 bit] 10bit 
Encoding settings : cpuid=1111039 / frame-threads=2 / numa-pools=4 / wpp / no-pmode / no-pme / no-psnr / ssim / log-level=2 / input-csp=1 / input-res=1920x1080 / interlace=0 / total-frames=63337 / level-idc=0 / high-tier=1 / uhd-bd=0 / ref=3 / no-allow-non-conformance / no-repeat-headers / annexb / no-aud / no-hrd / info / hash=0 / no-temporal-layers / open-gop / min-keyint=23 / keyint=250 / gop-lookahead=0 / bframes=8 / b-adapt=2 / b-pyramid / bframe-bias=0 / rc-lookahead=50 / lookahead-slices=6 / scenecut=40 / radl=0 / no-intra-refresh / ctu=64 / min-cu-size=8 / no-rect / no-amp / max-tu-size=32 / tu-inter-depth=1 / tu-intra-depth=1 / limit-tu=0 / rdoq-level=0 / dynamic-rd=0.00 / no-ssim-rd / signhide / no-tskip / nr-intra=0 / nr-inter=0 / no-constrained-intra / no-strong-intra-smoothing / max-merge=3 / limit-refs=3 / no-limit-modes / me=3 / subme=5 / merange=57 / temporal-mvp / weightp / no-weightb / no-analyze-src-pics / deblock=0:0 / sao / no-sao-non-deblock / rd=3 / no-early-skip / no-rskip / no-fast-intra / no-tskip-fast / no-cu-lossless / no-b-intra / no-splitrd-skip / rdpenalty=0 / psy-rd=2.00 / psy-rdoq=0.00 / no-rd-refine / no-lossless / cbqpoffs=0 / crqpoffs=0 / rc=crf / crf=20.0 / qcomp=0.60 / qpstep=4 / stats-write=0 / stats-read=0 / ipratio=1.40 / pbratio=1.30 / aq-mode=3 / aq-strength=1.00 / cutree / zone-count=0 / no-strict-cbr / qg-size=32 / no-rc-grain / qpmax=69 / qpmin=0 / no-const-vbv / sar=0 / overscan=0 / videoformat=5 / range=0 / colorprim=2 / transfer=2 / colormatrix=2 / chromaloc=0 / display-window=0 / max-cll=0,0 / min-luma=0 / max-luma=1023 / log2-max-poc-lsb=8 / vui-timing-info / vui-hrd-info / slices=1 / no-opt-qp-pps / no-opt-ref-list-length-pps / no-multi-pass-opt-rps / scenecut-bias=0.05 / no-opt-cu-delta-qp / no-aq-motion / no-hdr / no-hdr-opt / no-dhdr10-opt / no-idr-recovery-sei / analysis-reuse-level=5 / scale-factor=0 / refine-intra=0 / refine-inter=0 / refine-mv=0 / no-limit-sao / ctu-info=0 / no-lowpass-dct / refine-mv-type=0 / copy-pic=1 / max-ausize-factor=1.0 / no-dynamic-refine / no-single-sei 
Default : Yes 
Forced : No 

Audio 
ID : 2 
Format : AAC 
Format/Info : Advanced Audio Codec 
Format profile : LC 
Codec ID : A_AAC 
Duration : 44 min 2 s 
Bit rate : 447 kb/s 
Channel(s) : 6 channels 
Channel positions : Front: L C R, Side: L R, LFE 
Sampling rate : 48.0 kHz 
Frame rate : 46.875 FPS (1024 spf) 
Compression mode : Lossy 
Stream size : 141 MiB (16%) 
Language : English 
Default : Yes 
Forced : No 

Subtitle 
ID : 3 
Format : UTF-8 
Codec ID : S_TEXT/UTF8 
Codec ID/Info : UTF-8 Plain Text 
Duration : 43 min 12 s 
Bit rate : 64 b/s 
Count of elements : 569 
Stream size : 20.5 KiB (0%) 
Default : Yes 
Forced : No

Screens

Download

Download: Google Drive (19.87 GB)

Season 2

Gotham (2014) Season 2 S02 (1080p BluRay x265 HEVC 10bit AAC 5.1 Vyndros)

Files

Gotham.S02E01.Rise.of.the.Villains.Damned.If.You.Do.1080p.10bit.BluRay.AAC5.1.HEVC-Vyndros.mkv (1.0 GB)
Gotham.S02E02.Rise.of.the.Villains.Knock,.Knock.1080p.10bit.BluRay.AAC5.1.HEVC-Vyndros.mkv (1.0 GB)
Gotham.S02E03.Rise.of.the.Villains.The.Last.Laugh.1080p.10bit.BluRay.AAC5.1.HEVC-Vyndros.mkv (989.4 MB)
Gotham.S02E04.Rise.of.the.Villains.Strike.Force.1080p.10bit.BluRay.AAC5.1.HEVC-Vyndros.mkv (927.3 MB)
Gotham.S02E05.Rise.of.the.Villains.Scarification.1080p.10bit.BluRay.AAC5.1.HEVC-Vyndros.mkv (856.1 MB)
Gotham.S02E06.Rise.of.the.Villains.By.Fire.1080p.10bit.BluRay.AAC5.1.HEVC-Vyndros.mkv (995.7 MB)
Gotham.S02E07.Rise.of.the.Villains.Mommy's.Little.Monster.1080p.10bit.BluRay.AAC5.1.HEVC-Vyndros.mkv (953.9 MB)
Gotham.S02E08.Rise.of.the.Villains.Tonight's.the.Night.1080p.10bit.BluRay.AAC5.1.HEVC-Vyndros.mkv (1.1 GB)
Gotham.S02E09.Rise.of.the.Villains.A.Bitter.Pill.to.Swallow.1080p.10bit.BluRay.AAC5.1.HEVC-Vyndros.mkv (896.2 MB)
Gotham.S02E10.Rise.of.the.Villains.The.Son.of.Gotham.1080p.10bit.BluRay.AAC5.1.HEVC-Vyndros.mkv (847.9 MB)
Gotham.S02E11.Rise.of.the.Villains.Worse.Than.A.Crime.1080p.10bit.BluRay.AAC5.1.HEVC-Vyndros.mkv (961.6 MB)
Gotham.S02E12.Wrath.of.the.Villains.Mr.Freeze.1080p.10bit.BluRay.AAC5.1.HEVC-Vyndros.mkv (900.8 MB)
Gotham.S02E13.Wrath.of.the.Villains.A.Dead.Man.Feels.No.Cold.1080p.10bit.BluRay.AAC5.1.HEVC-Vyndros.mkv (960.2 MB)
Gotham.S02E14.Wrath.of.the.Villains.This.Ball.of.Mud.and.Meanness.1080p.10bit.BluRay.AAC5.1.HEVC-Vyndros.mkv (842.8 MB)
Gotham.S02E15.Wrath.of.the.Villains.Mad.Grey.Dawn.1080p.10bit.BluRay.AAC5.1.HEVC-Vyndros.mkv (960.5 MB)
Gotham.S02E16.Wrath.of.the.Villains.Prisoners.1080p.10bit.BluRay.AAC5.1.HEVC-Vyndros.mkv (892.1 MB)
Gotham.S02E17.Wrath.of.the.Villains.Into.the.Woods.1080p.10bit.BluRay.AAC5.1.HEVC-Vyndros.mkv (955.7 MB)
Gotham.S02E18.Wrath.of.the.Villains.Pinewood.1080p.10bit.BluRay.AAC5.1.HEVC-Vyndros.mkv (790.3 MB)
Gotham.S02E19.Wrath.of.the.Villains.Azrael.1080p.10bit.BluRay.AAC5.1.HEVC-Vyndros.mkv (952.1 MB)
Gotham.S02E20.Wrath.of.the.Villains.Unleashed.1080p.10bit.BluRay.AAC5.1.HEVC-Vyndros.mkv (848.6 MB)
Gotham.S02E21.Wrath.of.the.Villains.A.Legion.of.Horribles.1080p.10bit.BluRay.AAC5.1.HEVC-Vyndros.mkv (828.5 MB)
Gotham.S02E22.Wrath.of.the.Villains.Transference.1080p.10bit.BluRay.AAC5.1.HEVC-Vyndros.mkv (840.8 MB)

Mediainfo

General 
Format : Matroska 
Format version : Version 4 / Version 2 
File size : 841 MiB 
Duration : 43 min 48 s 
Overall bit rate : 2 683 kb/s 
Encoded date : UTC 2018-10-02 15:17:04 
Writing application : mkvmerge v20.0.0 ('I Am The Sun') 64-bit 
Writing library : libebml v1.3.5 + libmatroska v1.4.8 
Writing frontend : StaxRip v1.7.0.6 

Video 
ID : 1 
Format : HEVC 
Format/Info : High Efficiency Video Coding 
Format profile : Main [email protected]@Main 
Codec ID : V_MPEGH/ISO/HEVC 
Duration : 43 min 48 s 
Bit rate : 2 220 kb/s 
Width : 1 920 pixels 
Height : 1 080 pixels 
Display aspect ratio : 16:9 
Frame rate mode : Constant 
Frame rate : 23.976 (24000/1001) FPS 
Color space : YUV 
Chroma subsampling : 4:2:0 
Bit depth : 10 bits 
Bits/(Pixel*Frame) : 0.045 
Stream size : 696 MiB (83%) 
Writing library : x265 2.8+57-eea92165b035:[Windows][GCC 7.3.0][64 bit] 10bit 
Encoding settings : cpuid=1111039 / frame-threads=2 / numa-pools=4 / wpp / no-pmode / no-pme / no-psnr / ssim / log-level=2 / input-csp=1 / input-res=1920x1080 / interlace=0 / total-frames=63021 / level-idc=0 / high-tier=1 / uhd-bd=0 / ref=3 / no-allow-non-conformance / no-repeat-headers / annexb / no-aud / no-hrd / info / hash=0 / no-temporal-layers / open-gop / min-keyint=23 / keyint=250 / gop-lookahead=0 / bframes=8 / b-adapt=2 / b-pyramid / bframe-bias=0 / rc-lookahead=50 / lookahead-slices=6 / scenecut=40 / radl=0 / no-intra-refresh / ctu=64 / min-cu-size=8 / no-rect / no-amp / max-tu-size=32 / tu-inter-depth=1 / tu-intra-depth=1 / limit-tu=0 / rdoq-level=0 / dynamic-rd=0.00 / no-ssim-rd / signhide / no-tskip / nr-intra=0 / nr-inter=0 / no-constrained-intra / no-strong-intra-smoothing / max-merge=3 / limit-refs=3 / no-limit-modes / me=3 / subme=5 / merange=57 / temporal-mvp / weightp / no-weightb / no-analyze-src-pics / deblock=0:0 / sao / no-sao-non-deblock / rd=3 / no-early-skip / no-rskip / no-fast-intra / no-tskip-fast / no-cu-lossless / no-b-intra / no-splitrd-skip / rdpenalty=0 / psy-rd=2.00 / psy-rdoq=0.00 / no-rd-refine / no-lossless / cbqpoffs=0 / crqpoffs=0 / rc=crf / crf=20.0 / qcomp=0.60 / qpstep=4 / stats-write=0 / stats-read=0 / ipratio=1.40 / pbratio=1.30 / aq-mode=3 / aq-strength=1.00 / cutree / zone-count=0 / no-strict-cbr / qg-size=32 / no-rc-grain / qpmax=69 / qpmin=0 / no-const-vbv / sar=0 / overscan=0 / videoformat=5 / range=0 / colorprim=2 / transfer=2 / colormatrix=2 / chromaloc=0 / display-window=0 / max-cll=0,0 / min-luma=0 / max-luma=1023 / log2-max-poc-lsb=8 / vui-timing-info / vui-hrd-info / slices=1 / no-opt-qp-pps / no-opt-ref-list-length-pps / no-multi-pass-opt-rps / scenecut-bias=0.05 / no-opt-cu-delta-qp / no-aq-motion / no-hdr / no-hdr-opt / no-dhdr10-opt / no-idr-recovery-sei / analysis-reuse-level=5 / scale-factor=0 / refine-intra=0 / refine-inter=0 / refine-mv=0 / no-limit-sao / ctu-info=0 / no-lowpass-dct / refine-mv-type=0 / copy-pic=1 / max-ausize-factor=1.0 / no-dynamic-refine / no-single-sei 
Default : Yes 
Forced : No 

Audio 
ID : 2 
Format : AAC 
Format/Info : Advanced Audio Codec 
Format profile : LC 
Codec ID : A_AAC 
Duration : 43 min 48 s 
Bit rate : 448 kb/s 
Channel(s) : 6 channels 
Channel positions : Front: L C R, Side: L R, LFE 
Sampling rate : 48.0 kHz 
Frame rate : 46.875 FPS (1024 spf) 
Compression mode : Lossy 
Stream size : 140 MiB (17%) 
Language : English 
Default : Yes 
Forced : No 

Subtitle 
ID : 3 
Format : PGS 
Muxing mode : zlib 
Codec ID : S_HDMV/PGS 
Codec ID/Info : Picture based subtitle format used on BDs/HD-DVDs 
Duration : 43 min 43 s 
Bit rate : 39.6 kb/s 
Count of elements : 1398 
Stream size : 12.4 MiB (1%) 
Language : English 
Default : No 
Forced : No

Screens

Download

Download: Google Drive (19.89 GB)

Season 3

Gotham (2014) Season 3 S03 (1080p BluRay x265 HEVC 10bit AAC 5.1 Vyndros)

Files

Gotham.S03E01.Mad.City.Better.to.Reign.in.Hell.1080p.10bit.BluRay.AAC5.1.HEVC-Vyndros.mkv (848.9 MB)
Gotham.S03E02.Mad.City.Burn.the.Witch….1080p.10bit.BluRay.AAC5.1.HEVC-Vyndros.mkv (799.6 MB)
Gotham.S03E03.Mad.City.Look.Into.My.Eyes.1080p.10bit.BluRay.AAC5.1.HEVC-Vyndros.mkv (834.4 MB)
Gotham.S03E04.Mad.City.New.Day.Rising.1080p.10bit.BluRay.AAC5.1.HEVC-Vyndros.mkv (755.1 MB)
Gotham.S03E05.Mad.City.Anything.for.You.1080p.10bit.BluRay.AAC5.1.HEVC-Vyndros.mkv (882.7 MB)
Gotham.S03E06.Mad.City.Follow.the.White.Rabbit.1080p.10bit.BluRay.AAC5.1.HEVC-Vyndros.mkv (708.0 MB)
Gotham.S03E07.Mad.City.Red.Queen.1080p.10bit.BluRay.AAC5.1.HEVC-Vyndros.mkv (740.7 MB)
Gotham.S03E08.Mad.City.Blood.Rush.1080p.10bit.BluRay.AAC5.1.HEVC-Vyndros.mkv (726.7 MB)
Gotham.S03E09.Mad.City.The.Executioner.1080p.10bit.BluRay.AAC5.1.HEVC-Vyndros.mkv (868.6 MB)
Gotham.S03E10.Mad.City.Time.Bomb.1080p.10bit.BluRay.AAC5.1.HEVC-Vyndros.mkv (761.3 MB)
Gotham.S03E11.Mad.City.Beware.the.Green-Eyed.Monster.1080p.10bit.BluRay.AAC5.1.HEVC-Vyndros.mkv (883.7 MB)
Gotham.S03E12.Mad.City.Ghosts.1080p.10bit.BluRay.AAC5.1.HEVC-Vyndros.mkv (865.7 MB)
Gotham.S03E13.Mad.City.Smile.Like.You.Mean.It.1080p.10bit.BluRay.AAC5.1.HEVC-Vyndros.mkv (946.1 MB)
Gotham.S03E14.Mad.City.The.Gentle.Art.of.Making.Enemies.1080p.10bit.BluRay.AAC5.1.HEVC-Vyndros.mkv (1,005.9 MB)
Gotham.S03E15.Heroes.Rise.How.the.Riddler.Got.His.Name.1080p.10bit.BluRay.AAC5.1.HEVC-Vyndros.mkv (817.4 MB)
Gotham.S03E16.Heroes.Rise.These.Delicate.and.Dark.Obsessions.1080p.10bit.BluRay.AAC5.1.HEVC-Vyndros.mkv (762.1 MB)
Gotham.S03E17.Heroes.Rise.The.Primal.Riddle.1080p.10bit.BluRay.AAC5.1.HEVC-Vyndros.mkv (806.9 MB)
Gotham.S03E18.Heroes.Rise.Light.the.Wick.1080p.10bit.BluRay.AAC5.1.HEVC-Vyndros.mkv (720.7 MB)
Gotham.S03E19.Heroes.Rise.All.Will.Be.Judged.1080p.10bit.BluRay.AAC5.1.HEVC-Vyndros.mkv (821.4 MB)
Gotham.S03E20.Heroes.Rise.Pretty.Hate.Machine.1080p.10bit.BluRay.AAC5.1.HEVC-Vyndros.mkv (855.6 MB)
Gotham.S03E21-E22.Heroes.Rise.Destiny.Calling.&.Heroes.Rise.HeavyDirtySoul.1080p.10bit.BluRay.AAC5.1.HEVC-Vyndros.mkv (1.5 GB)

Mediainfo

General 
Format : Matroska 
Format version : Version 4 / Version 2 
File size : 856 MiB 
Duration : 44 min 6 s 
Overall bit rate : 2 712 kb/s 
Encoded date : UTC 2018-10-08 11:16:12 
Writing application : mkvmerge v20.0.0 ('I Am The Sun') 64-bit 
Writing library : libebml v1.3.5 + libmatroska v1.4.8 
Writing frontend : StaxRip v1.7.0.6 

Video 
ID : 1 
Format : HEVC 
Format/Info : High Efficiency Video Coding 
Format profile : Main [email protected]@Main 
Codec ID : V_MPEGH/ISO/HEVC 
Duration : 44 min 6 s 
Bit rate : 2 248 kb/s 
Width : 1 920 pixels 
Height : 1 080 pixels 
Display aspect ratio : 16:9 
Frame rate mode : Constant 
Frame rate : 23.976 (24000/1001) FPS 
Color space : YUV 
Chroma subsampling : 4:2:0 
Bit depth : 10 bits 
Bits/(Pixel*Frame) : 0.045 
Stream size : 709 MiB (83%) 
Writing library : x265 2.8+57-eea92165b035:[Windows][GCC 7.3.0][64 bit] 10bit 
Encoding settings : cpuid=1111039 / frame-threads=2 / numa-pools=4 / wpp / no-pmode / no-pme / no-psnr / ssim / log-level=2 / input-csp=1 / input-res=1920x1080 / interlace=0 / total-frames=63449 / level-idc=0 / high-tier=1 / uhd-bd=0 / ref=3 / no-allow-non-conformance / no-repeat-headers / annexb / no-aud / no-hrd / info / hash=0 / no-temporal-layers / open-gop / min-keyint=23 / keyint=250 / gop-lookahead=0 / bframes=8 / b-adapt=2 / b-pyramid / bframe-bias=0 / rc-lookahead=50 / lookahead-slices=6 / scenecut=40 / radl=0 / no-intra-refresh / ctu=64 / min-cu-size=8 / no-rect / no-amp / max-tu-size=32 / tu-inter-depth=1 / tu-intra-depth=1 / limit-tu=0 / rdoq-level=0 / dynamic-rd=0.00 / no-ssim-rd / signhide / no-tskip / nr-intra=0 / nr-inter=0 / no-constrained-intra / no-strong-intra-smoothing / max-merge=3 / limit-refs=3 / no-limit-modes / me=3 / subme=5 / merange=57 / temporal-mvp / weightp / no-weightb / no-analyze-src-pics / deblock=0:0 / sao / no-sao-non-deblock / rd=3 / no-early-skip / no-rskip / no-fast-intra / no-tskip-fast / no-cu-lossless / no-b-intra / no-splitrd-skip / rdpenalty=0 / psy-rd=2.00 / psy-rdoq=0.00 / no-rd-refine / no-lossless / cbqpoffs=0 / crqpoffs=0 / rc=crf / crf=20.0 / qcomp=0.60 / qpstep=4 / stats-write=0 / stats-read=0 / ipratio=1.40 / pbratio=1.30 / aq-mode=3 / aq-strength=1.00 / cutree / zone-count=0 / no-strict-cbr / qg-size=32 / no-rc-grain / qpmax=69 / qpmin=0 / no-const-vbv / sar=0 / overscan=0 / videoformat=5 / range=0 / colorprim=2 / transfer=2 / colormatrix=2 / chromaloc=0 / display-window=0 / max-cll=0,0 / min-luma=0 / max-luma=1023 / log2-max-poc-lsb=8 / vui-timing-info / vui-hrd-info / slices=1 / no-opt-qp-pps / no-opt-ref-list-length-pps / no-multi-pass-opt-rps / scenecut-bias=0.05 / no-opt-cu-delta-qp / no-aq-motion / no-hdr / no-hdr-opt / no-dhdr10-opt / no-idr-recovery-sei / analysis-reuse-level=5 / scale-factor=0 / refine-intra=0 / refine-inter=0 / refine-mv=0 / no-limit-sao / ctu-info=0 / no-lowpass-dct / refine-mv-type=0 / copy-pic=1 / max-ausize-factor=1.0 / no-dynamic-refine / no-single-sei 
Default : Yes 
Forced : No 

Audio 
ID : 2 
Format : AAC 
Format/Info : Advanced Audio Codec 
Format profile : LC 
Codec ID : A_AAC 
Duration : 44 min 6 s 
Bit rate : 448 kb/s 
Channel(s) : 6 channels 
Channel positions : Front: L C R, Side: L R, LFE 
Sampling rate : 48.0 kHz 
Frame rate : 46.875 FPS (1024 spf) 
Compression mode : Lossy 
Stream size : 141 MiB (17%) 
Language : English 
Default : Yes 
Forced : No 

Subtitle 
ID : 3 
Format : PGS 
Muxing mode : zlib 
Codec ID : S_HDMV/PGS 
Codec ID/Info : Picture based subtitle format used on BDs/HD-DVDs 
Duration : 44 min 2 s 
Bit rate : 44.1 kb/s 
Count of elements : 1499 
Stream size : 13.9 MiB (2%) 
Language : English 
Default : No 
Forced : No

Screens

Download

Download: Google Drive (17.55 GB)

Season 4

Gotham (2014) Season 4 S04 (1080p BluRay x265 HEVC 10bit AAC 5.1 Vyndros)

Files

Gotham.S04E01.A.Dark.Knight.Pax.Penguina.1080p.10bit.BluRay.AAC5.1.HEVC-Vyndros.mkv (842.2 MB)
Gotham.S04E02.A.Dark.Knight.The.Fear.Reaper.1080p.10bit.BluRay.AAC5.1.HEVC-Vyndros.mkv (791.9 MB)
Gotham.S04E03.A.Dark.Knight.They.Who.Hide.Behind.Masks.1080p.10bit.BluRay.AAC5.1.HEVC-Vyndros.mkv (873.2 MB)
Gotham.S04E04.A.Dark.Knight.The.Demon's.Head.1080p.10bit.BluRay.AAC5.1.HEVC-Vyndros.mkv (717.5 MB)
Gotham.S04E05.A.Dark.Knight.The.Blade's.Path.1080p.10bit.BluRay.AAC5.1.HEVC-Vyndros.mkv (726.3 MB)
Gotham.S04E06.A.Dark.Knight.Hog.Day.Afternoon.1080p.10bit.BluRay.AAC5.1.HEVC-Vyndros.mkv (803.0 MB)
Gotham.S04E07.A.Dark.Knight.A.Day.in.the.Narrows.1080p.10bit.BluRay.AAC5.1.HEVC-Vyndros.mkv (939.0 MB)
Gotham.S04E08.A.Dark.Knight.Stop.Hitting.Yourself.1080p.10bit.BluRay.AAC5.1.HEVC-Vyndros.mkv (803.9 MB)
Gotham.S04E09.A.Dark.Knight.Let.Them.Eat.Pie.1080p.10bit.BluRay.AAC5.1.HEVC-Vyndros.mkv (841.2 MB)
Gotham.S04E10.A.Dark.Knight.Things.That.Go.Boom.1080p.10bit.BluRay.AAC5.1.HEVC-Vyndros.mkv (768.5 MB)
Gotham.S04E11.A.Dark.Knight.Queen.Takes.Knight.1080p.10bit.BluRay.AAC5.1.HEVC-Vyndros.mkv (688.3 MB)
Gotham.S04E12.A.Dark.Knight.Pieces.of.a.Broken.Mirror.1080p.10bit.BluRay.AAC5.1.HEVC-Vyndros.mkv (867.4 MB)
Gotham.S04E13.A.Dark.Knight.A.Beautiful.Darkness.1080p.10bit.BluRay.AAC5.1.HEVC-Vyndros.mkv (776.5 MB)
Gotham.S04E14.A.Dark.Knight.Reunion.1080p.10bit.BluRay.AAC5.1.HEVC-Vyndros.mkv (717.4 MB)
Gotham.S04E15.A.Dark.Knight.The.Sinking.Ship,.The.Grand.Applause.1080p.10bit.BluRay.AAC5.1.HEVC-Vyndros.mkv (872.8 MB)
Gotham.S04E16.A.Dark.Knight.One.of.My.Three.Soups.1080p.10bit.BluRay.AAC5.1.HEVC-Vyndros.mkv (805.4 MB)
Gotham.S04E17.A.Dark.Knight.Mandatory.Brunch.Meeting.1080p.10bit.BluRay.AAC5.1.HEVC-Vyndros.mkv (768.0 MB)
Gotham.S04E18.A.Dark.Knight.That's.Entertainment.1080p.10bit.BluRay.AAC5.1.HEVC-Vyndros.mkv (973.1 MB)
Gotham.S04E19.A.Dark.Knight.To.Our.Deaths.and.Beyond.1080p.10bit.BluRay.AAC5.1.HEVC-Vyndros.mkv (700.2 MB)
Gotham.S04E20.A.Dark.Knight.That.Old.Corpse.1080p.10bit.BluRay.AAC5.1.HEVC-Vyndros.mkv (899.0 MB)
Gotham.S04E21.A.Dark.Knight.One.Bad.Day.1080p.10bit.BluRay.AAC5.1.HEVC-Vyndros.mkv (738.6 MB)
Gotham.S04E22.A.Dark.Knight.No.Man's.Land.1080p.10bit.BluRay.AAC5.1.HEVC-Vyndros.mkv (764.0 MB)

Mediainfo

General 
Format : Matroska 
Format version : Version 4 / Version 2 
File size : 899 MiB 
Duration : 44 min 5 s 
Overall bit rate : 2 850 kb/s 
Encoded date : UTC 2018-09-12 11:55:34 
Writing application : mkvmerge v25.0.0 ('Prog Noir') 64-bit 
Writing library : libebml v1.3.6 + libmatroska v1.4.9 
Writing frontend : StaxRip v1.7.0.6 

Video 
ID : 1 
Format : HEVC 
Format/Info : High Efficiency Video Coding 
Format profile : Main [email protected]@Main 
Codec ID : V_MPEGH/ISO/HEVC 
Duration : 44 min 5 s 
Bit rate : 2 382 kb/s 
Width : 1 920 pixels 
Height : 1 080 pixels 
Display aspect ratio : 16:9 
Frame rate mode : Constant 
Frame rate : 23.976 (24000/1001) FPS 
Color space : YUV 
Chroma subsampling : 4:2:0 
Bit depth : 10 bits 
Bits/(Pixel*Frame) : 0.048 
Stream size : 751 MiB (84%) 
Writing library : x265 2.8+57-eea92165b035:[Windows][GCC 7.3.0][64 bit] 10bit 
Encoding settings : cpuid=1111039 / frame-threads=2 / numa-pools=4 / wpp / no-pmode / no-pme / no-psnr / ssim / log-level=2 / input-csp=1 / input-res=1920x1080 / interlace=0 / total-frames=63434 / level-idc=0 / high-tier=1 / uhd-bd=0 / ref=3 / no-allow-non-conformance / no-repeat-headers / annexb / no-aud / no-hrd / info / hash=0 / no-temporal-layers / open-gop / min-keyint=23 / keyint=250 / gop-lookahead=0 / bframes=8 / b-adapt=2 / b-pyramid / bframe-bias=0 / rc-lookahead=50 / lookahead-slices=6 / scenecut=40 / radl=0 / no-intra-refresh / ctu=64 / min-cu-size=8 / no-rect / no-amp / max-tu-size=32 / tu-inter-depth=1 / tu-intra-depth=1 / limit-tu=0 / rdoq-level=0 / dynamic-rd=0.00 / no-ssim-rd / signhide / no-tskip / nr-intra=0 / nr-inter=0 / no-constrained-intra / no-strong-intra-smoothing / max-merge=3 / limit-refs=3 / no-limit-modes / me=3 / subme=5 / merange=57 / temporal-mvp / weightp / no-weightb / no-analyze-src-pics / deblock=0:0 / sao / no-sao-non-deblock / rd=3 / no-early-skip / no-rskip / no-fast-intra / no-tskip-fast / no-cu-lossless / no-b-intra / no-splitrd-skip / rdpenalty=0 / psy-rd=2.00 / psy-rdoq=0.00 / no-rd-refine / no-lossless / cbqpoffs=0 / crqpoffs=0 / rc=crf / crf=20.0 / qcomp=0.60 / qpstep=4 / stats-write=0 / stats-read=0 / ipratio=1.40 / pbratio=1.30 / aq-mode=3 / aq-strength=1.00 / cutree / zone-count=0 / no-strict-cbr / qg-size=32 / no-rc-grain / qpmax=69 / qpmin=0 / no-const-vbv / sar=0 / overscan=0 / videoformat=5 / range=0 / colorprim=2 / transfer=2 / colormatrix=2 / chromaloc=0 / display-window=0 / max-cll=0,0 / min-luma=0 / max-luma=1023 / log2-max-poc-lsb=8 / vui-timing-info / vui-hrd-info / slices=1 / no-opt-qp-pps / no-opt-ref-list-length-pps / no-multi-pass-opt-rps / scenecut-bias=0.05 / no-opt-cu-delta-qp / no-aq-motion / no-hdr / no-hdr-opt / no-dhdr10-opt / no-idr-recovery-sei / analysis-reuse-level=5 / scale-factor=0 / refine-intra=0 / refine-inter=0 / refine-mv=0 / no-limit-sao / ctu-info=0 / no-lowpass-dct / refine-mv-type=0 / copy-pic=1 / max-ausize-factor=1.0 / no-dynamic-refine / no-single-sei 
Default : Yes 
Forced : No 

Audio 
ID : 2 
Format : AAC 
Format/Info : Advanced Audio Codec 
Format profile : LC 
Codec ID : A_AAC 
Duration : 44 min 5 s 
Bit rate : 449 kb/s 
Channel(s) : 6 channels 
Channel positions : Front: L C R, Side: L R, LFE 
Sampling rate : 48.0 kHz 
Frame rate : 46.875 FPS (1024 spf) 
Compression mode : Lossy 
Stream size : 142 MiB (16%) 
Title : DTS-HD Master Audio _ 5.1 _ 48 kHz _ 2278 kbps _ 16-bit 
Language : English 
Default : Yes 
Forced : No 

Subtitle 
ID : 3 
Format : PGS 
Muxing mode : zlib 
Codec ID : S_HDMV/PGS 
Codec ID/Info : Picture based subtitle format used on BDs/HD-DVDs 
Duration : 43 min 11 s 
Bit rate : 44.0 kb/s 
Count of elements : 1272 
Stream size : 13.6 MiB (2%) 
Language : English 
Default : No 
Forced : No

Screens

Download

Download: Google Drive (17.26 GB)

Season 5

Gotham (2014) Season 5 S05 (1080p BluRay x265 HEVC 10bit AAC 5.1 Vyndros)

Files

Gotham.S05E01.Year.Zero.1080p.10bit.BluRay.AAC5.1.HEVC-Vyndros.mkv (831.7 MB)
Gotham.S05E02.Trespassers.1080p.10bit.BluRay.AAC5.1.HEVC-Vyndros.mkv (804.2 MB)
Gotham.S05E03.Penguin,.Our.Hero.1080p.10bit.BluRay.AAC5.1.HEVC-Vyndros.mkv (801.7 MB)
Gotham.S05E04.Ruin.1080p.10bit.BluRay.AAC5.1.HEVC-Vyndros.mkv (777.3 MB)
Gotham.S05E05.Pena.Dura.1080p.10bit.BluRay.AAC5.1.HEVC-Vyndros.mkv (773.7 MB)
Gotham.S05E06.13.Stitches.1080p.10bit.BluRay.AAC5.1.HEVC-Vyndros.mkv (737.0 MB)
Gotham.S05E07.Ace.Chemicals.1080p.10bit.BluRay.AAC5.1.HEVC-Vyndros.mkv (654.0 MB)
Gotham.S05E08.Nothing's.Shocking.1080p.10bit.BluRay.AAC5.1.HEVC-Vyndros.mkv (704.9 MB)
Gotham.S05E09.The.Trial.of.Jim.Gordon.1080p.10bit.BluRay.AAC5.1.HEVC-Vyndros.mkv (745.7 MB)
Gotham.S05E10.I.Am.Bane.1080p.10bit.BluRay.AAC5.1.HEVC-Vyndros.mkv (700.8 MB)
Gotham.S05E11.They.Did.What.1080p.10bit.BluRay.AAC5.1.HEVC-Vyndros.mkv (746.9 MB)
Gotham.S05E12.The.Beginning.1080p.10bit.BluRay.AAC5.1.HEVC-Vyndros.mkv (831.2 MB)

Mediainfo

General 
Format : Matroska 
Format version : Version 4 / Version 2 
File size : 737 MiB 
Duration : 44 min 0 s 
Overall bit rate : 2 342 kb/s 
Encoded date : UTC 2019-07-05 21:00:06 
Writing application : mkvmerge v20.0.0 ('I Am The Sun') 64-bit 
Writing library : libebml v1.3.5 + libmatroska v1.4.8 
Writing frontend : StaxRip v1.7.0.6 

Video 
ID : 1 
Format : HEVC 
Format/Info : High Efficiency Video Coding 
Format profile : Main [email protected]@Main 
Codec ID : V_MPEGH/ISO/HEVC 
Duration : 44 min 0 s 
Bit rate : 1 871 kb/s 
Width : 1 920 pixels 
Height : 1 080 pixels 
Display aspect ratio : 16:9 
Frame rate mode : Constant 
Frame rate : 23.976 (24000/1001) FPS 
Color space : YUV 
Chroma subsampling : 4:2:0 
Bit depth : 10 bits 
Bits/(Pixel*Frame) : 0.038 
Stream size : 589 MiB (80%) 
Writing library : x265 3.1_RC1+3-3bdf06e3c628:[Windows][MSVC 1921][64 bit] 10bit 
Encoding settings : cpuid=1111039 / frame-threads=3 / numa-pools=12 / wpp / no-pmode / no-pme / no-psnr / ssim / log-level=2 / input-csp=1 / input-res=1920x1080 / interlace=0 / total-frames=63303 / level-idc=0 / high-tier=1 / uhd-bd=0 / ref=3 / no-allow-non-conformance / no-repeat-headers / annexb / no-aud / no-hrd / info / hash=0 / no-temporal-layers / open-gop / min-keyint=23 / keyint=250 / gop-lookahead=0 / bframes=8 / b-adapt=2 / b-pyramid / bframe-bias=0 / rc-lookahead=80 / lookahead-slices=6 / scenecut=40 / radl=0 / no-splice / no-intra-refresh / ctu=64 / min-cu-size=8 / no-rect / no-amp / max-tu-size=32 / tu-inter-depth=1 / tu-intra-depth=1 / limit-tu=0 / rdoq-level=0 / dynamic-rd=0.00 / no-ssim-rd / signhide / no-tskip / nr-intra=0 / nr-inter=0 / no-constrained-intra / no-strong-intra-smoothing / max-merge=3 / limit-refs=1 / no-limit-modes / me=3 / subme=5 / merange=57 / temporal-mvp / weightp / no-weightb / no-analyze-src-pics / deblock=0:0 / sao / no-sao-non-deblock / rd=3 / early-skip / no-rskip / no-fast-intra / no-tskip-fast / no-cu-lossless / b-intra / no-splitrd-skip / rdpenalty=0 / psy-rd=2.00 / psy-rdoq=0.00 / no-rd-refine / no-lossless / cbqpoffs=0 / crqpoffs=0 / rc=crf / crf=20.0 / qcomp=0.60 / qpstep=4 / stats-write=0 / stats-read=0 / ipratio=1.40 / pbratio=1.30 / aq-mode=3 / aq-strength=1.00 / cutree / zone-count=0 / no-strict-cbr / qg-size=32 / no-rc-grain / qpmax=69 / qpmin=0 / no-const-vbv / sar=0 / overscan=0 / videoformat=5 / range=0 / colorprim=2 / transfer=2 / colormatrix=2 / chromaloc=0 / display-window=0cll=0,0 / min-luma=0 / max-luma=1023 / log2-max-poc-lsb=8 / vui-timing-info / vui-hrd-info / slices=1 / no-opt-qp-pps / no-opt-ref-list-length-pps / no-multi-pass-opt-rps / scenecut-bias=0.05 / no-opt-cu-delta-qp / no-aq-motion / no-hdr / no-hdr-opt / no-dhdr10-opt / no-idr-recovery-sei / analysis-reuse-level=5 / scale-factor=0 / refine-intra=0 / refine-inter=0 / refine-mv=0 / refine-ctu-distortion=0 / no-limit-sao / ctu-info=0 / no-lowpass-dct / refine-analysis-type=0 / copy-pic=1 / max-ausize-factor=1.0 / no-dynamic-refine / no-single-sei / no-hevc-aq / no-svt / no-field / qp-adaptation-range=1.00 
Default : Yes 
Forced : No 

Audio 
ID : 2 
Format : AAC 
Format/Info : Advanced Audio Codec 
Format profile : LC 
Codec ID : A_AAC 
Duration : 44 min 0 s 
Bit rate : 449 kb/s 
Channel(s) : 6 channels 
Channel positions : Front: L C R, Side: L R, LFE 
Sampling rate : 48.0 kHz 
Frame rate : 46.875 FPS (1024 spf) 
Compression mode : Lossy 
Stream size : 141 MiB (19%) 
Language : English 
Default : Yes 
Forced : Yes 

Subtitle 
ID : 3 
Format : PGS 
Muxing mode : zlib 
Codec ID : S_HDMV/PGS 
Codec ID/Info : Picture based subtitle format used on BDs/HD-DVDs 
Duration : 43 min 11 s 
Bit rate : 38.4 kb/s 
Count of elements : 1560 
Stream size : 11.9 MiB (2%) 
Language : English 
Default : No 
Forced : No

Screens

Download

Download: Google Drive (8.90 GB)

5 thoughts on “Gotham (2014) Season 1-5 (1080p BluRay x265 HEVC 10bit AAC 5.1 Vyndros)

Leave a Reply

Your email address will not be published. Required fields are marked *