Fargo (2014) Season 1-3 (1080p Mixed x265 HEVC 10bit AAC 5.1 Silence)

Summary: An american black comedy–crime drama anthology television series created and primarily written by Noah Hawley. The show is inspired by the 1996 film of the same name written and directed by the Coen brothers, who serve as executive producers on the series. Each season follows an anthology format, being set in a different era along with a different story, cast and set of characters.

Season 01

Fargo (2014) Season 1 S01 + Extras (1080p BluRay x265 HEVC 10bit AAC 5.1 Silence) [QxR]

Files

Fargo (2014) Season 1 S01 + Extras (1080p BluRay x265 HEVC 10bit AAC 5.1 Silence)
Fargo (2014) - S01E01 - The Crocodile's Dilemma (1080p BluRay x265 Silence).mkv (1.7 GB)
Fargo (2014) - S01E02 - The Rooster Prince (1080p BluRay x265 Silence).mkv (1.1 GB)
Fargo (2014) - S01E03 - A Muddy Road (1080p BluRay x265 Silence).mkv (1.2 GB)
Fargo (2014) - S01E04 - Eating the Blame (1080p BluRay x265 Silence).mkv (1.5 GB)
Fargo (2014) - S01E05 - The Six Ungraspables (1080p BluRay x265 Silence).mkv (1.2 GB)
Fargo (2014) - S01E06 - Buridan's Ass (1080p BluRay x265 Silence).mkv (1.2 GB)
Fargo (2014) - S01E07 - Who Shaves the Barber (1080p BluRay x265 Silence).mkv (1.1 GB)
Fargo (2014) - S01E08 - The Heap (1080p BluRay x265 Silence).mkv (1.1 GB)
Fargo (2014) - S01E09 - A Fox, a Rabbit and a Cabbage (1080p BluRay x265 Silence).mkv (1.1 GB)
Fargo (2014) - S01E10 - Morton's Fork (1080p BluRay x265 Silence).mkv (1.3 GB)

Extras
Greetings from Bemidji.mkv (390.5 MB)
Menu Art.mkv (118.5 MB)
Shades of Green.mkv (323.7 MB)
This is a True Story.mkv (665.2 MB

Deleted Scenes
Delete Scenes 2.mkv (73.0 MB)
Delete Scenes 3.mkv (34.3 MB)
Delete Scenes 4.mkv (94.3 MB)
Delete Scenes 5.mkv (91.1 MB)
Delete Scenes 1.mkv (244.3 MB)

Mediainfo

General 
Format : Matroska 
Format version : Version 4 / Version 2 
File size : 1.73 GiB 
Duration : 1 h 9 min 
Overall bit rate : 3 551 kb/s 
Encoded date : UTC 2018-03-01 17:05:11 
Writing application : mkvmerge v9.6.0 ('Slave To Your Mind') 64bit 
Writing library : libebml v1.3.4 + libmatroska v1.4.5 
Writing frontend : StaxRip 1.5.0.0 

Video 
ID : 1 
Format : HEVC 
Format/Info : High Efficiency Video Coding 
Format profile : Main [email protected]@Main 
Codec ID : V_MPEGH/ISO/HEVC 
Duration : 1 h 9 min 
Bit rate : 3 065 kb/s 
Width : 1 920 pixels 
Height : 1 080 pixels 
Display aspect ratio : 16:9 
Frame rate mode : Constant 
Frame rate : 23.976 (24000/1001) FPS 
Color space : YUV 
Chroma subsampling : 4:2:0 
Bit depth : 10 bits 
Bits/(Pixel*Frame) : 0.062 
Stream size : 1.50 GiB (86%) 
Writing library : x265 2.6+32-b763c22920f6:[Windows][MSVC 1912][64 bit] 10bit 
Encoding settings : cpuid=1173503 / frame-threads=4 / numa-pools=16 / wpp / no-pmode / no-pme / no-psnr / no-ssim / log-level=2 / input-csp=1 / input-res=1920x1080 / interlace=0 / total-frames=100528 / level-idc=0 / high-tier=1 / uhd-bd=0 / ref=5 / no-allow-non-conformance / no-repeat-headers / annexb / no-aud / no-hrd / info / hash=0 / no-temporal-layers / open-gop / min-keyint=23 / keyint=250 / gop-lookahead=0 / bframes=8 / b-adapt=2 / b-pyramid / bframe-bias=0 / rc-lookahead=80 / lookahead-slices=4 / scenecut=40 / radl=0 / no-intra-refresh / ctu=64 / min-cu-size=8 / rect / no-amp / max-tu-size=32 / tu-inter-depth=1 / tu-intra-depth=1 / limit-tu=0 / rdoq-level=2 / dynamic-rd=0.00 / no-ssim-rd / signhide / no-tskip / nr-intra=0 / nr-inter=0 / no-constrained-intra / strong-intra-smoothing / max-merge=3 / limit-refs=3 / limit-modes / me=3 / subme=5 / merange=57 / temporal-mvp / weightp / weightb / no-analyze-src-pics / deblock=-3:-3 / no-sao / no-sao-non-deblock / rd=4 / no-early-skip / no-rskip / no-fast-intra / no-tskip-fast / no-cu-lossless / no-b-intra / no-splitrd-skip / rdpenalty=0 / psy-rd=1.00 / psy-rdoq=1.30 / no-rd-refine / no-lossless / cbqpoffs=0 / crqpoffs=0 / rc=crf / crf=21.0 / qcomp=0.60 / qpstep=4 / stats-write=0 / stats-read=0 / ipratio=1.40 / pbratio=1.30 / aq-mode=3 / aq-strength=1.00 / cutree / zone-count=0 / no-strict-cbr / qg-size=32 / no-rc-grain / qpmax=69 / qpmin=0 / no-const-vbv / sar=0 / overscan=0 / videoformat=5 / range=0 / colorprim=2 / transfer=2 / colormatrix=2 / chromaloc=0 / display-window=0 / max-cll=0,0 / min-luma=0 / max-luma=1023 / log2-max-poc-lsb=8 / vui-timing-info / vui-hrd-info / slices=1 / no-opt-qp-pps / no-opt-ref-list-length-pps / no-multi-pass-opt-rps / scenecut-bias=0.05 / no-opt-cu-delta-qp / no-aq-motion / no-hdr / no-hdr-opt / no-dhdr10-opt / analysis-reuse-level=5 / scale-factor=0 / refine-intra=0 / refine-inter=0 / refine-mv=0 / no-limit-sao / ctu-info=0 / no-lowpass-dct / refine-mv-type=0 / copy-pic=1 
Default : Yes 
Forced : No 

Audio #1 
ID : 2 
Format : AAC 
Format/Info : Advanced Audio Codec 
Format profile : LC 
Codec ID : A_AAC 
Duration : 1 h 9 min 
Bit rate : 353 kb/s 
Channel(s) : 6 channels 
Channel positions : Front: L C R, Side: L R, LFE 
Sampling rate : 48.0 kHz 
Frame rate : 46.875 FPS (1024 spf) 
Compression mode : Lossy 
Delay relative to video : 20 ms 
Stream size : 177 MiB (10%) 
Language : English 
Default : Yes 
Forced : No 

Audio #2 
ID : 3 
Format : AAC 
Format/Info : Advanced Audio Codec 
Format profile : LC 
Codec ID : A_AAC 
Duration : 1 h 9 min 
Bit rate : 74.0 kb/s 
Channel(s) : 2 channels 
Channel positions : Front: L R 
Sampling rate : 48.0 kHz 
Frame rate : 46.875 FPS (1024 spf) 
Compression mode : Lossy 
Delay relative to video : 9 ms 
Stream size : 37.0 MiB (2%) 
Language : English 
Default : No 
Forced : No 

Subtitle #1 
ID : 4 
Format : PGS 
Muxing mode : zlib 
Codec ID : S_HDMV/PGS 
Codec ID/Info : Picture based subtitle format used on BDs/HD-DVDs 
Duration : 1 h 7 min 
Bit rate : 12.3 kb/s 
Count of elements : 2088 
Stream size : 5.94 MiB (0%) 
Language : English 
Default : No 
Forced : No 

Subtitle #2 
ID : 5 
Format : PGS 
Muxing mode : zlib 
Codec ID : S_HDMV/PGS 
Codec ID/Info : Picture based subtitle format used on BDs/HD-DVDs 
Duration : 1 h 8 min 
Bit rate : 22.0 kb/s 
Count of elements : 2674 
Stream size : 10.8 MiB (1%) 
Language : English 
Default : No 
Forced : No 

Subtitle #3 
ID : 6 
Format : PGS 
Muxing mode : zlib 
Codec ID : S_HDMV/PGS 
Codec ID/Info : Picture based subtitle format used on BDs/HD-DVDs 
Duration : 1 h 9 min 
Bit rate : 10.4 kb/s 
Count of elements : 1836 
Stream size : 5.18 MiB (0%) 
Language : Spanish 
Default : No 
Forced : No 

Subtitle #4 
ID : 7 
Format : PGS 
Muxing mode : zlib 
Codec ID : S_HDMV/PGS 
Codec ID/Info : Picture based subtitle format used on BDs/HD-DVDs 
Duration : 1 h 9 min 
Bit rate : 10.7 kb/s 
Count of elements : 1834 
Stream size : 5.34 MiB (0%) 
Language : French 
Default : No 
Forced : No 

Menu 
00:00:00.000 : en:Chapter 01 
00:02:33.361 : en:Chapter 02 
00:07:10.596 : en:Chapter 03 
00:10:17.408 : en:Chapter 04 
00:16:44.837 : en:Chapter 05 
00:21:23.282 : en:Chapter 06 
00:23:53.098 : en:Chapter 07 
00:28:51.563 : en:Chapter 08 
00:33:03.231 : en:Chapter 09 
00:35:39.345 : en:Chapter 10 
00:41:04.003 : en:Chapter 11 
00:44:46.517 : en:Chapter 12 
00:47:14.206 : en:Chapter 13 
00:53:28.205 : en:Chapter 14 
00:59:19.389 : en:Chapter 15 
01:05:22.126 : en:Chapter 16

Screencaps

Download

Download: Google Drive (14.57 GB)

Season 02

Fargo (2014) Season 2 S02 + Extras (1080p BluRay x265 HEVC 10bit AAC 5.1 Silence) [QxR]

Files

Fargo (2014) Season 2 S02 + Extras (1080p BluRay x265 HEVC 10bit AAC 5.1 Silence)
Fargo (2014) - S02E01 - Waiting for Dutch (1080p BluRay x265 Silence).mkv (1.1 GB)
Fargo (2014) - S02E02 - Before the Law (1080p BluRay x265 Silence).mkv (1.3 GB)
Fargo (2014) - S02E03 - The Myth of Sisyphus (1080p BluRay x265 Silence).mkv (1.1 GB)
Fargo (2014) - S02E04 - Fear and Trembling (1080p BluRay x265 Silence).mkv (1.1 GB)
Fargo (2014) - S02E05 - The Gift of the Magi (1080p BluRay x265 Silence).mkv (1.4 GB)
Fargo (2014) - S02E06 - Rhinoceros (1080p BluRay x265 Silence).mkv (943.8 MB)
Fargo (2014) - S02E07 - Did You Do This No, You Did It! (1080p BluRay x265 Silence).mkv (1.5 GB)
Fargo (2014) - S02E08 - Loplop (1080p BluRay x265 Silence).mkv (1.3 GB)
Fargo (2014) - S02E09 - The Castle (1080p BluRay x265 Silence).mkv (1.0 GB)
Fargo (2014) - S02E10 - Palindrome (1080p BluRay x265 Silence).mkv (1.1 GB)

Extras
The Films of Ronald Reagan with Audio Commentary by Bruce Campbell.mkv (177.7 MB)
The True History of Crime in the Midwest.mkv (138.7 MB)
Waffles and Bullet Holes A Return to Sioux Falls_new.mkv (1.1 GB)
Lou on Lou A Conversation with Patrick Wilson, Keith Carradine, and Noah Hawley.mkv (353.0 MB)

Mediainfo

General 
Format : Matroska 
Format version : Version 4 / Version 2 
File size : 1.08 GiB 
Duration : 49 min 45 s 
Overall bit rate : 3 115 kb/s 
Movie name : Fargo S02E01 
Encoded date : UTC 2018-03-01 17:38:04 
Writing application : mkvmerge v9.6.0 ('Slave To Your Mind') 64bit 
Writing library : libebml v1.3.4 + libmatroska v1.4.5 
Writing frontend : StaxRip 1.5.0.0 

Video 
ID : 1 
Format : HEVC 
Format/Info : High Efficiency Video Coding 
Format profile : Main [email protected]@Main 
Codec ID : V_MPEGH/ISO/HEVC 
Duration : 49 min 45 s 
Bit rate : 2 683 kb/s 
Width : 1 920 pixels 
Height : 1 080 pixels 
Display aspect ratio : 16:9 
Frame rate mode : Constant 
Frame rate : 23.976 (24000/1001) FPS 
Color space : YUV 
Chroma subsampling : 4:2:0 
Bit depth : 10 bits 
Bits/(Pixel*Frame) : 0.054 
Stream size : 955 MiB (86%) 
Writing library : x265 2.6+42-52782aeb2081:[Windows][MSVC 1900][64 bit] 10bit 
Encoding settings : cpuid=1173503 / frame-threads=4 / numa-pools=16 / wpp / no-pmode / no-pme / no-psnr / no-ssim / log-level=2 / input-csp=1 / input-res=1920x1080 / interlace=0 / total-frames=71573 / level-idc=0 / high-tier=1 / uhd-bd=0 / ref=5 / no-allow-non-conformance / no-repeat-headers / annexb / no-aud / no-hrd / info / hash=0 / no-temporal-layers / open-gop / min-keyint=23 / keyint=250 / gop-lookahead=0 / bframes=8 / b-adapt=2 / b-pyramid / bframe-bias=0 / rc-lookahead=80 / lookahead-slices=4 / scenecut=40 / radl=0 / no-intra-refresh / ctu=64 / min-cu-size=8 / rect / no-amp / max-tu-size=32 / tu-inter-depth=1 / tu-intra-depth=1 / limit-tu=0 / rdoq-level=2 / dynamic-rd=0.00 / no-ssim-rd / signhide / no-tskip / nr-intra=0 / nr-inter=0 / no-constrained-intra / strong-intra-smoothing / max-merge=3 / limit-refs=3 / limit-modes / me=3 / subme=5 / merange=57 / temporal-mvp / weightp / weightb / no-analyze-src-pics / deblock=-3:-3 / no-sao / no-sao-non-deblock / rd=4 / no-early-skip / no-rskip / no-fast-intra / no-tskip-fast / no-cu-lossless / no-b-intra / no-splitrd-skip / rdpenalty=0 / psy-rd=1.50 / psy-rdoq=2.00 / no-rd-refine / no-lossless / cbqpoffs=0 / crqpoffs=0 / rc=crf / crf=21.0 / qcomp=0.60 / qpstep=4 / stats-write=0 / stats-read=0 / ipratio=1.40 / pbratio=1.30 / aq-mode=3 / aq-strength=1.00 / cutree / zone-count=0 / no-strict-cbr / qg-size=32 / no-rc-grain / qpmax=69 / qpmin=0 / no-const-vbv / sar=0 / overscan=0 / videoformat=5 / range=0 / colorprim=2 / transfer=2 / colormatrix=2 / chromaloc=0 / display-window=0 / max-cll=0,0 / min-luma=0 / max-luma=1023 / log2-max-poc-lsb=8 / vui-timing-info / vui-hrd-info / slices=1 / no-opt-qp-pps / no-opt-ref-list-length-pps / no-multi-pass-opt-rps / scenecut-bias=0.05 / no-opt-cu-delta-qp / no-aq-motion / no-hdr / no-hdr-opt / no-dhdr10-opt / analysis-reuse-level=5 / scale-factor=0 / refine-intra=0 / refine-inter=0 / refine-mv=0 / no-limit-sao / ctu-info=0 / no-lowpass-dct / refine-mv-type=0 / copy-pic=1 
Default : Yes 
Forced : No 

Audio 
ID : 2 
Format : AAC 
Format/Info : Advanced Audio Codec 
Format profile : LC 
Codec ID : A_AAC 
Duration : 49 min 45 s 
Bit rate : 399 kb/s 
Channel(s) : 6 channels 
Channel positions : Front: L C R, Side: L R, LFE 
Sampling rate : 48.0 kHz 
Frame rate : 46.875 FPS (1024 spf) 
Compression mode : Lossy 
Delay relative to video : 20 ms 
Stream size : 142 MiB (13%) 
Language : English 
Default : Yes 
Forced : No 

Subtitle #1 
ID : 3 
Format : PGS 
Muxing mode : zlib 
Codec ID : S_HDMV/PGS 
Codec ID/Info : Picture based subtitle format used on BDs/HD-DVDs 
Duration : 47 min 50 s 
Bit rate : 12.2 kb/s 
Count of elements : 1416 
Stream size : 4.18 MiB (0%) 
Language : English 
Default : No 
Forced : No 

Subtitle #2 
ID : 4 
Format : PGS 
Muxing mode : zlib 
Codec ID : S_HDMV/PGS 
Codec ID/Info : Picture based subtitle format used on BDs/HD-DVDs 
Duration : 49 min 14 s 
Bit rate : 9 413 b/s 
Count of elements : 1160 
Stream size : 3.32 MiB (0%) 
Language : Spanish 
Default : No 
Forced : No 

Subtitle #3 
ID : 5 
Format : PGS 
Muxing mode : zlib 
Codec ID : S_HDMV/PGS 
Codec ID/Info : Picture based subtitle format used on BDs/HD-DVDs 
Duration : 49 min 14 s 
Bit rate : 9 537 b/s 
Count of elements : 1164 
Stream size : 3.36 MiB (0%) 
Language : French 
Default : No 
Forced : No 

Menu 
00:00:00.000 : en:Chapter 1 
00:06:17.377 : en:Chapter 2 
00:10:33.007 : en:Chapter 3 
00:14:26.949 : en:Chapter 4 
00:20:07.497 : en:Chapter 5 
00:23:42.587 : en:Chapter 6 
00:28:30.041 : en:Chapter 7 
00:32:09.677 : en:Chapter 8 
00:35:05.436 : en:Chapter 9 
00:43:32.818 : en:Chapter 10 
00:45:31.770 : en:Chapter 11 
00:48:43.629 : en:Chapter 12

Screencaps

Download

Download: Google Drive (13.49 GB)

Season 03

Fargo (2014) Season 3 S03 (1080p AMZN WEB-DL x265 HEVC 10bit AAC 5.1 Silence) [QxR]

Files

Fargo (2014) Season 3 S03 (1080p AMZN WEB-DL x265 HEVC 10bit AAC 5.1 Silence)
Fargo (2014) - S03E10 - Somebody to Love (1080p AMZN WEB-DL x265 Silence).mkv (1.3 GB)
Fargo (2014) - S03E02 - The Principle of Restricted Choice (1080p AMZN WEB-DL x265 Silence).mkv (1.1 GB)
Fargo (2014) - S03E03 - The Law of Non-Contradiction (1080p AMZN WEB-DL x265 Silence).mkv (1.1 GB)
Fargo (2014) - S03E04 - The Narrow Escape Problem (1080p AMZN WEB-DL x265 Silence).mkv (894.0 MB)
Fargo (2014) - S03E05 - The House of Special Purpose (1080p AMZN WEB-DL x265 Silence).mkv (1.3 GB)
Fargo (2014) - S03E06 - The Lord of No Mercy (1080p AMZN WEB-DL x265 Silence).mkv (903.8 MB)
Fargo (2014) - S03E07 - The Law of Inevitability (1080p AMZN WEB-DL x265 Silence).mkv (812.2 MB)
Fargo (2014) - S03E08 - Who Rules the Land of Denial (1080p AMZN WEB-DL x265 Silence).mkv (1.1 GB)
Fargo (2014) - S03E09 - Aporia (1080p AMZN WEB-DL x265 Silence).mkv (994.1 MB)
Fargo (2014) - S03E01 - The Law of Vacant Places (1080p AMZN WEB-DL x265 Silence).mkv (1.2 GB)

Mediainfo

General 
Format : Matroska 
Format version : Version 4 / Version 2 
File size : 1.21 GiB 
Duration : 1 h 6 min 
Overall bit rate : 2 616 kb/s 
Encoded date : UTC 2018-03-10 11:28:59 
Writing application : mkvmerge v9.6.0 ('Slave To Your Mind') 64bit 
Writing library : libebml v1.3.4 + libmatroska v1.4.5 
Writing frontend : StaxRip 1.5.0.0 

Video 
ID : 1 
Format : HEVC 
Format/Info : High Efficiency Video Coding 
Format profile : Main [email protected]@Main 
Codec ID : V_MPEGH/ISO/HEVC 
Duration : 1 h 6 min 
Bit rate : 2 188 kb/s 
Width : 1 920 pixels 
Height : 1 080 pixels 
Display aspect ratio : 16:9 
Frame rate mode : Constant 
Frame rate : 23.976 (24000/1001) FPS 
Color space : YUV 
Chroma subsampling : 4:2:0 
Bit depth : 10 bits 
Bits/(Pixel*Frame) : 0.044 
Stream size : 1.02 GiB (84%) 
Writing library : x265 2.6+42-52782aeb2081:[Windows][MSVC 1900][64 bit] 10bit 
Encoding settings : cpuid=1173503 / frame-threads=4 / numa-pools=16 / wpp / no-pmode / no-pme / no-psnr / no-ssim / log-level=2 / input-csp=1 / input-res=1920x1080 / interlace=0 / total-frames=95648 / level-idc=0 / high-tier=1 / uhd-bd=0 / ref=4 / no-allow-non-conformance / no-repeat-headers / annexb / no-aud / no-hrd / info / hash=0 / no-temporal-layers / open-gop / min-keyint=23 / keyint=250 / gop-lookahead=0 / bframes=8 / b-adapt=2 / b-pyramid / bframe-bias=0 / rc-lookahead=80 / lookahead-slices=4 / scenecut=40 / radl=0 / no-intra-refresh / ctu=64 / min-cu-size=8 / rect / no-amp / max-tu-size=32 / tu-inter-depth=1 / tu-intra-depth=1 / limit-tu=0 / rdoq-level=2 / dynamic-rd=0.00 / no-ssim-rd / signhide / no-tskip / nr-intra=0 / nr-inter=0 / no-constrained-intra / strong-intra-smoothing / max-merge=3 / limit-refs=3 / limit-modes / me=3 / subme=3 / merange=57 / temporal-mvp / weightp / weightb / no-analyze-src-pics / deblock=-1:-1 / no-sao / no-sao-non-deblock / rd=4 / no-early-skip / no-rskip / no-fast-intra / no-tskip-fast / no-cu-lossless / no-b-intra / no-splitrd-skip / rdpenalty=0 / psy-rd=1.20 / psy-rdoq=1.30 / no-rd-refine / no-lossless / cbqpoffs=0 / crqpoffs=0 / rc=crf / crf=20.0 / qcomp=0.60 / qpstep=4 / stats-write=0 / stats-read=0 / ipratio=1.40 / pbratio=1.30 / aq-mode=3 / aq-strength=1.00 / cutree / zone-count=0 / no-strict-cbr / qg-size=32 / no-rc-grain / qpmax=69 / qpmin=0 / no-const-vbv / sar=0 / overscan=0 / videoformat=5 / range=0 / colorprim=2 / transfer=2 / colormatrix=2 / chromaloc=0 / display-window=0 / max-cll=0,0 / min-luma=0 / max-luma=1023 / log2-max-poc-lsb=8 / vui-timing-info / vui-hrd-info / slices=1 / no-opt-qp-pps / no-opt-ref-list-length-pps / no-multi-pass-opt-rps / scenecut-bias=0.05 / no-opt-cu-delta-qp / no-aq-motion / no-hdr / no-hdr-opt / no-dhdr10-opt / analysis-reuse-level=5 / scale-factor=0 / refine-intra=0 / refine-inter=0 / refine-mv=0 / no-limit-sao / ctu-info=0 / no-lowpass-dct / refine-mv-type=0 / copy-pic=1 
Default : Yes 
Forced : No 

Audio 
ID : 2 
Format : AAC 
Format/Info : Advanced Audio Codec 
Format profile : LC 
Codec ID : A_AAC 
Duration : 1 h 6 min 
Bit rate : 426 kb/s 
Channel(s) : 6 channels 
Channel positions : Front: L C R, Side: L R, LFE 
Sampling rate : 48.0 kHz 
Frame rate : 46.875 FPS (1024 spf) 
Compression mode : Lossy 
Delay relative to video : 20 ms 
Stream size : 203 MiB (16%) 
Language : English 
Default : Yes 
Forced : No 

Subtitle 
ID : 3 
Format : UTF-8 
Codec ID : S_TEXT/UTF8 
Codec ID/Info : UTF-8 Plain Text 
Duration : 1 h 6 min 
Bit rate : 45 b/s 
Count of elements : 908 
Stream size : 22.2 KiB (0%) 
Language : English 
Default : No 
Forced : No 

Menu 
00:00:00.000 : en:Previews 
00:00:18.000 : en:Jakob is interrogated 
00:07:02.000 : en:Buck makes an offer to Emmit and Sy 
00:09:23.000 : en:Ray asks his brother for money 
00:17:25.000 : en:Ray and Nikki discuss what to do next 
00:19:58.000 : en:Opening Credits 
00:20:22.000 : en:Break 
00:20:25.000 : en:Nathan works at the Red Owl 
00:22:13.000 : en:Ray gives Maurice an assignment 
00:26:48.000 : en:Emmit is called into the office 
00:30:36.000 : en:Break 
00:30:40.000 : en:An investment not a loan 
00:36:15.000 : en:Break 
00:36:18.000 : en:Ennis makes Nathan a carving 
00:38:25.000 : en:Ray and Nikki play cards 
00:40:41.000 : en:Maurice gets lost 
00:41:56.000 : en:Break 
00:41:59.000 : en:Gloria investigates the break-in 
00:51:18.000 : en:Break 
00:51:22.000 : en:Maurice blackmails Ray 
01:04:28.000 : en:End Credits 
01:05:44.000 : en:Previews

Screencaps

Download

Download: Google Drive (10.58 GB)

9 thoughts on “Fargo (2014) Season 1-3 (1080p Mixed x265 HEVC 10bit AAC 5.1 Silence)

  1. Thanksssssssssssssssssssss for Fargo.. Can u upload American Crime??

    If possible this release

    —->>> American Crime (2015) Season 1-3 S01-S03 (1080p AMZN WEB-DL x265 HEVC 10bit AAC 5.1 Silence) [QxR]

    1. There shouldn’t be any. Can you match the file size of your download to mentioned in filecrypt. To make sure it’s not actually some adware download.

  2. awesome thanks for the awesome rips

    1 and 3 ok

    2 part 1-2 ok 3 too many users

    i like google getting 20 MB+ sec

  3. Worked for me, I was able to download the first season. Make sure to login to a google account if that wasn’t obvious.

    1. Sorry, you can’t view or download this file at this time. This is what you get when click on the links. I have never been able to download more than one of the 3 to 4 links each file is broken into. A complete B.S website. Copy the name of the download you want and search for it on a torrent site. That’s all this site is good for.?

Leave a Reply