Dynasties (2018) Season 1 (1080p + 2160p BluRay x265 HEVC 10bit HDR AAC 5.1)

Image result for Dynasties (2018)

Summary: Follow the true stories of five of the world’s most celebrated, yet endangered animals; penguins, chimpanzees, lions, painted wolves and tigers. Each in a heroic struggle against rivals and against the forces of nature, these families fight for their own survival and for the future of their dynasties.

1080p

Dynasties (2018) Season 1 S01 (1080p BluRay x265 HEVC 10bit AAC 7.1 Silence)

Files

Dynasties (2018) Season 1 S01 (1080p BluRay x265 HEVC 10bit AAC 7.1 Silence)

  • Dynasties (2018) – S01E04 – Painted Wolf (1080p BluRay x265 Silence).mkv (2.6 GB)
  • Dynasties (2018) – S01E02 – Emperor Penguin (1080p BluRay x265 Silence).mkv (2.5 GB)
  • Dynasties (2018) – S01E03 – Lion (1080p BluRay x265 Silence).mkv (2.6 GB)
  • Dynasties (2018) – S01E01 – Chimpanzee (1080p BluRay x265 Silence).mkv (2.6 GB)
  • Dynasties (2018) – S01E05 – Tiger (1080p BluRay x265 Silence).mkv (2.6 GB)

Mediainfo

General 
Format : Matroska 
Format version : Version 4 / Version 2 
File size : 2.58 GiB 
Duration : 59 min 2 s 
Overall bit rate : 6 251 kb/s 
Movie name : Dynasties - S01E01 - Chimpanzee 
Encoded date : UTC 2018-12-04 19:32:47 
Writing application : mkvmerge v20.0.0 ('I Am The Sun') 64-bit 
Writing library : libebml v1.3.5 + libmatroska v1.4.8 
Writing frontend : StaxRip v1.7.0.6 

Video 
ID : 1 
Format : HEVC 
Format/Info : High Efficiency Video Coding 
Format profile : Main [email protected]@Main 
Codec ID : V_MPEGH/ISO/HEVC 
Duration : 59 min 2 s 
Bit rate : 5 501 kb/s 
Width : 1 920 pixels 
Height : 1 080 pixels 
Display aspect ratio : 16:9 
Frame rate mode : Constant 
Frame rate : 25.000 FPS 
Color space : YUV 
Chroma subsampling : 4:2:0 
Bit depth : 10 bits 
Bits/(Pixel*Frame) : 0.106 
Stream size : 2.27 GiB (88%) 
Writing library : x265 2.9+8-27d8424c799d:[Windows][MSVC 1900][64 bit] 10bit 
Encoding settings : cpuid=1111039 / frame-threads=4 / numa-pools=16 / wpp / no-pmode / no-pme / no-psnr / no-ssim / log-level=2 / input-csp=1 / input-res=1920x1080 / interlace=0 / total-frames=88570 / level-idc=0 / high-tier=1 / uhd-bd=0 / ref=5 / no-allow-non-conformance / no-repeat-headers / annexb / no-aud / no-hrd / info / hash=0 / no-temporal-layers / open-gop / min-keyint=25 / keyint=250 / gop-lookahead=0 / bframes=8 / b-adapt=2 / b-pyramid / bframe-bias=0 / rc-lookahead=100 / lookahead-slices=4 / scenecut=40 / radl=0 / no-intra-refresh / ctu=64 / min-cu-size=8 / rect / no-amp / max-tu-size=32 / tu-inter-depth=1 / tu-intra-depth=1 / limit-tu=0 / rdoq-level=2 / dynamic-rd=0.00 / no-ssim-rd / signhide / no-tskip / nr-intra=0 / nr-inter=0 / no-constrained-intra / strong-intra-smoothing / max-merge=3 / limit-refs=3 / limit-modes / me=3 / subme=5 / merange=57 / temporal-mvp / weightp / no-weightb / no-analyze-src-pics / deblock=-3:-3 / no-sao / no-sao-non-deblock / rd=4 / no-early-skip / rskip / no-fast-intra / no-tskip-fast / no-cu-lossless / no-b-intra / no-splitrd-skip / rdpenalty=0 / psy-rd=2.00 / psy-rdoq=1.00 / no-rd-refine / no-lossless / cbqpoffs=0 / crqpoffs=0 / rc=abr / bitrate=5500 / qcomp=0.60 / qpstep=4 / stats-write=0 / stats-read=2 / cplxblur=20.0 / qblur=0.5 / ipratio=1.40 / pbratio=1.30 / aq-mode=2 / aq-strength=1.00 / cutree / zone-count=0 / no-strict-cbr / qg-size=32 / no-rc-grain / qpmax=69 / qpmin=0 / no-const-vbv / sar=0 / overscan=0 / videoformat=5 / range=0 / colorprim=2 / transfer=2 / colormatrix=2 / chromaloc=0 / display-window=0 / max-cll=0,0 / min-luma=0 / max-luma=1023 / log2-max-poc-lsb=8 / vui-timing-info / vui-hrd-info / slices=1 / no-opt-qp-pps / no-opt-ref-list-length-pps / no-multi-pass-opt-rps / scenecut-bias=0.05 / no-opt-cu-delta-qp / no-aq-motion / no-hdr / no-hdr-opt / no-dhdr10-opt / no-idr-recovery-sei / analysis-reuse-level=5 / scale-factor=0 / refine-intra=0 / refine-inter=0 / refine-mv=0 / no-limit-sao / ctu-info=0 / no-lowpass-dct / refine-mv-type=0 / copy-pic=1 / max-ausize-factor=1.0 / no-dynamic-refine / no-single-sei 
Default : Yes 
Forced : No 

Audio #1 
ID : 2 
Format : AAC 
Format/Info : Advanced Audio Codec 
Format profile : LC 
Codec ID : A_AAC 
Duration : 59 min 2 s 
Bit rate : 549 kb/s 
Channel(s) : 8 channels 
Channel positions : Front: L C R, Side: 4, LFE 
Sampling rate : 48.0 kHz 
Frame rate : 46.875 FPS (1024 spf) 
Compression mode : Lossy 
Delay relative to video : 20 ms 
Stream size : 232 MiB (9%) 
Language : English 
Default : Yes 
Forced : No 

Audio #2 
ID : 3 
Format : AAC 
Format/Info : Advanced Audio Codec 
Format profile : HE-AAC / LC 
Codec ID : A_AAC 
Duration : 59 min 2 s 
Bit rate : 192 kb/s 
Channel(s) : 6 channels 
Channel positions : Front: L C R, Side: L R, LFE 
Sampling rate : 48.0 kHz / 24.0 kHz 
Frame rate : 23.438 FPS (1024 spf) 
Compression mode : Lossy 
Delay relative to video : 40 ms 
Stream size : 81.1 MiB (3%) 
Language : English 
Default : No 
Forced : No 

Subtitle 
ID : 4 
Format : PGS 
Muxing mode : zlib 
Codec ID : S_HDMV/PGS 
Codec ID/Info : Picture based subtitle format used on BDs/HD-DVDs 
Duration : 58 min 27 s 
Bit rate : 23.2 kb/s 
Count of elements : 832 
Stream size : 9.68 MiB (0%) 
Language : English 
Default : No 
Forced : No 

Menu 
00:00:00.000 : en:Chapter 1 
00:10:08.360 : en:Chapter 2 
00:20:02.640 : en:Chapter 3 
00:30:16.040 : en:Chapter 4 
00:39:53.280 : en:Chapter 5 
00:49:49.000 : en:Chapter 6

Download

Download: Google Drive

2160p

Dynasties (2018) Season 1 S01 (2160p BluRay x265 HEVC 10bit HDR AAC 5.1 Tigole)

Files

Dynasties (2018) Season 1 S01 (2160p BluRay x265 HEVC 10bit HDR AAC 5.1 Tigole)

  • Dynasties S01E01 Chimpanzee (2160p BluRay x265 10bit HDR Tigole).mkv (6.7 GB)
  • Dynasties S01E02 Emperor (2160p BluRay x265 10bit HDR Tigole).mkv (3.6 GB)
  • Dynasties S01E03 Lion (2160p BluRay x265 10bit HDR Tigole).mkv (6.3 GB)
  • Dynasties S01E04 Painted Wolf (2160p BluRay x265 10bit HDR Tigole).mkv (5.7 GB)
  • Dynasties S01E05 Tiger (2160p BluRay x265 10bit HDR Tigole).mkv (6.2 GB)

Mediainfo

General : Matroska / 6.75 GiB / 52 min 59 s / 18.2 Mb/s

Video : HEVC / Main @Main / 17.5 Mb/s / 3 840 pixels / 2 160 pixels / 16:9 / 23.976 (24000/1001) FPS / BT.2020
Writing library : x265 3.0_Au+18-768ab38fd5fd:[Windows][GCC 8.3.0][64 bit] 10bit
Encoding settings : cpuid=1111039 / frame-threads=3 / numa-pools=8 / wpp / no-pmode / no-pme / no-psnr / no-ssim / log-level=2 / input-csp=1 / input-res=3840x2160 / interlace=0 / total-frames=76223 / level-idc=0 / high-tier=1 / uhd-bd=0 / ref=4 / no-allow-non-conformance / repeat-headers / annexb / no-aud / no-hrd / info / hash=0 / no-temporal-layers / open-gop / min-keyint=23 / keyint=250 / gop-lookahead=0 / bframes=4 / b-adapt=2 / b-pyramid / bframe-bias=0 / rc-lookahead=25 / lookahead-slices=4 / scenecut=40 / radl=0 / no-splice / no-intra-refresh / ctu=64 / min-cu-size=8 / rect / no-amp / max-tu-size=32 / tu-inter-depth=1 / tu-intra-depth=1 / limit-tu=0 / rdoq-level=2 / dynamic-rd=0.00 / no-ssim-rd / signhide / no-tskip / nr-intra=0 / nr-inter=0 / no-constrained-intra / strong-intra-smoothing / max-merge=3 / limit-refs=3 / limit-modes / me=3 / subme=3 / merange=57 / temporal-mvp / weightp / no-weightb / no-analyze-src-pics / deblock=0:0 / sao / no-sao-non-deblock / rd=4 / no-early-skip / rskip / no-fast-intra / no-tskip-fast / no-cu-lossless / no-b-intra / no-splitrd-skip / rdpenalty=0 / psy-rd=2.00 / psy-rdoq=1.00 / no-rd-refine / no-lossless / cbqpoffs=0 / crqpoffs=0 / rc=abr / bitrate=17500 / qcomp=0.60 / qpstep=4 / stats-write=0 / stats-read=2 / cplxblur=20.0 / qblur=0.5 / ipratio=1.40 / pbratio=1.30 / aq-mode=2 / aq-strength=1.00 / cutree / zone-count=0 / no-strict-cbr / qg-size=32 / no-rc-grain / qpmax=69 / qpmin=0 / no-const-vbv / sar=0 / overscan=0 / videoformat=5 / range=0 / colorprim=9 / transfer=16 / colormatrix=9 / chromaloc=0 / display-window=0 / master-display=G(13250,34500)B(7500,3000)R(34000,16000)WP(15635,16450)L(10000000,50) / max-cll=1019,278 / min-luma=0 / max-luma=1023 / log2-max-poc-lsb=8 / vui-timing-info / vui-hrd-info / slices=1 / no-opt-qp-pps / no-opt-ref-list-length-pps / no-multi-pass-opt-rps / scenecut-bias=0.05 / no-opt-cu-delta-qp / aq-motion / hdr / hdr-opt / no-dhdr10-opt / no-idr-recovery-sei / analysis-reuse-level=5 / scale-factor=0 / refine-intra=0 / refine-inter=0 / refine-mv=0 / refine-ctu-distortion=0 / no-limit-sao / ctu-info=0 / no-lowpass-dct / refine-analysis-type=0 / copy-pic=1 / max-ausize-factor=1.0 / no-dynamic-refine / no-single-sei / no-hevc-aq / no-svt / qp-adaptation-range=1.00

Audio : AAC LC / 720 kb/s / 6 channels / English

Text : VobSub / 4 455 b/s / English

Menu
00:00:00.000 : en:Chapter 01
00:10:34.133 : en:Chapter 02
00:20:53.752 : en:Chapter 03
00:31:33.558 : en:Chapter 04
00:41:35.451 : en:Chapter 05
00:51:56.571 : en:Chapter 06

Download

Download: Google Drive

2 thoughts on “Dynasties (2018) Season 1 (1080p + 2160p BluRay x265 HEVC 10bit HDR AAC 5.1)

Leave a Reply