Doctor Who (2005) Season 1-12 + Extras (1080p BluRay x265 HEVC 10bit AAC 5.1 Panda)

Summary: The Doctor is an alien Time Lord from the planet Gallifrey who travels through all of time and space in the TARDIS. The Doctor has a long list of friends and companions who have shared journeys along the way. Instead of dying, the Doctor is able to “regenerate” into a new body, taking on a new personality with each regeneration.

Total size: 326 GB (including extras)

Season 1

Doctor Who (2005) Season 1 S01 + Extras (1080p BluRay x265 HEVC 10bit AAC 5.1 Panda)

Files

Doctor Who (2005) Season 1 S01 + Extras (1080p BluRay x265 HEVC 10bit AAC 5.1 Panda)

  • Doctor Who (2005) – S01E01 – Rose (1080p BluRay x265 Panda).mkv (1.5 GB)
  • Doctor Who (2005) – S01E02 – The End of the World (1080p BluRay x265 Panda).mkv (1.2 GB)
  • Doctor Who (2005) – S01E03 – The Unquiet Dead (1080p BluRay x265 Panda).mkv (1.1 GB)
  • Doctor Who (2005) – S01E04 – Aliens of London (1) (1080p BluRay x265 Panda).mkv (1.5 GB)
  • Doctor Who (2005) – S01E05 – World War Three (2) (1080p BluRay x265 Panda).mkv (1.3 GB)
  • Doctor Who (2005) – S01E06 – Dalek (1080p BluRay x265 Panda).mkv (1.2 GB)
  • Doctor Who (2005) – S01E07 – The Long Game (1080p BluRay x265 Panda).mkv (1.2 GB)
  • Doctor Who (2005) – S01E08 – Father’s Day (1080p BluRay x265 Panda).mkv (1.4 GB)
  • Doctor Who (2005) – S01E09 – The Empty Child (1) (1080p BluRay x265 Panda).mkv (889.3 MB)
  • Doctor Who (2005) – S01E10 – The Doctor Dances (2) (1080p BluRay x265 Panda).mkv (960.8 MB)
  • Doctor Who (2005) – S01E11 – Boom Town (1080p BluRay x265 Panda).mkv (1.1 GB)
  • Doctor Who (2005) – S01E12 – Bad Wolf (1) (1080p BluRay x265 Panda).mkv (1.1 GB)
  • Doctor Who (2005) – S01E13 – The Parting of the Ways (2) (1080p BluRay x265 Panda).mkv (1.3 GB)

Featurettes

  • Featurette – BBC Breakfast Interview with Christopher Eccleston.mkv (62.2 MB)
  • Featurette – Deconstructing Big Ben.mkv (28.8 MB)
  • Featurette – Designing Doctor Who.mkv (158.2 MB)
  • Featurette – Destroying the Layer.mkv (24.1 MB)
  • Featurette – Doctor Who Trailer Storyboard Artist – Jonathan Marris.mkv (3.4 MB)
  • Featurette – Laying Ghosts – The Origins of The Unquiet Dead.mkv (47.5 MB)
  • Featurette – Making Doctor Who with Russell T. Davies.mkv (154.0 MB)
  • Featurette – Mike Tucker’s Mocks of Balloons.mkv (36.5 MB)
  • Featurette – On Set with Billie Piper.mkv (219.8 MB)
  • Featurette – The Adventures of Captain Jack.mkv (43.2 MB)
  • Featurette – Waking the Dead – Mark Gatiss on Writing for Doctor Who.mkv (131.1 MB)
  • Trailer #1 – Doctor Who Season 1.mkv (18.4 MB)
  • Trailer #2 – Doctor Who Season 1.mkv (16.8 MB)

Doctor Who Confidential (2005) Season 1 S01 (576p x265 HEVC 10bit AAC 2.0 Panda)

  • Doctor Who Confidential (2005) – S01E01 – Bringing Back the Doctor (576p x265 Panda).mkv (155.3 MB)
  • Doctor Who Confidential (2005) – S01E02 – The Good, the Bad and the Ugly (576p x265 Panda).mkv (87.8 MB)
  • Doctor Who Confidential (2005) – S01E03 – TARDIS Tales (576p x265 Panda).mkv (92.5 MB)
  • Doctor Who Confidential (2005) – S01E04 – I Get a Side-Kick Out of You (576p x265 Panda).mkv (76.1 MB)
  • Doctor Who Confidential (2005) – S01E05 – Why on Earth (576p x265 Panda).mkv (100.8 MB)
  • Doctor Who Confidential (2005) – S01E06 – Dalek (576p x265 Panda).mkv (87.7 MB)
  • Doctor Who Confidential (2005) – S01E07 – The Dark Side (576p x265 Panda).mkv (81.2 MB)
  • Doctor Who Confidential (2005) – S01E08 – Time Trouble (576p x265 Panda).mkv (93.1 MB)
  • Doctor Who Confidential (2005) – S01E09 – Special Effects (576p x265 Panda).mkv (92.1 MB)
  • Doctor Who Confidential (2005) – S01E10 – Weird Science (576p x265 Panda).mkv (85.0 MB)
  • Doctor Who Confidential (2005) – S01E11 – Unsung Heroes and Violent Death (576p x265 Panda).mkv (78.5 MB)
  • Doctor Who Confidential (2005) – S01E12 – The World of Who (576p x265 Panda).mkv (92.0 MB)
  • Doctor Who Confidential (2005) – S01E13 – The Last Battle (576p x265 Panda).mkv (69.0 MB)

Mediainfo

General
Format : Matroska
Format version : Version 4 / Version 2
File size : 1.55 GiB
Duration : 46 min 20 s
Overall bit rate : 4 773 kb/s
Movie name : Doctor Who (2005) - S01E01 - Rose
Encoded date : UTC 2018-06-01 08:44:24
Writing application : mkvmerge v19.0.0 ('Brave Captain') 64-bit
Writing library : libebml v1.3.5 + libmatroska v1.4.8

Video
ID : 1
Format : HEVC
Format/Info : High Efficiency Video Coding
Format profile : Main [email protected]@Main
Codec ID : V_MPEGH/ISO/HEVC
Duration : 46 min 20 s
Bit rate : 4 173 kb/s
Width : 1 880 pixels
Height : 1 080 pixels
Display aspect ratio : 16:9
Frame rate mode : Constant
Frame rate : 23.976 (24000/1001) FPS
Color space : YUV
Chroma subsampling : 4:2:0
Bit depth : 10 bits
Bits/(Pixel*Frame) : 0.086
Stream size : 1.35 GiB (87%)
Writing library : x265 2.8+1-478bfe2b7673:[Windows][MSVC 1900][64 bit] 10bit
Encoding settings : cpuid=1111039 / frame-threads=3 / numa-pools=8 / wpp / no-pmode / no-pme / no-psnr / no-ssim / log-level=2 / input-csp=1 / input-res=1880x1080 / interlace=0 / total-frames=66676 / level-idc=0 / high-tier=1 / uhd-bd=0 / ref=4 / no-allow-non-conformance / no-repeat-headers / annexb / no-aud / no-hrd / info / hash=0 / no-temporal-layers / open-gop / min-keyint=23 / keyint=250 / gop-lookahead=0 / bframes=8 / b-adapt=2 / b-pyramid / bframe-bias=0 / rc-lookahead=80 / lookahead-slices=0 / scenecut=40 / radl=0 / no-intra-refresh / ctu=64 / min-cu-size=8 / no-rect / no-amp / max-tu-size=32 / tu-inter-depth=1 / tu-intra-depth=1 / limit-tu=0 / rdoq-level=2 / dynamic-rd=0.00 / no-ssim-rd / signhide / no-tskip / nr-intra=0 / nr-inter=0 / no-constrained-intra / no-strong-intra-smoothing / max-merge=3 / limit-refs=3 / limit-modes / me=3 / subme=5 / merange=57 / temporal-mvp / weightp / no-weightb / no-analyze-src-pics / deblock=-3:-3 / no-sao / no-sao-non-deblock / rd=4 / no-early-skip / rskip / no-fast-intra / no-tskip-fast / no-cu-lossless / no-b-intra / no-splitrd-skip / rdpenalty=0 / psy-rd=2.00 / psy-rdoq=1.70 / no-rd-refine / no-lossless / cbqpoffs=0 / crqpoffs=0 / rc=crf / crf=21.5 / qcomp=0.60 / qpstep=4 / stats-write=0 / stats-read=0 / ipratio=1.40 / pbratio=1.30 / aq-mode=3 / aq-strength=1.00 / cutree / zone-count=0 / no-strict-cbr / qg-size=32 / no-rc-grain / qpmax=69 / qpmin=0 / no-const-vbv / sar=0 / overscan=0 / videoformat=5 / range=0 / colorprim=2 / transfer=2 / colormatrix=2 / chromaloc=0 / display-window=0 / max-cll=0,0 / min-luma=0 / max-luma=1023 / log2-max-poc-lsb=8 / vui-timing-info / vui-hrd-info / slices=1 / no-opt-qp-pps / no-opt-ref-list-length-pps / no-multi-pass-opt-rps / scenecut-bias=0.05 / no-opt-cu-delta-qp / no-aq-motion / no-hdr / no-hdr-opt / no-dhdr10-opt / no-idr-recovery-sei / analysis-reuse-level=5 / scale-factor=0 / refine-intra=0 / refine-inter=0 / refine-mv=0 / no-limit-sao / ctu-info=0 / no-lowpass-dct / refine-mv-type=0 / copy-pic=1 / max-ausize-factor=1.0 / no-dynamic-refine / no-single-sei
Default : Yes
Forced : No

Audio #1
ID : 2
Format : AAC
Format/Info : Advanced Audio Codec
Format profile : LC
Codec ID : A_AAC
Duration : 46 min 20 s
Bit rate : 453 kb/s
Channel(s) : 6 channels
Channel positions : Front: L C R, Side: L R, LFE
Sampling rate : 48.0 kHz
Frame rate : 46.875 FPS (1024 spf)
Compression mode : Lossy
Delay relative to video : 20 ms
Stream size : 150 MiB (9%)
Language : English
Default : Yes
Forced : No

Audio #2
ID : 3
Format : AAC
Format/Info : Advanced Audio Codec
Format profile : LC
Codec ID : A_AAC
Duration : 46 min 20 s
Bit rate : 132 kb/s
Channel(s) : 2 channels
Channel positions : Front: L R
Sampling rate : 48.0 kHz
Frame rate : 46.875 FPS (1024 spf)
Compression mode : Lossy
Delay relative to video : 20 ms
Stream size : 44.3 MiB (3%)
Title : Commentary with Russell T. Davies, Julie Gardner & Phil Collinson
Language : English
Default : No
Forced : No

Subtitle
ID : 4
Format : PGS
Muxing mode : zlib
Codec ID : S_HDMV/PGS
Codec ID/Info : Picture based subtitle format used on BDs/HD-DVDs
Duration : 45 min 18 s
Bit rate : 37.0 kb/s
Count of elements : 1158
Stream size : 12.0 MiB (1%)
Language : English
Default : No
Forced : No

Menu
00:00:00.000 : en:Chapter 01
00:05:42.342 : en:Chapter 02
00:08:15.995 : en:Chapter 03
00:09:51.048 : en:Chapter 04
00:15:30.512 : en:Chapter 05
00:19:15.237 : en:Chapter 06
00:25:04.377 : en:Chapter 07
00:28:17.862 : en:Chapter 08
00:33:10.154 : en:Chapter 09
00:36:57.173 : en:Chapter 10
00:41:50.883 : en:Chapter 11
00:44:39.551 : en:Chapter 12
00:45:20.509 : en:Chapter 13

Screens

Download

Season: Google Drive (15.89 GB)

Extras: Google Drive (2.09 GB)

Season 2

Doctor Who (2005) Season 2 S02 + Extras (1080p BluRay x265 HEVC 10bit AAC 5.1 Panda)

Files

Doctor Who (2005) Season 2 S02 + Extras (1080p BluRay x265 HEVC 10bit AAC 5.1 Panda)

  • Doctor Who (2005) – S00E02 – The Christmas Invasion (1080p BluRay x265 Panda).mkv (2.3 GB)
  • Doctor Who (2005) – S02E01 – New Earth (1080p BluRay x265 Panda).mkv (1.3 GB)
  • Doctor Who (2005) – S02E02 – Tooth and Claw (1080p BluRay x265 Panda).mkv (1.5 GB)
  • Doctor Who (2005) – S02E03 – School Reunion (1080p BluRay x265 Panda).mkv (1.6 GB)
  • Doctor Who (2005) – S02E04 – The Girl in the Fireplace (1080p BluRay x265 Panda).mkv (1.5 GB)
  • Doctor Who (2005) – S02E05 – Rise of the Cybermen (1) (1080p BluRay x265 Panda).mkv (1.5 GB)
  • Doctor Who (2005) – S02E06 – The Age of Steel (2) (1080p BluRay x265 Panda).mkv (1.3 GB)
  • Doctor Who (2005) – S02E07 – The Idiot’s Lantern (1080p BluRay x265 Panda).mkv (1.7 GB)
  • Doctor Who (2005) – S02E08 – The Impossible Planet (1) (1080p BluRay x265 Panda).mkv (1.8 GB)
  • Doctor Who (2005) – S02E09 – The Satan Pit (2) (1080p BluRay x265 Panda).mkv (1.5 GB)
  • Doctor Who (2005) – S02E10 – Love and Monsters (1080p BluRay x265 Panda).mkv (1.6 GB)
  • Doctor Who (2005) – S02E11 – Fear Her (1080p BluRay x265 Panda).mkv (2.0 GB)
  • Doctor Who (2005) – S02E12 – Army of Ghosts (1) (1080p BluRay x265 Panda).mkv (1.5 GB)
  • Doctor Who (2005) – S02E13 – Doomsday (2) (1080p BluRay x265 Panda).mkv (1.7 GB)

Featurettes

  • Featurette – Billie Piper’s Doctor Who Video Diaries.mkv (54.9 MB)
  • Featurette – Children in Need Special.mkv (57.5 MB)
  • Featurette – David Tennant’s Doctor Who Video Diary.mkv (915.8 MB)
  • Featurette – Deleted Scenes.mkv (85.1 MB)
  • Featurette – Season 2 Outtakes.mkv (71.1 MB)

Doctor Who Confidential (2005) Season 2 S02 (576p x265 HEVC 10bit AAC 2.0 Panda)

  • Doctor Who Confidential (2005) – S00E03 – Backstage at Christmas (576p x265 Panda).mkv (176.3 MB)
  • Doctor Who Confidential (2005) – S02E01 – New, New Doctor (576p x265 Panda).mkv (133.4 MB)
  • Doctor Who Confidential (2005) – S02E02 – Fear Factor (576p x265 Panda).mkv (111.0 MB)
  • Doctor Who Confidential (2005) – S02E03 – Friends Reunited (576p x265 Panda).mkv (114.2 MB)
  • Doctor Who Confidential (2005) – S02E04 – Script to Screen (576p x265 Panda).mkv (127.6 MB)
  • Doctor Who Confidential (2005) – S02E05 – Cybermen (576p x265 Panda).mkv (111.2 MB)
  • Doctor Who Confidential (2005) – S02E06 – From Zero to Hero (576p x265 Panda).mkv (86.1 MB)
  • Doctor Who Confidential (2005) – S02E07 – The Writer’s Tale (576p x265 Panda).mkv (103.0 MB)
  • Doctor Who Confidential (2005) – S02E08 – You’ve Got the Look (576p x265 Panda).mkv (119.9 MB)
  • Doctor Who Confidential (2005) – S02E09 – Myths and Legends (576p x265 Panda).mkv (74.1 MB)
  • Doctor Who Confidential (2005) – S02E10 – New World of Who (576p x265 Panda).mkv (126.6 MB)
  • Doctor Who Confidential (2005) – S02E11 – The Fright Stuff (576p x265 Panda).mkv (119.3 MB)
  • Doctor Who Confidential (2005) – S02E12 – Welcome to Torchwood (576p x265 Panda).mkv (113.9 MB)
  • Doctor Who Confidential (2005) – S02E13 – Finale (576p x265 Panda).mkv (102.8 MB)

Mediainfo

General
Format : Matroska
Format version : Version 4 / Version 2
File size : 1.31 GiB
Duration : 46 min 20 s
Overall bit rate : 4 041 kb/s
Movie name : Doctor Who (2005) - S02E01 - New Earth
Encoded date : UTC 2018-06-03 15:59:56
Writing application : mkvmerge v19.0.0 ('Brave Captain') 64-bit
Writing library : libebml v1.3.5 + libmatroska v1.4.8
Cover : Yes
Attachments : cover.jpg
Writing frontend : StaxRip v1.7.0.6

Video
ID : 1
Format : HEVC
Format/Info : High Efficiency Video Coding
Format profile : Main [email protected]@Main
Codec ID : V_MPEGH/ISO/HEVC
Duration : 46 min 20 s
Bit rate : 3 436 kb/s
Width : 1 888 pixels
Height : 1 080 pixels
Display aspect ratio : 16:9
Frame rate mode : Constant
Frame rate : 23.976 (24000/1001) FPS
Color space : YUV
Chroma subsampling : 4:2:0
Bit depth : 10 bits
Bits/(Pixel*Frame) : 0.070
Stream size : 1.11 GiB (85%)
Writing library : x265 2.8+1-478bfe2b7673:[Windows][MSVC 1900][64 bit] 10bit
Encoding settings : cpuid=1111039 / frame-threads=3 / numa-pools=8 / wpp / no-pmode / no-pme / no-psnr / no-ssim / log-level=2 / input-csp=1 / input-res=1888x1080 / interlace=0 / total-frames=66661 / level-idc=0 / high-tier=1 / uhd-bd=0 / ref=4 / no-allow-non-conformance / no-repeat-headers / annexb / no-aud / no-hrd / info / hash=0 / no-temporal-layers / open-gop / min-keyint=23 / keyint=250 / gop-lookahead=0 / bframes=8 / b-adapt=2 / b-pyramid / bframe-bias=0 / rc-lookahead=80 / lookahead-slices=0 / scenecut=40 / radl=0 / no-intra-refresh / ctu=64 / min-cu-size=8 / no-rect / no-amp / max-tu-size=32 / tu-inter-depth=1 / tu-intra-depth=1 / limit-tu=0 / rdoq-level=2 / dynamic-rd=0.00 / no-ssim-rd / signhide / no-tskip / nr-intra=0 / nr-inter=0 / no-constrained-intra / no-strong-intra-smoothing / max-merge=3 / limit-refs=3 / limit-modes / me=3 / subme=5 / merange=57 / temporal-mvp / weightp / no-weightb / no-analyze-src-pics / deblock=-3:-3 / no-sao / no-sao-non-deblock / rd=4 / no-early-skip / rskip / no-fast-intra / no-tskip-fast / no-cu-lossless / no-b-intra / no-splitrd-skip / rdpenalty=0 / psy-rd=2.00 / psy-rdoq=1.70 / no-rd-refine / no-lossless / cbqpoffs=0 / crqpoffs=0 / rc=crf / crf=21.5 / qcomp=0.60 / qpstep=4 / stats-write=0 / stats-read=0 / ipratio=1.40 / pbratio=1.30 / aq-mode=3 / aq-strength=1.00 / cutree / zone-count=0 / no-strict-cbr / qg-size=32 / no-rc-grain / qpmax=69 / qpmin=0 / no-const-vbv / sar=0 / overscan=0 / videoformat=5 / range=0 / colorprim=2 / transfer=2 / colormatrix=2 / chromaloc=0 / display-window=0 / max-cll=0,0 / min-luma=0 / max-luma=1023 / log2-max-poc-lsb=8 / vui-timing-info / vui-hrd-info / slices=1 / no-opt-qp-pps / no-opt-ref-list-length-pps / no-multi-pass-opt-rps / scenecut-bias=0.05 / no-opt-cu-delta-qp / no-aq-motion / no-hdr / no-hdr-opt / no-dhdr10-opt / no-idr-recovery-sei / analysis-reuse-level=5 / scale-factor=0 / refine-intra=0 / refine-inter=0 / refine-mv=0 / no-limit-sao / ctu-info=0 / no-lowpass-dct / refine-mv-type=0 / copy-pic=1 / max-ausize-factor=1.0 / no-dynamic-refine / no-single-sei
Default : Yes
Forced : No

Audio #1
ID : 2
Format : AAC
Format/Info : Advanced Audio Codec
Format profile : LC
Codec ID : A_AAC
Duration : 46 min 20 s
Bit rate : 459 kb/s
Channel(s) : 6 channels
Channel positions : Front: L C R, Side: L R, LFE
Sampling rate : 48.0 kHz
Frame rate : 46.875 FPS (1024 spf)
Compression mode : Lossy
Delay relative to video : 20 ms
Stream size : 152 MiB (11%)
Language : English
Default : Yes
Forced : No

Audio #2
ID : 3
Format : AAC
Format/Info : Advanced Audio Codec
Format profile : LC
Codec ID : A_AAC
Duration : 46 min 20 s
Bit rate : 132 kb/s
Channel(s) : 2 channels
Channel positions : Front: L R
Sampling rate : 48.0 kHz
Frame rate : 46.875 FPS (1024 spf)
Compression mode : Lossy
Delay relative to video : 20 ms
Stream size : 43.2 MiB (3%)
Title : Commentary with James Hawes, producer Julie Gardner & visual effects producer Will Cohen
Language : English
Default : No
Forced : No

Subtitle
ID : 4
Format : PGS
Muxing mode : zlib
Codec ID : S_HDMV/PGS
Codec ID/Info : Picture based subtitle format used on BDs/HD-DVDs
Duration : 44 min 49 s
Bit rate : 45.2 kb/s
Count of elements : 1362
Stream size : 14.5 MiB (1%)
Language : English
Default : No
Forced : No

Menu
00:00:00.000 : en:Chapter 01
00:04:25.473 : en:Chapter 02
00:07:01.170 : en:Chapter 03
00:12:58.778 : en:Chapter 04
00:17:25.794 : en:Chapter 05
00:19:30.961 : en:Chapter 06
00:24:54.451 : en:Chapter 07
00:29:30.435 : en:Chapter 08
00:33:53.322 : en:Chapter 09
00:36:30.938 : en:Chapter 10
00:39:11.349 : en:Chapter 11
00:44:28.957 : en:Chapter 12
00:45:05.202 : en:Chapter 13

Download

Season: Google Drive (22.68 GB)

Extras: Google Drive (2.74 GB)

Season 3

Doctor Who (2005) Season 3 S03 + Extras (1080p BluRay x265 HEVC 10bit AAC 5.1 Panda)

Files

Doctor Who (2005) Season 3 S03 + Extras (1080p BluRay x265 HEVC 10bit AAC 5.1 Panda)

  • Doctor Who (2005) – S00E04 – The Runaway Bride (1080p BluRay x265 Panda).mkv (2.7 GB)
  • Doctor Who (2005) – S03E01 – Smith and Jones (1080p BluRay x265 Panda).mkv (1.4 GB)
  • Doctor Who (2005) – S03E02 – The Shakespeare Code (1080p BluRay x265 Panda).mkv (1.7 GB)
  • Doctor Who (2005) – S03E03 – Gridlock (1080p BluRay x265 Panda).mkv (1.6 GB)
  • Doctor Who (2005) – S03E04 – Daleks in Manhattan (1) (1080p BluRay x265 Panda).mkv (1.5 GB)
  • Doctor Who (2005) – S03E05 – Evolution of the Daleks (2) (1080p BluRay x265 Panda).mkv (1.7 GB)
  • Doctor Who (2005) – S03E06 – The Lazarus Experiment (1080p BluRay x265 Panda).mkv (1.4 GB)
  • Doctor Who (2005) – S03E07 – 42 (1080p BluRay x265 Panda).mkv (1.6 GB)
  • Doctor Who (2005) – S03E08 – Human Nature (1) (1080p BluRay x265 Panda).mkv (1.5 GB)
  • Doctor Who (2005) – S03E09 – The Family of Blood (2) (1080p BluRay x265 Panda).mkv (1.2 GB)
  • Doctor Who (2005) – S03E10 – Blink (1080p BluRay x265 Panda).mkv (1.5 GB)
  • Doctor Who (2005) – S03E11 – Utopia (1) (1080p BluRay x265 Panda).mkv (1.7 GB)
  • Doctor Who (2005) – S03E12 – The Sound of Drums (2) (1080p BluRay x265 Panda).mkv (1.6 GB)
  • Doctor Who (2005) – S03E13 – Last of the Time Lords (3) (1080p BluRay x265 Panda).mkv (1.8 GB)

Featurettes

  • Easter Egg – Blink Video.mkv (26.5 MB)
  • Featurette – David Tennant’s Video Diary.mkv (784.8 MB)
  • Featurette – Deleted Scenes.mkv (112.5 MB)
  • Featurette – Freema Agyeman Studio Tour.mkv (196.8 MB)
  • Featurette – Season 3 Outtakes.mkv (41.1 MB)
  • Menu Art.mkv (19.8 MB)
  • Trailers – Doctor Who Season 3.mkv (28.0 MB)

Doctor Who Confidential (2005) Season 3 S03 (576p x265 HEVC 10bit AAC 2.0 Panda)

  • Doctor Who Confidential (2005) – S00E05 – Music and Monsters (576p x265 Panda).mkv (421.0 MB)
  • Doctor Who Confidential (2005) – S03E01 – Meet Martha Jones (576p x265 Panda).mkv (121.5 MB)
  • Doctor Who Confidential (2005) – S03E02 – Stage Fright (576p x265 Panda).mkv (117.9 MB)
  • Doctor Who Confidential (2005) – S03E03 – Are We There Yet (576p x265 Panda).mkv (112.0 MB)
  • Doctor Who Confidential (2005) – S03E04 – A New York Story (576p x265 Panda).mkv (134.5 MB)
  • Doctor Who Confidential (2005) – S03E05 – Making Manhattan (576p x265 Panda).mkv (137.0 MB)
  • Doctor Who Confidential (2005) – S03E06 – Monsters Inc (576p x265 Panda).mkv (102.7 MB)
  • Doctor Who Confidential (2005) – S03E07 – Space Craft (576p x265 Panda).mkv (92.4 MB)
  • Doctor Who Confidential (2005) – S03E08 – Alter Ego (576p x265 Panda).mkv (109.9 MB)
  • Doctor Who Confidential (2005) – S03E09 – Bad Blood (576p x265 Panda).mkv (101.6 MB)
  • Doctor Who Confidential (2005) – S03E10 – Do You Remember The First Time (576p x265 Panda).mkv (109.7 MB)
  • Doctor Who Confidential (2005) – S03E11 – ‘ello, ‘ello, ‘ello (576p x265 Panda).mkv (95.3 MB)
  • Doctor Who Confidential (2005) – S03E12 – The Saxon Mystery (576p x265 Panda).mkv (108.5 MB)
  • Doctor Who Confidential (2005) – S03E13 – The Valiant Quest (576p x265 Panda).mkv (63.8 MB)

Mediainfo

General
Format : Matroska
Format version : Version 4 / Version 2
File size : 1.42 GiB
Duration : 46 min 40 s
Overall bit rate : 4 363 kb/s
Movie name : Doctor Who (2005 - S03E01 - Smith and Jones
Encoded date : UTC 2018-06-10 09:25:35
Writing application : mkvmerge v19.0.0 ('Brave Captain') 64-bit
Writing library : libebml v1.3.5 + libmatroska v1.4.8
Cover : Yes
Attachments : cover.jpg
Writing frontend : StaxRip v1.7.0.6

Video
ID : 1
Format : HEVC
Format/Info : High Efficiency Video Coding
Format profile : Main [email protected]@Main
Codec ID : V_MPEGH/ISO/HEVC
Duration : 46 min 40 s
Bit rate : 3 738 kb/s
Width : 1 888 pixels
Height : 1 080 pixels
Display aspect ratio : 16:9
Frame rate mode : Constant
Frame rate : 23.976 (24000/1001) FPS
Color space : YUV
Chroma subsampling : 4:2:0
Bit depth : 10 bits
Bits/(Pixel*Frame) : 0.076
Stream size : 1.22 GiB (86%)
Writing library : x265 2.8+12-9cde2c278464:[Windows][MSVC 1900][64 bit] 10bit
Encoding settings : cpuid=1111039 / frame-threads=3 / numa-pools=8 / wpp / no-pmode / no-pme / no-psnr / no-ssim / log-level=2 / input-csp=1 / input-res=1888x1080 / interlace=0 / total-frames=67152 / level-idc=0 / high-tier=1 / uhd-bd=0 / ref=4 / no-allow-non-conformance / no-repeat-headers / annexb / no-aud / no-hrd / info / hash=0 / no-temporal-layers / open-gop / min-keyint=23 / keyint=250 / gop-lookahead=0 / bframes=8 / b-adapt=2 / b-pyramid / bframe-bias=0 / rc-lookahead=80 / lookahead-slices=0 / scenecut=40 / radl=0 / no-intra-refresh / ctu=64 / min-cu-size=8 / no-rect / no-amp / max-tu-size=32 / tu-inter-depth=1 / tu-intra-depth=1 / limit-tu=0 / rdoq-level=2 / dynamic-rd=0.00 / no-ssim-rd / signhide / no-tskip / nr-intra=0 / nr-inter=0 / no-constrained-intra / no-strong-intra-smoothing / max-merge=3 / limit-refs=3 / limit-modes / me=3 / subme=5 / merange=57 / temporal-mvp / weightp / no-weightb / no-analyze-src-pics / deblock=-3:-3 / no-sao / no-sao-non-deblock / rd=4 / no-early-skip / rskip / no-fast-intra / no-tskip-fast / no-cu-lossless / no-b-intra / no-splitrd-skip / rdpenalty=0 / psy-rd=2.00 / psy-rdoq=1.70 / no-rd-refine / no-lossless / cbqpoffs=0 / crqpoffs=0 / rc=crf / crf=21.5 / qcomp=0.60 / qpstep=4 / stats-write=0 / stats-read=0 / ipratio=1.40 / pbratio=1.30 / aq-mode=3 / aq-strength=1.00 / cutree / zone-count=0 / no-strict-cbr / qg-size=32 / no-rc-grain / qpmax=69 / qpmin=0 / no-const-vbv / sar=0 / overscan=0 / videoformat=5 / range=0 / colorprim=2 / transfer=2 / colormatrix=2 / chromaloc=0 / display-window=0 / max-cll=0,0 / min-luma=0 / max-luma=1023 / log2-max-poc-lsb=8 / vui-timing-info / vui-hrd-info / slices=1 / no-opt-qp-pps / no-opt-ref-list-length-pps / no-multi-pass-opt-rps / scenecut-bias=0.05 / no-opt-cu-delta-qp / no-aq-motion / no-hdr / no-hdr-opt / no-dhdr10-opt / no-idr-recovery-sei / analysis-reuse-level=5 / scale-factor=0 / refine-intra=0 / refine-inter=0 / refine-mv=0 / no-limit-sao / ctu-info=0 / no-lowpass-dct / refine-mv-type=0 / copy-pic=1 / max-ausize-factor=1.0 / no-dynamic-refine / no-single-sei
Default : Yes
Forced : No

Audio #1
ID : 2
Format : AAC
Format/Info : Advanced Audio Codec
Format profile : LC
Codec ID : A_AAC
Duration : 46 min 40 s
Bit rate : 480 kb/s
Channel(s) : 6 channels
Channel positions : Front: L C R, Side: L R, LFE
Sampling rate : 48.0 kHz
Frame rate : 46.875 FPS (1024 spf)
Compression mode : Lossy
Delay relative to video : 20 ms
Stream size : 160 MiB (11%)
Language : English
Default : Yes
Forced : No

Audio #2
ID : 3
Format : AAC
Format/Info : Advanced Audio Codec
Format profile : LC
Codec ID : A_AAC
Duration : 46 min 40 s
Bit rate : 130 kb/s
Channel(s) : 2 channels
Channel positions : Front: L R
Sampling rate : 48.0 kHz
Frame rate : 46.875 FPS (1024 spf)
Compression mode : Lossy
Delay relative to video : 20 ms
Stream size : 43.3 MiB (3%)
Title : Commentary with Russell T. Davies & David Tennant
Language : English
Default : No
Forced : No

Subtitle
ID : 4
Format : PGS
Muxing mode : zlib
Codec ID : S_HDMV/PGS
Codec ID/Info : Picture based subtitle format used on BDs/HD-DVDs
Duration : 45 min 26 s
Bit rate : 43.5 kb/s
Count of elements : 1298
Stream size : 14.1 MiB (1%)
Language : English
Default : No
Forced : No

Menu
00:00:00.000 : en:Chapter 01
00:04:04.452 : en:Chapter 02
00:08:00.938 : en:Chapter 03
00:13:17.254 : en:Chapter 04
00:16:28.946 : en:Chapter 05
00:20:15.005 : en:Chapter 06
00:25:09.049 : en:Chapter 07
00:29:23.887 : en:Chapter 08
00:34:04.876 : en:Chapter 09
00:37:55.773 : en:Chapter 10
00:42:43.269 : en:Chapter 11
00:44:55.484 : en:Chapter 12
00:45:29.601 : en:Chapter 13

Screens

Download

Season: Google Drive (22.90 GB)

Extras: Google Drive (2.97 GB)

Season 4

Doctor Who (2005) Season 4 S04 + Extras (1080p BluRay x265 HEVC 10bit AAC 5.1 Panda)

Files

Doctor Who (2005) Season 4 S04 + Extras (1080p BluRay x265 HEVC 10bit AAC 5.1 Panda)

  • Doctor Who (2005) – S00E07 – Voyage of the Damned (1080p BluRay x265 Panda).mkv (3.0 GB)
  • Doctor Who (2005) – S00E09 – The Next Doctor (1080p BluRay x265 Panda).mkv (2.4 GB)
  • Doctor Who (2005) – S00E13 – Planet of the Dead (1080p BluRay x265 Panda).mkv (2.1 GB)
  • Doctor Who (2005) – S00E14 – The Waters of Mars (1080p BluRay x265 Panda).mkv (2.1 GB)
  • Doctor Who (2005) – S00E16 – The End of Time (1) (1080p BluRay x265 Panda).mkv (1.9 GB)
  • Doctor Who (2005) – S00E17 – The End of Time (2) (1080p BluRay x265 Panda).mkv (2.5 GB)
  • Doctor Who (2005) – S04E01 – Partners in Crime (1080p BluRay x265 Panda).mkv (1.9 GB)
  • Doctor Who (2005) – S04E02 – The Fires of Pompeii (1080p BluRay x265 Panda).mkv (2.1 GB)
  • Doctor Who (2005) – S04E03 – Planet of the Ood (1080p BluRay x265 Panda).mkv (1.9 GB)
  • Doctor Who (2005) – S04E04 – The Sontaran Stratagem (1) (1080p BluRay x265 Panda).mkv (1.8 GB)
  • Doctor Who (2005) – S04E05 – The Poison Sky (2) (1080p BluRay x265 Panda).mkv (1.7 GB)
  • Doctor Who (2005) – S04E06 – The Doctor’s Daughter (1080p BluRay x265 Panda).mkv (1.7 GB)
  • Doctor Who (2005) – S04E07 – The Unicorn and the Wasp (1080p BluRay x265 Panda).mkv (1.9 GB)
  • Doctor Who (2005) – S04E08 – Silence in the Library (1) (1080p BluRay x265 Panda).mkv (1.4 GB)
  • Doctor Who (2005) – S04E09 – Forest of the Dead (2) (1080p BluRay x265 Panda).mkv (1.6 GB)
  • Doctor Who (2005) – S04E10 – Midnight (1080p BluRay x265 Panda).mkv (1.4 GB)
  • Doctor Who (2005) – S04E11 – Turn Left (1080p BluRay x265 Panda).mkv (2.0 GB)
  • Doctor Who (2005) – S04E12 – The Stolen Earth (1) (1080p BluRay x265 Panda).mkv (1.8 GB)
  • Doctor Who (2005) – S04E13 – Journey’s End (2) (1080p BluRay x265 Panda).mkv (2.3 GB)

Featurettes

  • Featurette – Children in Need – Time Crash.mkv (72.1 MB)
  • Featurette – David Tennant’s Video Diary #1.mkv (144.0 MB)
  • Featurette – David Tennant’s Video Diary #2.mkv (111.1 MB)
  • Featurette – David Tennant’s Video Diary #3 – End of Time.mkv (303.6 MB)
  • Featurette – Deleted Scenes #1 – Voyage of the Damned (Intro by R T. Davies).mkv (11.4 MB)
  • Featurette – Deleted Scenes #2 (Intro by R T. Davies).mkv (47.8 MB)
  • Featurette – Deleted Scenes #3 – Howard Attfield’s (Intro by R T. Davies).mkv (33.2 MB)
  • Featurette – Deleted Scenes #4 (Intro by R T. Davies).mkv (72.2 MB)
  • Featurette – Deleted Scenes #5 (Intro by R T. Davies).mkv (33.3 MB)
  • Featurette – Deleted Scenes #6 – Specials (Intro by R T. Davies).mkv (204.7 MB)
  • Featurette – Doctor Who at Comic-Con (2009).mkv (553.1 MB)
  • Featurette – Doctor Who At The Proms (2008).mkv (514.0 MB)
  • Menu Art.mkv (40.8 MB)
  • Trailers #1 – Doctor Who Season 4.mkv (59.4 MB)
  • Trailers #2 – Doctor Who Season 4.mkv (12.6 MB)
  • Trailers #3 – Doctor Who Season 4.mkv (16.3 MB)
  • Trailers #4 – Doctor Who Season 4.mkv (9.5 MB)
  • Trailers #5 – Doctor Who Season 4.mkv (6.2 MB)

Doctor Who Confidential (2005) Season 4 S04 (x265 HEVC 10bit AAC Panda)

  • Doctor Who Confidential (2005) – S00E08 – Doctor Who Confidential at Christmas (576p x265 Panda).mkv (135.9 MB)
  • Doctor Who Confidential (2005) – S00E09 – The Journey So Far (576p x265 Panda).mkv (202.7 MB)
  • Doctor Who Confidential (2005) – S00E10 – The Next Doctor (1080p x265 Panda).mkv (1.4 GB)
  • Doctor Who Confidential (2005) – S00E12 – Desert Storm (1080p x265 Panda).mkv (1.3 GB)
  • Doctor Who Confidential (2005) – S00E13 – Is There Life On Mars (1080p x265 Panda).mkv (1.4 GB)
  • Doctor Who Confidential (2005) – S00E14 – Lords and Masters (1080p x265 Panda).mkv (1.1 GB)
  • Doctor Who Confidential (2005) – S00E15 – Allons Y (1080p x265 Panda).mkv (1.1 GB)
  • Doctor Who Confidential (2005) – S04E01 – A Noble Return (576p x265 Panda).mkv (57.1 MB)
  • Doctor Who Confidential (2005) – S04E02 – The Italian Job (576p x265 Panda).mkv (98.2 MB)
  • Doctor Who Confidential (2005) – S04E03 – Oods and Ends (576p x265 Panda).mkv (111.0 MB)
  • Doctor Who Confidential (2005) – S04E04 – Send in the Clones (576p x265 Panda).mkv (97.8 MB)
  • Doctor Who Confidential (2005) – S04E05 – Sontar-Ha! (576p x265 Panda).mkv (87.0 MB)
  • Doctor Who Confidential (2005) – S04E06 – Sins of the Fathers (576p x265 Panda).mkv (73.4 MB)
  • Doctor Who Confidential (2005) – S04E07 – Nemesis (576p x265 Panda).mkv (99.8 MB)
  • Doctor Who Confidential (2005) – S04E08 – Shadow Play (576p x265 Panda).mkv (82.1 MB)
  • Doctor Who Confidential (2005) – S04E09 – River Runs Deep (576p x265 Panda).mkv (80.4 MB)
  • Doctor Who Confidential (2005) – S04E10 – Look Who’s Talking (576p x265 Panda).mkv (77.8 MB)
  • Doctor Who Confidential (2005) – S04E11 – Here Come the Girls (576p x265 Panda).mkv (58.4 MB)
  • Doctor Who Confidential (2005) – S04E12 – Friends and Foe (576p x265 Panda).mkv (100.8 MB)
  • Doctor Who Confidential (2005) – S04E13 – The End of an Era (576p x265 Panda).mkv (172.7 MB)

Mediainfo

General
Format : Matroska
Format version : Version 4 / Version 2
File size : 1.85 GiB
Duration : 50 min 57 s
Overall bit rate : 5 203 kb/s
Encoded date : UTC 2018-08-07 09:48:08
Writing application : mkvmerge v19.0.0 ('Brave Captain') 64-bit
Writing library : libebml v1.3.5 + libmatroska v1.4.8
Cover : Yes
Attachments : cover.jpg
Writing frontend : StaxRip v1.7.0.6

Video
ID : 1
Format : HEVC
Format/Info : High Efficiency Video Coding
Format profile : Main [email protected]@Main
Codec ID : V_MPEGH/ISO/HEVC
Duration : 50 min 57 s
Bit rate : 4 568 kb/s
Width : 1 880 pixels
Height : 1 080 pixels
Display aspect ratio : 16:9
Frame rate mode : Constant
Frame rate : 23.976 (24000/1001) FPS
Color space : YUV
Chroma subsampling : 4:2:0
Bit depth : 10 bits
Bits/(Pixel*Frame) : 0.094
Stream size : 1.63 GiB (88%)
Writing library : x265 2.8+12-9cde2c278464:[Windows][MSVC 1900][64 bit] 10bit
Encoding settings : cpuid=1111039 / frame-threads=3 / numa-pools=8 / wpp / no-pmode / no-pme / no-psnr / no-ssim / log-level=2 / input-csp=1 / input-res=1880x1080 / interlace=0 / total-frames=73297 / level-idc=0 / high-tier=1 / uhd-bd=0 / ref=4 / no-allow-non-conformance / no-repeat-headers / annexb / no-aud / no-hrd / info / hash=0 / no-temporal-layers / open-gop / min-keyint=23 / keyint=250 / gop-lookahead=0 / bframes=8 / b-adapt=2 / b-pyramid / bframe-bias=0 / rc-lookahead=80 / lookahead-slices=0 / scenecut=40 / radl=0 / no-intra-refresh / ctu=64 / min-cu-size=8 / no-rect / no-amp / max-tu-size=32 / tu-inter-depth=1 / tu-intra-depth=1 / limit-tu=0 / rdoq-level=2 / dynamic-rd=0.00 / no-ssim-rd / signhide / no-tskip / nr-intra=0 / nr-inter=0 / no-constrained-intra / no-strong-intra-smoothing / max-merge=3 / limit-refs=3 / limit-modes / me=3 / subme=5 / merange=57 / temporal-mvp / weightp / no-weightb / no-analyze-src-pics / deblock=-3:-3 / no-sao / no-sao-non-deblock / rd=4 / no-early-skip / rskip / no-fast-intra / no-tskip-fast / no-cu-lossless / no-b-intra / no-splitrd-skip / rdpenalty=0 / psy-rd=2.00 / psy-rdoq=1.70 / no-rd-refine / no-lossless / cbqpoffs=0 / crqpoffs=0 / rc=crf / crf=21.5 / qcomp=0.60 / qpstep=4 / stats-write=0 / stats-read=0 / ipratio=1.40 / pbratio=1.30 / aq-mode=3 / aq-strength=1.00 / cutree / zone-count=0 / no-strict-cbr / qg-size=32 / no-rc-grain / qpmax=69 / qpmin=0 / no-const-vbv / sar=0 / overscan=0 / videoformat=5 / range=0 / colorprim=2 / transfer=2 / colormatrix=2 / chromaloc=0 / display-window=0 / max-cll=0,0 / min-luma=0 / max-luma=1023 / log2-max-poc-lsb=8 / vui-timing-info / vui-hrd-info / slices=1 / no-opt-qp-pps / no-opt-ref-list-length-pps / no-multi-pass-opt-rps / scenecut-bias=0.05 / no-opt-cu-delta-qp / no-aq-motion / no-hdr / no-hdr-opt / no-dhdr10-opt / no-idr-recovery-sei / analysis-reuse-level=5 / scale-factor=0 / refine-intra=0 / refine-inter=0 / refine-mv=0 / no-limit-sao / ctu-info=0 / no-lowpass-dct / refine-mv-type=0 / copy-pic=1 / max-ausize-factor=1.0 / no-dynamic-refine / no-single-sei
Default : Yes
Forced : No

Audio #1
ID : 2
Format : AAC
Format/Info : Advanced Audio Codec
Format profile : LC
Codec ID : A_AAC
Duration : 50 min 57 s
Bit rate : 486 kb/s
Channel(s) : 6 channels
Channel positions : Front: L C R, Side: L R, LFE
Sampling rate : 48.0 kHz
Frame rate : 46.875 FPS (1024 spf)
Compression mode : Lossy
Delay relative to video : 20 ms
Stream size : 177 MiB (9%)
Language : English
Default : Yes
Forced : No

Audio #2
ID : 3
Format : AAC
Format/Info : Advanced Audio Codec
Format profile : LC
Codec ID : A_AAC
Duration : 50 min 57 s
Bit rate : 132 kb/s
Channel(s) : 2 channels
Channel positions : Front: L R
Sampling rate : 48.0 kHz
Frame rate : 46.875 FPS (1024 spf)
Compression mode : Lossy
Delay relative to video : 20 ms
Stream size : 49.1 MiB (3%)
Title : Commentary with Julie Gardner, James Strong & Russell T. Davies
Language : English
Default : No
Forced : No

Subtitle
ID : 4
Format : PGS
Muxing mode : zlib
Codec ID : S_HDMV/PGS
Codec ID/Info : Picture based subtitle format used on BDs/HD-DVDs
Duration : 50 min 2 s
Bit rate : 36.6 kb/s
Count of elements : 1336
Stream size : 13.1 MiB (1%)
Language : English
Default : No
Forced : No

Menu
00:00:00.000 : en:Chapter 01
00:05:28.578 : en:Chapter 02
00:08:09.363 : en:Chapter 03
00:13:01.655 : en:Chapter 04
00:17:39.141 : en:Chapter 05
00:21:35.627 : en:Chapter 06
00:26:03.061 : en:Chapter 07
00:29:37.901 : en:Chapter 08
00:32:47.382 : en:Chapter 09
00:38:08.369 : en:Chapter 10
00:44:10.606 : en:Chapter 11
00:49:30.133 : en:Chapter 12
00:50:04.167 : en:Chapter 13

Screens

Download

Season: Google Drive (37.61 GB)

Extras: Google Drive (9.96 GB)

Season 5

Doctor Who (2005) Season 5 S05 + Extras (1080p BluRay x265 HEVC 10bit AAC 5.1 Panda)

Files

Doctor Who (2005) Season 5 S05 + Extras (1080p BluRay x265 HEVC 10bit AAC 5.1 Panda)

  • Doctor Who (2005) – S05E01 – The Eleventh Hour (1080p BluRay x265 Panda).mkv (2.3 GB)
  • Doctor Who (2005) – S00E34 – A Christmas Carol (1080p BluRay x265 Panda).mkv (2.0 GB)
  • Doctor Who (2005) – S05E02 – The Beast Below (1080p BluRay x265 Panda).mkv (1.4 GB)
  • Doctor Who (2005) – S05E03 – Victory of the Daleks (1080p BluRay x265 Panda).mkv (1.4 GB)
  • Doctor Who (2005) – S05E04 – The Time of Angels (1) (1080p BluRay x265 Panda).mkv (1.4 GB)
  • Doctor Who (2005) – S05E05 – Flesh and Stone (2) (1080p BluRay x265 Panda).mkv (1.4 GB)
  • Doctor Who (2005) – S05E06 – The Vampires of Venice (1080p BluRay x265 Panda).mkv (1.6 GB)
  • Doctor Who (2005) – S05E07 – Amy’s Choice (1080p BluRay x265 Panda).mkv (1.4 GB)
  • Doctor Who (2005) – S05E08 – The Hungry Earth (1) (1080p BluRay x265 Panda).mkv (1.4 GB)
  • Doctor Who (2005) – S05E09 – Cold Blood (2) (1080p BluRay x265 Panda).mkv (1.5 GB)
  • Doctor Who (2005) – S05E10 – Vincent and the Doctor (1080p BluRay x265 Panda).mkv (1.5 GB)
  • Doctor Who (2005) – S05E11 – The Lodger (1080p BluRay x265 Panda).mkv (1.4 GB)
  • Doctor Who (2005) – S05E12 – The Pandorica Opens (1) (1080p BluRay x265 Panda).mkv (1.6 GB)
  • Doctor Who (2005) – S05E13 – The Big Bang (2) (1080p BluRay x265 Panda).mkv (1.8 GB)

Featurettes

  • Doctor Who Season 5 Trailer.mkv (80.4 MB)
  • Featurette – Doctor Who at the Proms 2010.mkv (1.9 GB)
  • Featurette – Meanwhile in the TARDIS #1 – Additional Scene.mkv (64.3 MB)
  • Featurette – Meanwhile in the TARDIS #2 – Additional Scene.mkv (66.8 MB)
  • Featurette – Monster Files #1 – The Daleks.mkv (203.0 MB)
  • Featurette – Monster Files #2 – The Weeping Angels.mkv (242.9 MB)
  • Featurette – Monster Files #3 – The Silurians.mkv (190.6 MB)
  • Featurette – Monster Files #4 – The Alliance.mkv (391.8 MB)
  • Featurette – Season 5 Outtakes.mkv (187.6 MB)
  • Featurette – The Video Diaries #1.mkv (87.2 MB)
  • Featurette – The Video Diaries #2.mkv (57.2 MB)
  • Featurette – The Video Diaries #3.mkv (62.3 MB)
  • Menu Art.mkv (28.5 MB)

Doctor Who Confidential (2005) Season 5 S05 (1080p x265 HEVC 10bit AAC 2.0 Panda)

  • Doctor Who Confidential (2005) – S00E21 – Christmas Special 2010 (1080p x265 Panda).mkv (1.6 GB)
  • Doctor Who Confidential (2005) – S05E01 – Call Me The Doctor (1080p x265 Panda).mkv (363.7 MB)
  • Doctor Who Confidential (2005) – S05E02 – All about the Girl (1080p x265 Panda).mkv (336.5 MB)
  • Doctor Who Confidential (2005) – S05E03 – War Games (1080p x265 Panda).mkv (326.1 MB)
  • Doctor Who Confidential (2005) – S05E04 – Eyes Wide Open (1080p x265 Panda).mkv (376.2 MB)
  • Doctor Who Confidential (2005) – S05E05 – Blinded by the Light (1080p x265 Panda).mkv (462.9 MB)
  • Doctor Who Confidential (2005) – S05E06 – Death in Venice (1080p x265 Panda).mkv (528.4 MB)
  • Doctor Who Confidential (2005) – S05E07 – Arthurian Legend (1080p x265 Panda).mkv (547.8 MB)
  • Doctor Who Confidential (2005) – S05E08 – After Effects (1080p x265 Panda).mkv (323.9 MB)
  • Doctor Who Confidential (2005) – S05E09 – What Goes on Tour … (1080p x265 Panda).mkv (447.7 MB)
  • Doctor Who Confidential (2005) – S05E10 – A Brush with Genius (1080p x265 Panda).mkv (298.5 MB)
  • Doctor Who Confidential (2005) – S05E11 – Extra Time (1080p x265 Panda).mkv (551.4 MB)
  • Doctor Who Confidential (2005) – S05E12 – Alien Abduction (1080p x265 Panda).mkv (323.2 MB)
  • Doctor Who Confidential (2005) – S05E13 – Out of Time (1080p x265 Panda).mkv (474.8 MB)

Mediainfo

Note from Encoder:

Unfortunately there are artifacts consistanly throughout this series, the BluRay of this series had compresion errors that the BBC hid by adding grain/digital noise to he final product and so these artifacts have been amplifid with further compression. After multiple tests with x265 and x264 and many attempts to repair this my only recourse left was focusing on minimising the effect but it is still very pominant so would advise sticking with the remux as any compression results in these artifacts.

In addition the extras, episodes 1, 3, 6, 9, and 13 had disguised commentaries overlooked by all known remuxes so this is the first time these commentaries have been included.

General
Format : Matroska
Format version : Version 4 / Version 2
File size : 1.38 GiB
Duration : 41 min 27 s
Overall bit rate : 4 759 kb/s
Encoded date : UTC 2018-08-22 15:11:48
Writing application : mkvmerge v19.0.0 ('Brave Captain') 64-bit
Writing library : libebml v1.3.5 + libmatroska v1.4.8
Cover : Yes
Attachments : cover.jpg
Writing frontend : StaxRip v1.7.0.6

Video
ID : 1
Format : HEVC
Format/Info : High Efficiency Video Coding
Format profile : Main [email protected]@Main
Codec ID : V_MPEGH/ISO/HEVC
Duration : 41 min 27 s
Bit rate : 4 251 kb/s
Width : 1 920 pixels
Height : 1 080 pixels
Display aspect ratio : 16:9
Frame rate mode : Constant
Frame rate : 25.000 FPS
Color space : YUV
Chroma subsampling : 4:2:0
Bit depth : 10 bits
Bits/(Pixel*Frame) : 0.082
Stream size : 1.23 GiB (89%)
Writing library : x265 2.8+12-9cde2c278464:[Windows][MSVC 1900][64 bit] 10bit
Encoding settings : cpuid=1111039 / frame-threads=3 / numa-pools=8 / wpp / no-pmode / no-pme / no-psnr / no-ssim / log-level=2 / input-csp=1 / input-res=1920x1080 / interlace=0 / total-frames=62175 / level-idc=0 / high-tier=1 / uhd-bd=0 / ref=4 / no-allow-non-conformance / no-repeat-headers / annexb / no-aud / no-hrd / info / hash=0 / no-temporal-layers / open-gop / min-keyint=25 / keyint=250 / gop-lookahead=0 / bframes=8 / b-adapt=2 / b-pyramid / bframe-bias=0 / rc-lookahead=80 / lookahead-slices=0 / scenecut=40 / radl=0 / no-intra-refresh / ctu=64 / min-cu-size=8 / no-rect / no-amp / max-tu-size=32 / tu-inter-depth=1 / tu-intra-depth=1 / limit-tu=0 / rdoq-level=2 / dynamic-rd=0.00 / no-ssim-rd / signhide / no-tskip / nr-intra=0 / nr-inter=0 / no-constrained-intra / no-strong-intra-smoothing / max-merge=3 / limit-refs=3 / limit-modes / me=3 / subme=5 / merange=57 / temporal-mvp / weightp / no-weightb / no-analyze-src-pics / deblock=-3:-3 / no-sao / no-sao-non-deblock / rd=4 / no-early-skip / rskip / no-fast-intra / no-tskip-fast / no-cu-lossless / no-b-intra / no-splitrd-skip / rdpenalty=0 / psy-rd=2.00 / psy-rdoq=1.70 / no-rd-refine / no-lossless / cbqpoffs=0 / crqpoffs=0 / rc=abr / bitrate=4250 / qcomp=0.60 / qpstep=4 / stats-write=0 / stats-read=2 / cplxblur=20.0 / qblur=0.5 / ipratio=1.40 / pbratio=1.30 / aq-mode=3 / aq-strength=0.80 / cutree / zone-count=0 / no-strict-cbr / qg-size=32 / no-rc-grain / qpmax=69 / qpmin=0 / no-const-vbv / sar=0 / overscan=0 / videoformat=5 / range=0 / colorprim=2 / transfer=2 / colormatrix=2 / chromaloc=0 / display-window=0 / max-cll=0,0 / min-luma=0 / max-luma=1023 / log2-max-poc-lsb=8 / vui-timing-info / vui-hrd-info / slices=1 / no-opt-qp-pps / no-opt-ref-list-length-pps / no-multi-pass-opt-rps / scenecut-bias=0.05 / no-opt-cu-delta-qp / no-aq-motion / no-hdr / no-hdr-opt / no-dhdr10-opt / no-idr-recovery-sei / analysis-reuse-level=5 / scale-factor=0 / refine-intra=0 / refine-inter=0 / refine-mv=0 / no-limit-sao / ctu-info=0 / no-lowpass-dct / refine-mv-type=0 / copy-pic=1 / max-ausize-factor=1.0 / no-dynamic-refine / no-single-sei
Default : Yes
Forced : No

Audio
ID : 2
Format : AAC
Format/Info : Advanced Audio Codec
Format profile : LC
Codec ID : A_AAC
Duration : 41 min 26 s
Bit rate : 490 kb/s
Channel(s) : 6 channels
Channel positions : Front: L C R, Side: L R, LFE
Sampling rate : 48.0 kHz
Frame rate : 46.875 FPS (1024 spf)
Compression mode : Lossy
Delay relative to video : 20 ms
Stream size : 145 MiB (10%)
Language : English
Default : Yes
Forced : No

Subtitle
ID : 3
Format : PGS
Muxing mode : zlib
Codec ID : S_HDMV/PGS
Codec ID/Info : Picture based subtitle format used on BDs/HD-DVDs
Duration : 40 min 22 s
Bit rate : 56.3 kb/s
Count of elements : 1326
Stream size : 16.3 MiB (1%)
Language : English
Default : No
Forced : No

Menu
00:00:00.000 : en:Chapter 01
00:02:57.000 : en:Chapter 02
00:09:27.520 : en:Chapter 03
00:14:33.640 : en:Chapter 04
00:17:25.520 : en:Chapter 05
00:21:45.960 : en:Chapter 06
00:25:45.480 : en:Chapter 07
00:30:41.600 : en:Chapter 08
00:35:36.360 : en:Chapter 09
00:37:05.000 : en:Chapter 10
00:38:37.080 : en:Chapter 11
00:40:54.760 : en:Chapter 12

Screens

Download

Season: Google Drive (22.27 GB)

Extras: Google Drive (10.36 GB)

Season 6

Doctor Who (2005) Season 6 S06 + Extras (1080p BluRay x265 HEVC 10bit AAC 5.1 Panda)

Files

Doctor Who (2005) Season 6 S06 + Extras (1080p BluRay x265 HEVC 10bit AAC 5.1 Panda)

  • Doctor Who (2005) – S06E02 – Day of the Moon (2) (1080p BluRay x265 Panda).mkv (1.9 GB)
  • Doctor Who (2005) – S06E01 – The Impossible Astronaut (1) (1080p BluRay x265 Panda).mkv (1.6 GB)
  • Doctor Who (2005) – S06E03 – The Curse of the Black Spot (1080p BluRay x265 Panda).mkv (1.5 GB)
  • Doctor Who (2005) – S06E04 – The Doctor’s Wife (1080p BluRay x265 Panda).mkv (1.6 GB)
  • Doctor Who (2005) – S06E05 – The Rebel Flesh (1) (1080p BluRay x265 Panda).mkv (1.5 GB)
  • Doctor Who (2005) – S06E06 – The Almost People (2) (1080p BluRay x265 Panda).mkv (1.7 GB)
  • Doctor Who (2005) – S06E07 – A Good Man Goes to War (1) (1080p BluRay x265 Panda).mkv (1.6 GB)
  • Doctor Who (2005) – S06E08 – Let’s Kill Hitler (2) (1080p x265 Panda).mkv (1.6 GB)
  • Doctor Who (2005) – S06E09 – Night Terrors (1080p BluRay x265 Panda).mkv (1.3 GB)
  • Doctor Who (2005) – S06E10 – The Girl Who Waited (1080p BluRay x265 Panda).mkv (1.3 GB)
  • Doctor Who (2005) – S06E11 – The God Complex (1080p BluRay x265 Panda).mkv (1.4 GB)
  • Doctor Who (2005) – S06E12 – Closing Time (1080p BluRay x265 Panda).mkv (1.5 GB)
  • Doctor Who (2005) – S06E13 – The Wedding of River Song (1080p BluRay x265 Panda).mkv (1.6 GB)

Featurettes

  • Featurette – Comic Relief Sketch #1 – Space.mkv (112.6 MB)
  • Featurette – Comic Relief Sketch #2 – Time.mkv (104.8 MB)
  • Featurette – Monster File – The Antibodies.mkv (215.1 MB)
  • Featurette – Monster File – The Cybermats.mkv (280.3 MB)
  • Featurette – Monster File – The Gangers.mkv (345.0 MB)
  • Featurette – Monster File – The Silence.mkv (337.4 MB)
  • Featurette – Night and the Doctor #1 – Bad Night.mkv (96.5 MB)
  • Featurette – Night and the Doctor #2 – Good Night.mkv (139.5 MB)
  • Featurette – Night and the Doctor #3 – First Night.mkv (37.6 MB)
  • Featurette – Night and the Doctor #4 – Last Night.mkv (59.8 MB)
  • Featurette – Night and the Doctor #5 – Up All Night.mkv (26.9 MB)
  • Menu Art.mkv (31.7 MB)
  • Prequel – S06E01 – The Impossible Astronaut.mkv (14.4 MB)
  • Prequel – S06E03 – The Curse of the Black Spot.mkv (16.2 MB)
  • Prequel – S06E07 – A Good Man Goes to War.mkv (19.2 MB)
  • Prequel – S06E08 – Let’s Kill Hitler.mkv (26.0 MB)
  • Prequel – S06E13 – The Wedding of River Song.mkv (20.2 MB)

Doctor Who Confidential (2005) Season 6 S06 (1080p x265 HEVC 10bit AAC 5.1 Panda)

  • Doctor Who Confidential (2005) – S00E25 – The Nights’ Tale (1080p x265 Panda).mkv (379.3 MB)
  • Doctor Who Confidential (2005) – S06E01 – Coming to America (1080p x265 Panda).mkv (426.7 MB)
  • Doctor Who Confidential (2005) – S06E02 – Breaking the Silence (1080p x265 Panda).mkv (354.0 MB)
  • Doctor Who Confidential (2005) – S06E03 – Ship Ahoy! (1080p x265 Panda).mkv (481.1 MB)
  • Doctor Who Confidential (2005) – S06E04 – Bigger on the Inside (1080p x265 Panda).mkv (439.3 MB)
  • Doctor Who Confidential (2005) – S06E05 – Double Trouble (1080p x265 Panda).mkv (491.0 MB)
  • Doctor Who Confidential (2005) – S06E06 – Take Two (1080p x265 Panda).mkv (409.5 MB)
  • Doctor Who Confidential (2005) – S06E07 – The Born Identity (1080p x265 Panda).mkv (222.6 MB)
  • Doctor Who Confidential (2005) – S06E08 – River Runs Wild (1080p x265 Panda).mkv (393.1 MB)
  • Doctor Who Confidential (2005) – S06E09 – About a Boy (1080p x265 Panda).mkv (433.6 MB)
  • Doctor Who Confidential (2005) – S06E10 – What Dreams May Come (1080p x265 Panda).mkv (478.0 MB)
  • Doctor Who Confidential (2005) – S06E11 – Heartbreak Hotel (1080p x265 Panda).mkv (259.0 MB)
  • Doctor Who Confidential (2005) – S06E12 – Open All Hours (1080p x265 Panda).mkv (405.0 MB)
  • Doctor Who Confidential (2005) – S06E13 – When Time Froze (1080p x265 Panda).mkv (300.2 MB)

Mediainfo

General
Format : Matroska
Format version : Version 4 / Version 2
File size : 1.60 GiB
Duration : 43 min 36 s
Overall bit rate : 5 260 kb/s
Encoded date : UTC 2018-09-05 14:30:31
Writing application : mkvmerge v26.0.0 ('In The Game') 64-bit
Writing library : libebml v1.3.6 + libmatroska v1.4.9
Cover : Yes
Attachments : cover.jpg
Writing frontend : StaxRip v1.7.0.6

Video
ID : 1
Format : HEVC
Format/Info : High Efficiency Video Coding
Format profile : Main [email protected]@Main
Codec ID : V_MPEGH/ISO/HEVC
Duration : 43 min 36 s
Bit rate : 4 640 kb/s
Width : 1 920 pixels
Height : 1 080 pixels
Display aspect ratio : 16:9
Frame rate mode : Constant
Frame rate : 25.000 FPS
Color space : YUV
Chroma subsampling : 4:2:0
Bit depth : 10 bits
Bits/(Pixel*Frame) : 0.090
Stream size : 1.41 GiB (88%)
Writing library : x265 2.8+12-9cde2c278464:[Windows][MSVC 1900][64 bit] 10bit
Encoding settings : cpuid=1111039 / frame-threads=3 / numa-pools=8 / wpp / no-pmode / no-pme / no-psnr / no-ssim / log-level=2 / input-csp=1 / input-res=1920x1080 / interlace=0 / total-frames=65400 / level-idc=0 / high-tier=1 / uhd-bd=0 / ref=4 / no-allow-non-conformance / no-repeat-headers / annexb / no-aud / no-hrd / info / hash=0 / no-temporal-layers / open-gop / min-keyint=25 / keyint=250 / gop-lookahead=0 / bframes=8 / b-adapt=2 / b-pyramid / bframe-bias=0 / rc-lookahead=80 / lookahead-slices=0 / scenecut=40 / radl=0 / no-intra-refresh / ctu=64 / min-cu-size=8 / no-rect / no-amp / max-tu-size=32 / tu-inter-depth=1 / tu-intra-depth=1 / limit-tu=0 / rdoq-level=2 / dynamic-rd=0.00 / no-ssim-rd / signhide / no-tskip / nr-intra=0 / nr-inter=0 / no-constrained-intra / no-strong-intra-smoothing / max-merge=3 / limit-refs=3 / limit-modes / me=3 / subme=5 / merange=57 / temporal-mvp / weightp / no-weightb / no-analyze-src-pics / deblock=-3:-3 / no-sao / no-sao-non-deblock / rd=4 / no-early-skip / rskip / no-fast-intra / no-tskip-fast / no-cu-lossless / no-b-intra / no-splitrd-skip / rdpenalty=0 / psy-rd=1.50 / psy-rdoq=1.20 / no-rd-refine / no-lossless / cbqpoffs=0 / crqpoffs=0 / rc=crf / crf=23.0 / qcomp=0.60 / qpstep=4 / stats-write=0 / stats-read=0 / ipratio=1.40 / pbratio=1.30 / aq-mode=3 / aq-strength=1.00 / cutree / zone-count=0 / no-strict-cbr / qg-size=32 / no-rc-grain / qpmax=69 / qpmin=0 / no-const-vbv / sar=0 / overscan=0 / videoformat=5 / range=0 / colorprim=2 / transfer=2 / colormatrix=2 / chromaloc=0 / display-window=0 / max-cll=0,0 / min-luma=0 / max-luma=1023 / log2-max-poc-lsb=8 / vui-timing-info / vui-hrd-info / slices=1 / no-opt-qp-pps / no-opt-ref-list-length-pps / no-multi-pass-opt-rps / scenecut-bias=0.05 / no-opt-cu-delta-qp / no-aq-motion / no-hdr / no-hdr-opt / no-dhdr10-opt / no-idr-recovery-sei / analysis-reuse-level=5 / scale-factor=0 / refine-intra=0 / refine-inter=0 / refine-mv=0 / no-limit-sao / ctu-info=0 / no-lowpass-dct / refine-mv-type=0 / copy-pic=1 / max-ausize-factor=1.0 / no-dynamic-refine / no-single-sei
Default : Yes
Forced : No

Audio #1
ID : 2
Format : AAC
Format/Info : Advanced Audio Codec
Format profile : LC
Codec ID : A_AAC
Duration : 43 min 36 s
Bit rate : 475 kb/s
Channel(s) : 6 channels
Channel positions : Front: L C R, Side: L R, LFE
Sampling rate : 48.0 kHz
Frame rate : 46.875 FPS (1024 spf)
Compression mode : Lossy
Delay relative to video : 20 ms
Stream size : 148 MiB (9%)
Language : English
Default : Yes
Forced : No

Audio #2
ID : 3
Format : AAC
Format/Info : Advanced Audio Codec
Format profile : LC
Codec ID : A_AAC
Duration : 43 min 36 s
Bit rate : 127 kb/s
Channel(s) : 2 channels
Channel positions : Front: L R
Sampling rate : 48.0 kHz
Frame rate : 46.875 FPS (1024 spf)
Compression mode : Lossy
Delay relative to video : 20 ms
Stream size : 39.7 MiB (2%)
Title : Commentary with Marcus Wilson, David Mason & Arthur Darvill
Default : No
Forced : No

Subtitle
ID : 4
Format : PGS
Muxing mode : zlib
Codec ID : S_HDMV/PGS
Codec ID/Info : Picture based subtitle format used on BDs/HD-DVDs
Duration : 43 min 24 s
Bit rate : 47.0 kb/s
Count of elements : 1580
Stream size : 14.6 MiB (1%)
Language : English
Default : No
Forced : No

Menu
00:00:00.000 : en:Chapter 01
00:04:50.800 : en:Chapter 02
00:09:50.240 : en:Chapter 03
00:14:24.600 : en:Chapter 04
00:20:42.960 : en:Chapter 05
00:24:54.240 : en:Chapter 06
00:28:45.400 : en:Chapter 07
00:31:51.040 : en:Chapter 08
00:35:37.960 : en:Chapter 09
00:38:54.320 : en:Chapter 10
00:40:05.000 : en:Chapter 11
00:42:26.080 : en:Chapter 12

Screens

Download

Season: Google Drive (20.19 GB)

Extras: Google Drive (7.18 GB)

Season 7

Doctor Who (2005) Season 7 S07 + Extras (1080p BluRay x265 HEVC 10bit AAC 5.1 Panda)

Files

Doctor Who (2005) Season 7 S07 + Extras (1080p BluRay x265 HEVC 10bit AAC 5.1 Panda)

  • Doctor Who (2005) – S00E47 – The Doctor, the Widow and the Wardrobe (1080p BluRay x265 Panda).mkv (1.6 GB)
  • Doctor Who (2005) – S00E66 – The Snowmen (1080p BluRay x265 Panda).mkv (2.0 GB)
  • Doctor Who (2005) – S00E83 – The Day of the Doctor (1080p BluRay x265 Panda).mkv (2.9 GB)
  • Doctor Who (2005) – S00E84 – The Time of the Doctor (1080p BluRay x265 Panda).mkv (1.6 GB)
  • Doctor Who (2005) – S07E01 – Asylum of the Daleks (1080p BluRay x265 Panda).mkv (1.2 GB)
  • Doctor Who (2005) – S07E02 – Dinosaurs on a Spaceship (1080p BluRay x265 Panda).mkv (1.5 GB)
  • Doctor Who (2005) – S07E03 – A Town Called Mercy (1080p BluRay x265 Panda).mkv (1.8 GB)
  • Doctor Who (2005) – S07E04 – The Power of Three (1080p BluRay x265 Panda).mkv (1.3 GB)
  • Doctor Who (2005) – S07E05 – The Angels Take Manhattan (1080p BluRay x265 Panda).mkv (1.2 GB)
  • Doctor Who (2005) – S07E06 – The Bells of St John (1080p BluRay x265 Panda).mkv (1.5 GB)
  • Doctor Who (2005) – S07E07 – The Rings of Akhaten (1080p BluRay x265 Panda).mkv (1.5 GB)
  • Doctor Who (2005) – S07E08 – Cold War (1080p BluRay x265 Panda).mkv (1.2 GB)
  • Doctor Who (2005) – S07E09 – Hide (1080p BluRay x265 Panda).mkv (1.6 GB)
  • Doctor Who (2005) – S07E10 – Journey to the Centre of the TARDIS (1080p BluRay x265 Panda).mkv (1.6 GB)
  • Doctor Who (2005) – S07E11 – The Crimson Horror (1080p BluRay x265 Panda).mkv (2.7 GB)
  • Doctor Who (2005) – S07E12 – Nightmare in Silver (1080p BluRay x265 Panda).mkv (1.1 GB)
  • Doctor Who (2005) – S07E13 – The Name of the Doctor (1080p BluRay x265 Panda).mkv (1.4 GB)

Featurettes

  • ‘The Best of the Companions’ Documentary.mkv (788.7 MB)
  • ‘The Best of the Doctor’ Documentary.mkv (913.2 MB)
  • ‘The Best of the Monsters’ Documentary.mkv (826.1 MB)
  • 50th Featurette – ‘Doctor Who – The Ultimate Guide’ Documentary.mkv (2.9 GB)
  • 50th Featurette – Deleted Scene.mkv (9.1 MB)
  • 50th Featurette – Doctor Who at the Proms (2013).mkv (1.9 GB)
  • 50th Featurette – Introduction – Strax.mkv (75.3 MB)
  • 50th Featurette – Introduction – The Doctor.mkv (29.4 MB)
  • 50th Featurette – Script to Screen – 50th Read Through.mkv (443.3 MB)
  • 50th Featurette – Tales from the TARDIS.mkv (705.2 MB)
  • 50th Featurette – The Night with the Stars – The Science of Doctor Who With Brian Cox.mkv (937.8 MB)
  • Behind The Scenes – The Last Days of the Ponds.mkv (381.4 MB)
  • Behind The Scenes – The Time of the Doctor.mkv (274.2 MB)
  • Behind The Scenes – The Day of the Doctor.mkv (401.6 MB)
  • Featurette – Clara and the TARDIS.mkv (27.2 MB)
  • Featurette – Creating Clara.mkv (215.6 MB)
  • Featurette – Doctor Who At Comic Con in 2012.mkv (56.8 MB)
  • Featurette – Doctor Who In The US.mkv (1.1 GB)
  • Featurette – Doctor Who The Companions.mkv (925.2 MB)
  • Featurette – Farewell to Matt Smith.mkv (1.2 GB)
  • Featurette – Good as Gold.mkv (16.0 MB)
  • Featurette – Rain Gods.mkv (74.7 MB)
  • Featurette – The Inforarium.mkv (44.1 MB)
  • Featurette – The Science of Doctor Who.mkv (929.4 MB)
  • Menu Art #1.mkv (14.9 MB)
  • Menu Art #2.mkv (19.0 MB)
  • Mini Episode – Pond Life.mkv (116.4 MB)
  • Mini Episode – The Last Day.mkv (182.1 MB)
  • Mini Episode – The Night of the Doctor.mkv (114.2 MB)
  • Prequel – S00E47 – The Doctor, the Widow and the Wardrobe.mkv (29.1 MB)
  • Prequel – S00E66 – The Snowmen – The Battle of Demon’s Run Two Days Later.mkv (69.3 MB)
  • Prequel – S00E66 – The Snowmen – The Great Detective.mkv (47.9 MB)
  • Prequel – S00E66 – The Snowmen – Vastra Investigates.mkv (39.7 MB)
  • Prequel – S07E01 – Asylum Of The Daleks.mkv (38.6 MB)
  • Prequel – S07E03 – A Town Called Mercy – The Making of the Gunslinger.mkv (19.9 MB)
  • Prequel – S07E06 – The Bells of Saint John.mkv (55.9 MB)
  • Prequel – S07E13 – The Name of the Doctor – Clarence and the Whispermen.mkv (27.0 MB)
  • Prequel – S07E13 – The Name of the Doctor – She Said, He Said.mkv (52.2 MB)
  • Trailer – 50th Anniversary Trailer.mkv (41.0 MB)
  • Trailer – Doctor Who – Season 6 Bluray.mkv (27.4 MB)
  • Trailer – Early 50th Anniversary Trailer.mkv (28.3 MB)
  • Trailer – Seasons 1-7 Bluray Box-Set.mkv (31.2 MB)

Doctor Who Confidential (2005) Season 7 S07 (1080p x265 HEVC 10bit AAC 5.1 Panda)

  • Doctor Who Confidential (2005) – S07E01 – Life Cycle of a Dalek (1080p x265 Panda).mkv (112.4 MB)
  • Doctor Who Confidential (2005) – S07E02 – Raptors, Robots and a Bumpy Ride (1080p x265 Panda).mkv (107.6 MB)
  • Doctor Who Confidential (2005) – S07E03 – Wild, Wild…Spain (1080p x265 Panda).mkv (156.7 MB)
  • Doctor Who Confidential (2005) – S07E04 – A Writer’s Tale (1080p x265 Panda).mkv (95.5 MB)
  • Doctor Who Confidential (2005) – S07E05 – A Fall with Grace (1080p x265 Panda).mkv (167.9 MB)
  • Doctor Who Confidential (2005) – S07E06 – Clara’s First Christmas (1080p x265 Panda).mkv (93.5 MB)
  • Doctor Who Confidential (2005) – S07E07 – Behind the Scenes of The Bells of Saint John (1080p x265 Panda).mkv (152.4 MB)
  • Doctor Who Confidential (2005) – S07E08 – Behind the Scenes of The Rings of Akhaten (1080p x265 Panda).mkv (91.8 MB)
  • Doctor Who Confidential (2005) – S07E09 – Behind the Scenes of Cold War (1080p x265 Panda).mkv (96.9 MB)
  • Doctor Who Confidential (2005) – S07E10 – Behind the Scenes of Hide (1080p x265 Panda).mkv (116.5 MB)
  • Doctor Who Confidential (2005) – S07E11 – Behind the Scenes of Journey to the Centre of the TARDIS (1080p x265 Panda).mkv (119.1 MB)
  • Doctor Who Confidential (2005) – S07E12 – Behind the Scenes of The Crimson Horror (1080p x265 Panda).mkv (139.9 MB)
  • Doctor Who Confidential (2005) – S07E13 – Behind the Scenes of Nightmare in Silver (1080p x265 Panda).mkv (94.2 MB)
  • Doctor Who Confidential (2005) – S07E14 – Behind the Scenes of The Name of the Doctor (1080p x265 Panda).mkv (125.4 MB)

Mediainfo

General
Format : Matroska
Format version : Version 4 / Version 2
File size : 1.17 GiB
Duration : 48 min 55 s
Overall bit rate : 3 430 kb/s
Encoded date : UTC 2018-09-20 14:12:39
Writing application : mkvmerge v26.0.0 ('In The Game') 64-bit
Writing library : libebml v1.3.6 + libmatroska v1.4.9
Cover : Yes
Attachments : cover.jpg
Writing frontend : StaxRip v1.7.0.6

Video
ID : 1
Format : HEVC
Format/Info : High Efficiency Video Coding
Format profile : Main [email protected]@Main
Codec ID : V_MPEGH/ISO/HEVC
Duration : 48 min 55 s
Bit rate : 2 780 kb/s
Width : 1 920 pixels
Height : 1 080 pixels
Display aspect ratio : 16:9
Frame rate mode : Constant
Frame rate : 25.000 FPS
Color space : YUV
Chroma subsampling : 4:2:0
Bit depth : 10 bits
Bits/(Pixel*Frame) : 0.054
Stream size : 973 MiB (81%)
Writing library : x265 2.8+12-9cde2c278464:[Windows][MSVC 1900][64 bit] 10bit
Encoding settings : cpuid=1111039 / frame-threads=3 / numa-pools=8 / wpp / no-pmode / no-pme / no-psnr / no-ssim / log-level=2 / input-csp=1 / input-res=1920x1080 / interlace=0 / total-frames=73375 / level-idc=0 / high-tier=1 / uhd-bd=0 / ref=4 / no-allow-non-conformance / no-repeat-headers / annexb / no-aud / no-hrd / info / hash=0 / no-temporal-layers / open-gop / min-keyint=25 / keyint=250 / gop-lookahead=0 / bframes=8 / b-adapt=2 / b-pyramid / bframe-bias=0 / rc-lookahead=80 / lookahead-slices=0 / scenecut=40 / radl=0 / no-intra-refresh / ctu=64 / min-cu-size=8 / no-rect / no-amp / max-tu-size=32 / tu-inter-depth=1 / tu-intra-depth=1 / limit-tu=0 / rdoq-level=2 / dynamic-rd=0.00 / no-ssim-rd / signhide / no-tskip / nr-intra=0 / nr-inter=0 / no-constrained-intra / no-strong-intra-smoothing / max-merge=3 / limit-refs=3 / limit-modes / me=3 / subme=5 / merange=57 / temporal-mvp / weightp / no-weightb / no-analyze-src-pics / deblock=-3:-3 / no-sao / no-sao-non-deblock / rd=4 / no-early-skip / rskip / no-fast-intra / no-tskip-fast / no-cu-lossless / no-b-intra / no-splitrd-skip / rdpenalty=0 / psy-rd=1.50 / psy-rdoq=1.20 / no-rd-refine / no-lossless / cbqpoffs=0 / crqpoffs=0 / rc=crf / crf=22.5 / qcomp=0.60 / qpstep=4 / stats-write=0 / stats-read=0 / ipratio=1.40 / pbratio=1.30 / aq-mode=3 / aq-strength=1.00 / cutree / zone-count=0 / no-strict-cbr / qg-size=32 / no-rc-grain / qpmax=69 / qpmin=0 / no-const-vbv / sar=0 / overscan=0 / videoformat=5 / range=0 / colorprim=2 / transfer=2 / colormatrix=2 / chromaloc=0 / display-window=0 / max-cll=0,0 / min-luma=0 / max-luma=1023 / log2-max-poc-lsb=8 / vui-timing-info / vui-hrd-info / slices=1 / no-opt-qp-pps / no-opt-ref-list-length-pps / no-multi-pass-opt-rps / scenecut-bias=0.05 / no-opt-cu-delta-qp / no-aq-motion / no-hdr / no-hdr-opt / no-dhdr10-opt / no-idr-recovery-sei / analysis-reuse-level=5 / scale-factor=0 / refine-intra=0 / refine-inter=0 / refine-mv=0 / no-limit-sao / ctu-info=0 / no-lowpass-dct / refine-mv-type=0 / copy-pic=1 / max-ausize-factor=1.0 / no-dynamic-refine / no-single-sei
Default : Yes
Forced : No

Audio #1
ID : 2
Format : AAC
Format/Info : Advanced Audio Codec
Format profile : LC
Codec ID : A_AAC
Duration : 48 min 54 s
Bit rate : 461 kb/s
Channel(s) : 6 channels
Channel positions : Front: L C R, Side: L R, LFE
Sampling rate : 48.0 kHz
Frame rate : 46.875 FPS (1024 spf)
Compression mode : Lossy
Delay relative to video : 20 ms
Stream size : 161 MiB (13%)
Language : English
Default : Yes
Forced : No

Audio #2
ID : 3
Format : AAC
Format/Info : Advanced Audio Codec
Format profile : LC
Codec ID : A_AAC
Duration : 48 min 54 s
Bit rate : 173 kb/s
Channel(s) : 2 channels
Channel positions : Front: L R
Sampling rate : 48.0 kHz
Frame rate : 46.875 FPS (1024 spf)
Compression mode : Lossy
Delay relative to video : 20 ms
Stream size : 60.4 MiB (5%)
Language : English
Default : No
Forced : No

Subtitle
ID : 4
Format : PGS
Muxing mode : zlib
Codec ID : S_HDMV/PGS
Codec ID/Info : Picture based subtitle format used on BDs/HD-DVDs
Duration : 48 min 19 s
Bit rate : 45.9 kb/s
Count of elements : 1660
Stream size : 15.9 MiB (1%)
Language : English
Default : No
Forced : No

Menu
00:00:00.000 : en:Chapter 01
00:06:35.000 : en:Chapter 02
00:09:47.720 : en:Chapter 03
00:14:24.160 : en:Chapter 04
00:16:50.160 : en:Chapter 05
00:21:53.280 : en:Chapter 06
00:23:11.840 : en:Chapter 07
00:26:11.400 : en:Chapter 08
00:30:57.000 : en:Chapter 09
00:34:47.600 : en:Chapter 10
00:40:44.800 : en:Chapter 11
00:48:21.760 : en:Chapter 12

Screens

Download

Season: Google Drive (27.60 GB)

Extras: Google Drive (17.60 GB)

Season 8

Doctor Who (2005) Season 8 S08 + Extras (1080p BluRay x265 HEVC 10bit AAC 5.1 Panda)

Files

Doctor Who (2005) Season 8 S08 + Extras (1080p BluRay x265 HEVC 10bit AAC 5.1 Panda)

  • Doctor Who (2005) – S08E10 – In the Forest of the Night (1080p BluRay x265 Panda).mkv (1.8 GB)
  • Doctor Who (2005) – S08E02 – Into the Dalek (1080p BluRay x265 Panda).mkv (1.4 GB)
  • Doctor Who (2005) – S08E03 – Robot of Sherwood (1080p BluRay x265 Panda).mkv (1.8 GB)
  • Doctor Who (2005) – S08E04 – Listen (1080p BluRay x265 Panda).mkv (1,007.1 MB)
  • Doctor Who (2005) – S08E05 – Time Heist (1080p BluRay x265 Panda).mkv (1.1 GB)
  • Doctor Who (2005) – S08E06 – The Caretaker (1080p BluRay x265 Panda).mkv (1.2 GB)
  • Doctor Who (2005) – S08E07 – Kill the Moon (1080p BluRay x265 Panda).mkv (1.2 GB)
  • Doctor Who (2005) – S08E08 – Mummy on the Orient Express (1080p BluRay x265 Panda).mkv (1.1 GB)
  • Doctor Who (2005) – S08E09 – Flatline (1080p BluRay x265 Panda).mkv (1.1 GB)
  • Doctor Who (2005) – S08E01 – Deep Breath (1080p BluRay x265 Panda).mkv (1.8 GB)
  • Doctor Who (2005) – S08E11 – Dark Water (1080p BluRay x265 Panda).mkv (1.1 GB)
  • Doctor Who (2005) – S08E12 – Death In Heaven (1080p BluRay x265 Panda).mkv (1.3 GB)

Featurettes

  • Doctor Who – Behind the Scenes – S08E01 – Deep Breath.mkv (269.9 MB)
  • Doctor Who – Behind the Scenes – S08E02 – Into The Dalek.mkv (238.5 MB)
  • Doctor Who – Behind the Scenes – S08E03 – Robot Of Sherwood.mkv (430.0 MB)
  • Doctor Who – Behind the Scenes – S08E04 – Listen.mkv (232.9 MB)
  • Doctor Who – Behind the Scenes – S08E05 – Time Heist.mkv (251.6 MB)
  • Doctor Who – Behind the Scenes – S08E06 – The Caretaker.mkv (258.3 MB)
  • Doctor Who – Behind the Scenes – S08E07 – Kill The Moon.mkv (463.9 MB)
  • Doctor Who – Behind the Scenes – S08E08 – Mummy On The Orient Express.mkv (222.2 MB)
  • Doctor Who – Behind the Scenes – S08E09 – Flatline.mkv (274.5 MB)
  • Doctor Who – Behind the Scenes – S08E10 – In The Forest Of The Night.mkv (362.8 MB)
  • Doctor Who – Behind the Scenes – S08E11 – Dark Water.mkv (300.3 MB)
  • Doctor Who – Behind the Scenes – S08E12 – Death In Heaven.mkv (309.9 MB)
  • Doctor Who – Prequel – Season 8 Strax.mkv (291.1 MB)
  • Doctor Who Live – The Next Doctor.mkv (1.0 GB)
  • Featurette – Casting Peter Capaldi.mkv (36.8 MB)
  • Featurette – Deep Breath Q&A.mkv (402.9 MB)
  • Featurette – Don’t Stop Me Now – Cover by The Foxes.mkv (48.2 MB)
  • Featurette – Earth Conquest – The World Tour.mkv (918.1 MB)
  • Featurette – Inside The New TARDIS.mkv (41.5 MB)
  • Featurette – The Five(ish) Doctors Reboot.mkv (826.1 MB)
  • Featurette – The Ultimate Companion.mkv (875.7 MB)
  • Featurette – The Ultimate Timelord.mkv (842.6 MB)
  • Featurette – What Is Doctor Who.mkv (34.1 MB)
  • Featurette – Why Watch Series 8.mkv (31.3 MB)
  • Featurette – Writing The New Series.mkv (28.0 MB)
  • Menu Art.mkv (29.2 MB)
  • The Real History of Science Fiction – Time Travel.mkv (711.7 MB)
  • Trailer – Season 8 – 30 Seconds.mkv (5.4 MB)
  • Trailer – Season 8 – 60 Seconds.mkv (11.6 MB)
  • Trailer – Season 8 – Eyes.mkv (3.4 MB)
  • Trailer – Season 8 – Heart.mkv (13.5 MB)

Mediainfo

General
Format : Matroska
Format version : Version 4 / Version 2
File size : 1.75 GiB
Duration : 1 h 16 min
Overall bit rate : 3 280 kb/s
Encoded date : UTC 2018-10-01 11:11:30
Writing application : mkvmerge v26.0.0 ('In The Game') 64-bit
Writing library : libebml v1.3.6 + libmatroska v1.4.9
Writing frontend : StaxRip v1.7.0.6

Video
ID : 1
Format : HEVC
Format/Info : High Efficiency Video Coding
Format profile : Main [email protected]@Main
Codec ID : V_MPEGH/ISO/HEVC
Duration : 1 h 16 min
Bit rate : 2 827 kb/s
Width : 1 920 pixels
Height : 1 080 pixels
Display aspect ratio : 16:9
Frame rate mode : Constant
Frame rate : 25.000 FPS
Color space : YUV
Chroma subsampling : 4:2:0
Bit depth : 10 bits
Bits/(Pixel*Frame) : 0.055
Stream size : 1.51 GiB (86%)
Writing library : x265 2.8+12-9cde2c278464:[Windows][MSVC 1900][64 bit] 10bit
Encoding settings : cpuid=1111039 / frame-threads=3 / numa-pools=8 / wpp / no-pmode / no-pme / no-psnr / no-ssim / log-level=2 / input-csp=1 / input-res=1920x1080 / interlace=0 / total-frames=114739 / level-idc=0 / high-tier=1 / uhd-bd=0 / ref=4 / no-allow-non-conformance / no-repeat-headers / annexb / no-aud / no-hrd / info / hash=0 / no-temporal-layers / open-gop / min-keyint=25 / keyint=250 / gop-lookahead=0 / bframes=8 / b-adapt=2 / b-pyramid / bframe-bias=0 / rc-lookahead=80 / lookahead-slices=0 / scenecut=40 / radl=0 / no-intra-refresh / ctu=64 / min-cu-size=8 / no-rect / no-amp / max-tu-size=32 / tu-inter-depth=1 / tu-intra-depth=1 / limit-tu=0 / rdoq-level=2 / dynamic-rd=0.00 / no-ssim-rd / signhide / no-tskip / nr-intra=0 / nr-inter=0 / no-constrained-intra / no-strong-intra-smoothing / max-merge=3 / limit-refs=3 / limit-modes / me=3 / subme=5 / merange=57 / temporal-mvp / weightp / no-weightb / no-analyze-src-pics / deblock=-3:-3 / no-sao / no-sao-non-deblock / rd=4 / no-early-skip / rskip / no-fast-intra / no-tskip-fast / no-cu-lossless / no-b-intra / no-splitrd-skip / rdpenalty=0 / psy-rd=1.50 / psy-rdoq=1.20 / no-rd-refine / no-lossless / cbqpoffs=0 / crqpoffs=0 / rc=crf / crf=21.5 / qcomp=0.60 / qpstep=4 / stats-write=0 / stats-read=0 / ipratio=1.40 / pbratio=1.30 / aq-mode=3 / aq-strength=1.00 / cutree / zone-count=0 / no-strict-cbr / qg-size=32 / no-rc-grain / qpmax=69 / qpmin=0 / no-const-vbv / sar=0 / overscan=0 / videoformat=5 / range=0 / colorprim=2 / transfer=2 / colormatrix=2 / chromaloc=0 / display-window=0 / max-cll=0,0 / min-luma=0 / max-luma=1023 / log2-max-poc-lsb=8 / vui-timing-info / vui-hrd-info / slices=1 / no-opt-qp-pps / no-opt-ref-list-length-pps / no-multi-pass-opt-rps / scenecut-bias=0.05 / no-opt-cu-delta-qp / no-aq-motion / no-hdr / no-hdr-opt / no-dhdr10-opt / no-idr-recovery-sei / analysis-reuse-level=5 / scale-factor=0 / refine-intra=0 / refine-inter=0 / refine-mv=0 / no-limit-sao / ctu-info=0 / no-lowpass-dct / refine-mv-type=0 / copy-pic=1 / max-ausize-factor=1.0 / no-dynamic-refine / no-single-sei
Default : Yes
Forced : No

Audio
ID : 2
Format : AAC
Format/Info : Advanced Audio Codec
Format profile : LC
Codec ID : A_AAC
Duration : 1 h 16 min
Bit rate : 439 kb/s
Channel(s) : 6 channels
Channel positions : Front: L C R, Side: L R, LFE
Sampling rate : 48.0 kHz
Frame rate : 46.875 FPS (1024 spf)
Compression mode : Lossy
Delay relative to video : 20 ms
Stream size : 240 MiB (13%)
Language : English
Default : Yes
Forced : No

Subtitle
ID : 3
Format : PGS
Muxing mode : zlib
Codec ID : S_HDMV/PGS
Codec ID/Info : Picture based subtitle format used on BDs/HD-DVDs
Duration : 1 h 15 min
Bit rate : 41.8 kb/s
Count of elements : 2236
Stream size : 22.7 MiB (1%)
Language : English
Default : No
Forced : No

Menu
00:00:00.000 : en:Chapter 01
00:06:36.920 : en:Chapter 02
00:11:46.600 : en:Chapter 03
00:17:35.040 : en:Chapter 04
00:23:57.200 : en:Chapter 05
00:32:50.320 : en:Chapter 06
00:40:21.840 : en:Chapter 07
00:48:53.680 : en:Chapter 08
00:56:33.200 : en:Chapter 09
00:59:21.440 : en:Chapter 10
01:06:50.880 : en:Chapter 11
01:15:23.880 : en:Chapter 12

Screens

Download

Season: Google Drive (15.73 GB)

Extras: Google Drive (9.61 GB)

Season 9

Doctor Who (2005) Season 9 S09 + Extras (1080p BluRay x265 HEVC 10bit AAC 5.1 Panda)

Files

Doctor Who (2005) Season 9 S09 + Extras (1080p BluRay x265 HEVC 10bit AAC 5.1 Panda)

  • Doctor Who (2005) – S00E142 – Last Christmas (1080p BluRay x265 Panda).mkv (1.8 GB)
  • Doctor Who (2005) – S00E148 – The Husbands of River Song (1080p BluRay x265 Panda).mkv (1.5 GB)
  • Doctor Who (2005) – S09E01 – The Magician’s Apprentice (1) (1080p BluRay x265 Panda).mkv (1,018.2 MB)
  • Doctor Who (2005) – S09E02 – The Witch’s Familiar (2) (1080p BluRay x265 Panda).mkv (1.1 GB)
  • Doctor Who (2005) – S09E03 – Under The Lake (1) (1080p BluRay x265 Panda).mkv (977.0 MB)
  • Doctor Who (2005) – S09E04 – Before The Flood (2) (1080p BluRay x265 Panda).mkv (872.4 MB)
  • Doctor Who (2005) – S09E05 – The Girl Who Died (1) (1080p BluRay x265 Panda).mkv (1.3 GB)
  • Doctor Who (2005) – S09E06 – The Woman Who Lived (2) (1080p BluRay x265 Panda).mkv (1.0 GB)
  • Doctor Who (2005) – S09E07 – The Zygon Invasion (1) (1080p BluRay x265 Panda).mkv (1.1 GB)
  • Doctor Who (2005) – S09E08 – The Zygon Inversion (2) (1080p BluRay x265 Panda).mkv (1.0 GB)
  • Doctor Who (2005) – S09E09 – Sleep No More (1080p BluRay x265 Panda).mkv (1,004.5 MB)
  • Doctor Who (2005) – S09E10 – Face The Raven (1080p BluRay x265 Panda).mkv (1.1 GB)
  • Doctor Who (2005) – S09E11 – Heaven Sent (1) (1080p BluRay x265 Panda).mkv (1.1 GB)
  • Doctor Who (2005) – S09E12 – Hell Bent (2) (1080p BluRay x265 Panda).mkv (1.3 GB)

Featurettes

  • Clara’s Journey!.mkv (315.8 MB)
  • Dalek Devotion.mkv (82.7 MB)
  • Deleted Scenes.mkv (356.3 MB)
  • Doctor Who – Sublime Online.mkv (563.6 MB)
  • Doctor Who – The Adventures of River Song.mkv (211.2 MB)
  • Doctor Who – Writing Who.mkv (280.5 MB)
  • Doctor Who Extra – The Husbands of River Song.mkv (428.8 MB)
  • Doctor Who Extra – Face the Raven.mkv (134.3 MB)
  • Doctor Who Extra – Heaven Sent & Hell Bent.mkv (229.6 MB)
  • Doctor Who Extra – Last Christmas.mkv (299.3 MB)
  • Doctor Who Extra – Sleep No More.mkv (135.0 MB)
  • Doctor Who Extra – The Girl Who Died & The Woman Who Lived.mkv (221.1 MB)
  • Doctor Who Extra – The Magician’s Apprentice & The Witch’s Familiar.mkv (129.3 MB)
  • Doctor Who Extra – The Zygon Invasion & The Zygon Inversion.mkv (187.9 MB)
  • Doctor Who Extra – Under the Lake & Before the Flood.mkv (185.3 MB)
  • Fan Show Finest.mkv (297.7 MB)
  • Menu Art #1.mkv (9.0 MB)
  • Menu Art #2.mkv (72.1 MB)
  • Prologue.mkv (13.7 MB)
  • San Diego Comic-Con Panel 2015.mkv (1.8 GB)
  • Season 8 Recap.mkv (46.5 MB)
  • Season 9 Prequel – The Doctor’s Meditation.mkv (95.0 MB)
  • Season 9 Trailers.mkv (107.6 MB)
  • Wil Wheaton Interviews Pet Capaldi and Jenna Coleman.mkv (539.3 MB)

Mediainfo

General
Format : Matroska
Format version : Version 4 / Version 2
File size : 1 018 MiB
Duration : 46 min 20 s
Overall bit rate : 3 072 kb/s
Encoded date : UTC 2018-10-04 13:54:15
Writing application : mkvmerge v26.0.0 ('In The Game') 64-bit
Writing library : libebml v1.3.6 + libmatroska v1.4.9
Cover : Yes
Attachments : cover.jpg
Writing frontend : StaxRip v1.7.0.6

Video
ID : 1
Format : HEVC
Format/Info : High Efficiency Video Coding
Format profile : Main [email protected]@Main
Codec ID : V_MPEGH/ISO/HEVC
Duration : 46 min 20 s
Bit rate : 2 586 kb/s
Width : 1 920 pixels
Height : 1 080 pixels
Display aspect ratio : 16:9
Frame rate mode : Constant
Frame rate : 25.000 FPS
Color space : YUV
Chroma subsampling : 4:2:0
Bit depth : 10 bits
Bits/(Pixel*Frame) : 0.050
Stream size : 857 MiB (84%)
Writing library : x265 2.8+12-9cde2c278464:[Windows][MSVC 1900][64 bit] 10bit
Encoding settings : cpuid=1111039 / frame-threads=3 / numa-pools=8 / wpp / no-pmode / no-pme / no-psnr / no-ssim / log-level=2 / input-csp=1 / input-res=1920x1080 / interlace=0 / total-frames=69519 / level-idc=0 / high-tier=1 / uhd-bd=0 / ref=4 / no-allow-non-conformance / no-repeat-headers / annexb / no-aud / no-hrd / info / hash=0 / no-temporal-layers / open-gop / min-keyint=25 / keyint=250 / gop-lookahead=0 / bframes=8 / b-adapt=2 / b-pyramid / bframe-bias=0 / rc-lookahead=80 / lookahead-slices=0 / scenecut=40 / radl=0 / no-intra-refresh / ctu=64 / min-cu-size=8 / no-rect / no-amp / max-tu-size=32 / tu-inter-depth=1 / tu-intra-depth=1 / limit-tu=0 / rdoq-level=2 / dynamic-rd=0.00 / no-ssim-rd / signhide / no-tskip / nr-intra=0 / nr-inter=0 / no-constrained-intra / no-strong-intra-smoothing / max-merge=3 / limit-refs=3 / limit-modes / me=3 / subme=5 / merange=57 / temporal-mvp / weightp / no-weightb / no-analyze-src-pics / deblock=-3:-3 / no-sao / no-sao-non-deblock / rd=4 / no-early-skip / rskip / no-fast-intra / no-tskip-fast / no-cu-lossless / no-b-intra / no-splitrd-skip / rdpenalty=0 / psy-rd=1.50 / psy-rdoq=1.20 / no-rd-refine / no-lossless / cbqpoffs=0 / crqpoffs=0 / rc=crf / crf=21.5 / qcomp=0.60 / qpstep=4 / stats-write=0 / stats-read=0 / ipratio=1.40 / pbratio=1.30 / aq-mode=3 / aq-strength=1.00 / cutree / zone-count=0 / no-strict-cbr / qg-size=32 / no-rc-grain / qpmax=69 / qpmin=0 / no-const-vbv / sar=0 / overscan=0 / videoformat=5 / range=0 / colorprim=2 / transfer=2 / colormatrix=2 / chromaloc=0 / display-window=0 / max-cll=0,0 / min-luma=0 / max-luma=1023 / log2-max-poc-lsb=8 / vui-timing-info / vui-hrd-info / slices=1 / no-opt-qp-pps / no-opt-ref-list-length-pps / no-multi-pass-opt-rps / scenecut-bias=0.05 / no-opt-cu-delta-qp / no-aq-motion / no-hdr / no-hdr-opt / no-dhdr10-opt / no-idr-recovery-sei / analysis-reuse-level=5 / scale-factor=0 / refine-intra=0 / refine-inter=0 / refine-mv=0 / no-limit-sao / ctu-info=0 / no-lowpass-dct / refine-mv-type=0 / copy-pic=1 / max-ausize-factor=1.0 / no-dynamic-refine / no-single-sei
Default : Yes
Forced : No

Audio
ID : 2
Format : AAC
Format/Info : Advanced Audio Codec
Format profile : LC
Codec ID : A_AAC
Duration : 46 min 20 s
Bit rate : 470 kb/s
Channel(s) : 6 channels
Channel positions : Front: L C R, Side: L R, LFE
Sampling rate : 48.0 kHz
Frame rate : 46.875 FPS (1024 spf)
Compression mode : Lossy
Delay relative to video : 20 ms
Stream size : 156 MiB (15%)
Language : English
Default : Yes
Forced : No

Subtitle
ID : 3
Format : PGS
Muxing mode : zlib
Codec ID : S_HDMV/PGS
Codec ID/Info : Picture based subtitle format used on BDs/HD-DVDs
Duration : 46 min 6 s
Bit rate : 40.6 kb/s
Count of elements : 1564
Stream size : 13.4 MiB (1%)
Language : English
Default : No
Forced : No

Menu
00:00:00.000 : en:Chapter 01
00:05:51.360 : en:Chapter 02
00:09:36.240 : en:Chapter 03
00:13:02.200 : en:Chapter 04
00:16:31.760 : en:Chapter 05
00:21:08.440 : en:Chapter 06
00:25:40.000 : en:Chapter 07
00:30:13.160 : en:Chapter 08
00:34:06.320 : en:Chapter 09
00:37:07.080 : en:Chapter 10
00:40:30.120 : en:Chapter 11
00:45:24.200 : en:Chapter 12

Screens

Download

Season: Google Drive (16.63 GB)

Extras: Google Drive (6.62 GB)

Season 10

Doctor Who (2005) Season 10 S10 + Extras (1080p BluRay x265 HEVC 10bit AAC 5.1 Panda)

Files

Doctor Who (2005) Season 10 S10 + Extras (1080p BluRay x265 HEVC 10bit AAC 5.1 Panda)

  • Doctor Who (2005) – S10E12 – The Doctor Falls (1080p BluRay x265 Panda).mkv (1.9 GB)
  • Doctor Who (2005) – S00E154 – Twice Upon A Time (1080p BluRay x265 Panda).mkv (1.8 GB)
  • Doctor Who (2005) – S10E01 – The Pilot (1080p BluRay x265 Panda).mkv (1.3 GB)
  • Doctor Who (2005) – S10E02 – Smile (1080p BluRay x265 Panda).mkv (1.3 GB)
  • Doctor Who (2005) – S10E03 – Thin Ice (1080p BluRay x265 Panda).mkv (1.0 GB)
  • Doctor Who (2005) – S10E04 – Knock Knock (1080p BluRay x265 Panda).mkv (904.8 MB)
  • Doctor Who (2005) – S10E05 – Oxygen (1080p BluRay x265 Panda).mkv (1.2 GB)
  • Doctor Who (2005) – S10E06 – Extremis (1080p BluRay x265 Panda).mkv (1.1 GB)
  • Doctor Who (2005) – S10E07 – The Pyramid at the End of the World (1080p BluRay x265 Panda).mkv (1.0 GB)
  • Doctor Who (2005) – S10E08 – The Lie of the Land (1080p BluRay x265 Panda).mkv (939.6 MB)
  • Doctor Who (2005) – S10E09 – Empress of Mars (1080p BluRay x265 Panda).mkv (1.0 GB)
  • Doctor Who (2005) – S10E10 – The Eaters of Light (1080p BluRay x265 Panda).mkv (950.7 MB)
  • Doctor Who (2005) – S10E11 – World Enough and Time (1080p BluRay x265 Panda).mkv (1.0 GB)
  • Doctor Who (2005) – S00E149 – The Return of Doctor Mysterio (1080p BluRay x265 Panda).mkv (1.6 GB)

Featurettes

  • Deleted Scenes – Season 10.mkv (166.5 MB)
  • Doctor Who – Inside Look – S10E01 – The Pilot.mkv (53.2 MB)
  • Doctor Who – Inside Look – S10E02 – Smile.mkv (45.9 MB)
  • Doctor Who – Inside Look – S10E03 – Thin Ice.mkv (44.9 MB)
  • Doctor Who – Inside Look – S10E04 – Knock Knock.mkv (43.7 MB)
  • Doctor Who – Inside Look – S10E05 – Oxygen.mkv (41.2 MB)
  • Doctor Who – Inside Look – S10E06 – Extremis.mkv (48.6 MB)
  • Doctor Who – Inside Look – S10E07 – The Pyramid at the End of the World.mkv (49.2 MB)
  • Doctor Who – Inside Look – S10E08 – The Lie of the Land.mkv (44.1 MB)
  • Doctor Who – Inside Look – S10E09 – Empress of Mars.mkv (38.9 MB)
  • Doctor Who – Inside Look – S10E10 – The Eaters of Light.mkv (51.5 MB)
  • Doctor Who – Inside Look – S10E11 – World Enough and Time.mkv (37.2 MB)
  • Doctor Who – Inside Look – S10E12 – The Doctor Falls.mkv (45.0 MB)
  • Doctor Who – The Fan Show – Ep. 2.mkv (386.7 MB)
  • Doctor Who – The Fan Show – Ep. 3.mkv (761.2 MB)
  • Doctor Who – The Fan Show – Ep. 4.mkv (406.2 MB)
  • Doctor Who – The Fan Show – Ep. 5.mkv (436.7 MB)
  • Doctor Who – The Fan Show – Ep. 6.mkv (272.2 MB)
  • Doctor Who – The Fan Show – Ep. 7.mkv (358.8 MB)
  • Doctor Who – The Fan Show – Ep. 8.mkv (332.3 MB)
  • Doctor Who – The Fan Show – Ep. 9.mkv (988.5 MB)
  • Doctor Who – The Fan Show – Ep. 10.mkv (449.0 MB)
  • Doctor Who – The Fan Show – Ep. 11.mkv (365.8 MB)
  • Doctor Who – The Fan Show – Ep. 12.mkv (744.4 MB)
  • Featurette – … Who’s There.mkv (198.0 MB)
  • Featurette – Becoming the Companion.mkv (231.4 MB)
  • Featurette – Doctor Who Extra – Rona Munro – A Modern Classic.mkv (170.2 MB)
  • Featurette – Doctor Who Extra – The Final Countdown.mkv (677.0 MB)
  • Featurette – Doctor Who Extra – The Finale Falls.mkv (396.8 MB)
  • Featurette – Doctor Who Extra – Twice Upon a Time.mkv (377.6 MB)
  • Featurette – Out of this World.mkv (206.5 MB)
  • Featurette – S00E149 – The Return of Doctor Mysterio.mkv (474.0 MB)
  • Featurette – Smiley Face, Sad Face.mkv (231.8 MB)
  • Featurette – The Doctor – A New Kind of Hero.mkv (110.5 MB)
  • Featurette – The End of an Era.mkv (365.7 MB)
  • Menu Art.mkv (208.1 MB)

Mediainfo

General
Format : Matroska
Format version : Version 4 / Version 2
File size : 1.30 GiB
Duration : 50 min 4 s
Overall bit rate : 3 706 kb/s
Encoded date : UTC 2018-10-13 16:26:43
Writing application : mkvmerge v26.0.0 ('In The Game') 64-bit
Writing library : libebml v1.3.6 + libmatroska v1.4.9
Writing frontend : StaxRip v1.7.0.6

Video
ID : 1
Format : HEVC
Format/Info : High Efficiency Video Coding
Format profile : Main [email protected]@Main
Codec ID : V_MPEGH/ISO/HEVC
Duration : 49 min 43 s
Bit rate : 3 140 kb/s
Width : 1 920 pixels
Height : 1 080 pixels
Display aspect ratio : 16:9
Frame rate mode : Constant
Frame rate : 25.000 FPS
Color space : YUV
Chroma subsampling : 4:2:0
Bit depth : 10 bits
Bits/(Pixel*Frame) : 0.061
Stream size : 1.09 GiB (84%)
Writing library : x265 2.8+12-9cde2c278464:[Windows][MSVC 1900][64 bit] 10bit
Encoding settings : cpuid=1111039 / frame-threads=3 / numa-pools=8 / wpp / no-pmode / no-pme / no-psnr / no-ssim / log-level=2 / input-csp=1 / input-res=1920x1080 / interlace=0 / total-frames=74575 / level-idc=0 / high-tier=1 / uhd-bd=0 / ref=4 / no-allow-non-conformance / no-repeat-headers / annexb / no-aud / no-hrd / info / hash=0 / no-temporal-layers / open-gop / min-keyint=25 / keyint=250 / gop-lookahead=0 / bframes=8 / b-adapt=2 / b-pyramid / bframe-bias=0 / rc-lookahead=80 / lookahead-slices=0 / scenecut=40 / radl=0 / no-intra-refresh / ctu=64 / min-cu-size=8 / no-rect / no-amp / max-tu-size=32 / tu-inter-depth=1 / tu-intra-depth=1 / limit-tu=0 / rdoq-level=2 / dynamic-rd=0.00 / no-ssim-rd / signhide / no-tskip / nr-intra=0 / nr-inter=0 / no-constrained-intra / no-strong-intra-smoothing / max-merge=3 / limit-refs=3 / limit-modes / me=3 / subme=5 / merange=57 / temporal-mvp / weightp / no-weightb / no-analyze-src-pics / deblock=-3:-3 / no-sao / no-sao-non-deblock / rd=4 / no-early-skip / rskip / no-fast-intra / no-tskip-fast / no-cu-lossless / no-b-intra / no-splitrd-skip / rdpenalty=0 / psy-rd=2.00 / psy-rdoq=1.70 / no-rd-refine / no-lossless / cbqpoffs=0 / crqpoffs=0 / rc=crf / crf=21.5 / qcomp=0.60 / qpstep=4 / stats-write=0 / stats-read=0 / ipratio=1.40 / pbratio=1.30 / aq-mode=3 / aq-strength=1.00 / cutree / zone-count=0 / no-strict-cbr / qg-size=32 / no-rc-grain / qpmax=69 / qpmin=0 / no-const-vbv / sar=0 / overscan=0 / videoformat=5 / range=0 / colorprim=2 / transfer=2 / colormatrix=2 / chromaloc=0 / display-window=0 / max-cll=0,0 / min-luma=0 / max-luma=1023 / log2-max-poc-lsb=8 / vui-timing-info / vui-hrd-info / slices=1 / no-opt-qp-pps / no-opt-ref-list-length-pps / no-multi-pass-opt-rps / scenecut-bias=0.05 / no-opt-cu-delta-qp / no-aq-motion / no-hdr / no-hdr-opt / no-dhdr10-opt / no-idr-recovery-sei / analysis-reuse-level=5 / scale-factor=0 / refine-intra=0 / refine-inter=0 / refine-mv=0 / no-limit-sao / ctu-info=0 / no-lowpass-dct / refine-mv-type=0 / copy-pic=1 / max-ausize-factor=1.0 / no-dynamic-refine / no-single-sei
Default : Yes
Forced : No

Audio #1
ID : 2
Format : AAC
Format/Info : Advanced Audio Codec
Format profile : LC
Codec ID : A_AAC
Duration : 49 min 42 s
Bit rate : 445 kb/s
Channel(s) : 6 channels
Channel positions : Front: L C R, Side: L R, LFE
Sampling rate : 48.0 kHz
Frame rate : 46.875 FPS (1024 spf)
Compression mode : Lossy
Delay relative to video : 20 ms
Stream size : 158 MiB (12%)
Language : English
Default : Yes
Forced : No

Audio #2
ID : 3
Format : AAC
Format/Info : Advanced Audio Codec
Format profile : LC
Codec ID : A_AAC
Duration : 50 min 4 s
Bit rate : 132 kb/s
Channel(s) : 2 channels
Channel positions : Front: L R
Sampling rate : 48.0 kHz
Frame rate : 46.875 FPS (1024 spf)
Compression mode : Lossy
Delay relative to video : 20 ms
Stream size : 46.7 MiB (4%)
Title : Commentary with Pearl Mackie and Steven Moffat
Language : English
Default : No
Forced : No

Subtitle
ID : 4
Format : PGS
Muxing mode : zlib
Codec ID : S_HDMV/PGS
Codec ID/Info : Picture based subtitle format used on BDs/HD-DVDs
Duration : 49 min 8 s
Bit rate : 39.6 kb/s
Count of elements : 1486
Stream size : 13.9 MiB (1%)
Language : English
Default : No
Forced : No

Menu
00:00:00.000 : en:Chapter 1
00:05:04.760 : en:Chapter 2
00:08:07.600 : en:Chapter 3
00:12:49.960 : en:Chapter 4
00:16:48.280 : en:Chapter 5
00:20:46.000 : en:Chapter 6
00:25:20.600 : en:Chapter 7
00:28:47.680 : en:Chapter 8
00:33:51.320 : en:Chapter 9
00:37:32.840 : en:Chapter 10
00:44:39.880 : en:Chapter 11
00:49:10.200 : en:Chapter 12

Screens

Download

Season: Google Drive (17.06 GB)

Extras: Google Drive (9.63 GB)

Season 11

Doctor Who (2005) Season 11 S11 (1080p BluRay x265 HEVC 10bit AAC 5.1 Panda)

Files

Doctor Who (2005) Season 11 S11 (1080p BluRay x265 HEVC 10bit AAC 5.1 Panda)

  • Doctor Who (2005) – S00E156 – Resolution (1080p BluRay x265 Panda).mkv (1.2 GB)
  • Doctor Who (2005) – S11E01 – The Woman Who Fell to Earth (1080p BluRay x265 Panda).mkv (1.4 GB)
  • Doctor Who (2005) – S11E02 – The Ghost Monument (1080p BluRay x265 Panda).mkv (1.3 GB)
  • Doctor Who (2005) – S11E03 – Rosa (1080p BluRay x265 Panda).mkv (1.3 GB)
  • Doctor Who (2005) – S11E04 – Arachnids in the UK (1080p BluRay x265 Panda).mkv (1.2 GB)
  • Doctor Who (2005) – S11E05 – The Tsuranga Conundrum (1080p BluRay x265 Panda).mkv (1.5 GB)
  • Doctor Who (2005) – S11E06 – Demons of the Punjab (1080p BluRay x265 Panda).mkv (1.4 GB)
  • Doctor Who (2005) – S11E07 – Kerblam! (1080p BluRay x265 Panda).mkv (1.6 GB)
  • Doctor Who (2005) – S11E08 – The Witchfinders (1080p BluRay x265 Panda).mkv (1.4 GB)
  • Doctor Who (2005) – S11E09 – It Takes You Away (1080p BluRay x265 Panda).mkv (1.2 GB)
  • Doctor Who (2005) – S11E10 – The Battle of Ranskoor Av Kolos (1080p BluRay x265 Panda).mkv (1.2 GB)

Featurettes

  • Doctor Who Closer Look – S11E01 – The Woman Who Fell to Earth.mkv (49.8 MB)
  • Doctor Who Closer Look – S11E02 – The Ghost Monument.mkv (62.2 MB)
  • Doctor Who Closer Look – S11E03 – Rosa.mkv (58.9 MB)
  • Doctor Who Closer Look – S11E04 – Arachnids in the UK.mkv (45.6 MB)
  • Doctor Who Closer Look – S11E05 – The Tsuranga Conundrum.mkv (52.3 MB)
  • Doctor Who Closer Look – S11E06 – Demons of the Punjab.mkv (93.1 MB)
  • Doctor Who Closer Look – S11E07 – Kerblam.mkv (58.2 MB)
  • Doctor Who Closer Look – S11E08 – The Witchfinders.mkv (76.6 MB)
  • Doctor Who Closer Look – S11E09 – It Takes You Away.mkv (37.4 MB)
  • Doctor Who Closer Look – S11E10 – The Battle of Ransoor Av Kolos.mkv (59.9 MB)
  • Featurettes – Becoming the Doctor.mkv (115.2 MB)
  • Featurettes – Best of Social.mkv (86.1 MB)
  • Featurettes – Directing Doctor Who.mkv (81.7 MB)
  • Featurettes – Everything You Need to Know About the New TARDIS.mkv (45.8 MB)
  • Featurettes – Friends of the Doctor.mkv (13.2 MB)
  • Featurettes – Making the Theme Tune.mkv (65.9 MB)
  • Featurettes – Regenerating Doctor Who.mkv (88.0 MB)
  • Menu Art 1.mkv (8.8 MB)
  • Menu Art 2.mkv (26.0 MB)
  • Resolution – A Dalek Re-formed.mkv (85.5 MB)
  • Resolution – Behind the Scenes.mkv (159.6 MB)
  • Resolution – Closer Look Festive Special.mkv (49.6 MB)
  • Resolution – Series 11 Logo Animation.mkv (9.8 MB)
  • Resolution – Series 11 Look Back.mkv (149.4 MB)
  • Video Diaries – Bradley on a Train.mkv (12.4 MB)
  • Video Diaries – Mandip’s South African Diary.mkv (25.7 MB)

Mediainfo

General
Format : Matroska
File Size : 1.34 GiB
Duration : 48 min 51 s
Overall Bit Rate : 3916 kb/s

Video
Format : HEVC
Format Profile : Main [email protected]@Main
Bit Rate : 3468 kb/s
Dimensions : 1920 pixels x 960 pixels
Display Aspect Ratio : 2.000
Frame Rate : 25.000 FPS
Writing Library : x265 2.8+12-9cde2c278464:[Windows][MSVC 1900][64 bit] 10bit
Encoding Settings : cpuid=1111039 / frame-threads=3 / numa-pools=8 / wpp / no-pmode / no-pme / no-psnr / no-ssim / log-level=2 / input-csp=1 / input-res=1920x960 / interlace=0 / total-frames=73275 / level-idc=0 / high-tier=1 / uhd-bd=0 / ref=4 / no-allow-non-conformance / no-repeat-headers / annexb / no-aud / no-hrd / info / hash=0 / no-temporal-layers / open-gop / min-keyint=25 / keyint=250 / gop-lookahead=0 / bframes=8 / b-adapt=2 / b-pyramid / bframe-bias=0 / rc-lookahead=80 / lookahead-slices=0 / scenecut=40 / radl=0 / no-intra-refresh / ctu=64 / min-cu-size=8 / no-rect / no-amp / max-tu-size=32 / tu-inter-depth=1 / tu-intra-depth=1 / limit-tu=0 / rdoq-level=2 / dynamic-rd=0.00 / no-ssim-rd / signhide / no-tskip / nr-intra=0 / nr-inter=0 / no-constrained-intra / no-strong-intra-smoothing / max-merge=3 / limit-refs=3 / limit-modes / me=3 / subme=5 / merange=57 / temporal-mvp / weightp / no-weightb / no-analyze-src-pics / deblock=-3:-3 / no-sao / no-sao-non-deblock / rd=4 / no-early-skip / rskip / no-fast-intra / no-tskip-fast / no-cu-lossless / no-b-intra / no-splitrd-skip / rdpenalty=0 / psy-rd=2.00 / psy-rdoq=1.70 / no-rd-refine / no-lossless / cbqpoffs=0 / crqpoffs=0 / rc=crf / crf=21.5 / qcomp=0.60 / qpstep=4 / stats-write=0 / stats-read=0 / ipratio=1.40 / pbratio=1.30 / aq-mode=3 / aq-strength=1.00 / cutree / zone-count=0 / no-strict-cbr / qg-size=32 / no-rc-grain / qpmax=69 / qpmin=0 / no-const-vbv / sar=0 / overscan=0 / videoformat=5 / range=0 / colorprim=2 / transfer=2 / colormatrix=2 / chromaloc=0 / display-window=0 / max-cll=0,0 / min-luma=0 / max-luma=1023 / log2-max-poc-lsb=8 / vui-timing-info / vui-hrd-info / slices=1 / no-opt-qp-pps / no-opt-ref-list-length-pps / no-multi-pass-opt-rps / scenecut-bias=0.05 / no-opt-cu-delta-qp / no-aq-motion / no-hdr / no-hdr-opt / no-dhdr10-opt / no-idr-recovery-sei / analysis-reuse-level=5 / scale-factor=0 / refine-intra=0 / refine-inter=0 / refine-mv=0 / no-limit-sao / ctu-info=0 / no-lowpass-dct / refine-mv-type=0 / copy-pic=1 / max-ausize-factor=1.0 / no-dynamic-refine / no-single-sei

Audio #1 : English / AAC / 6 channels / 430 kb/s

Subtitle #1 : English / PGS / 51.8 kb/s

Chapters
00:00:00.000 : en:Chapter 1
00:00:36.480 : en:Chapter 2
00:05:07.000 : en:Chapter 3
00:10:38.920 : en:Chapter 4
00:17:03.760 : en:Chapter 5
00:20:33.840 : en:Chapter 6
00:24:52.440 : en:Chapter 7
00:31:04.280 : en:Chapter 8
00:38:35.560 : en:Chapter 9
00:40:51.520 : en:Chapter 10
00:45:50.600 : en:Chapter 11
00:48:05.000 : en:Chapter 12

Download

Season: Google Drive (14.68 GB)

Extras: Google Drive (1.58 GB)

Season 12

Doctor Who (2005) Season 12 S12 (1080p BluRay x265 HEVC 10bit AAC 5.1 Panda)

Files

Doctor Who (2005) Season 12 S12 (1080p BluRay x265 HEVC 10bit AAC 5.1 Panda)

  • Doctor Who (2005) – S12E01 – Spyfall (1) (1080p BluRay x265 Panda).mkv (1.6 GB)
  • Doctor Who (2005) – S12E02 – Spyfall (2) (1080p BluRay x265 Panda).mkv (1.5 GB)
  • Doctor Who (2005) – S12E03 – Orphan 55 (1080p BluRay x265 Panda).mkv (1.5 GB)
  • Doctor Who (2005) – S12E04 – Nikola Tesla’s Night of Terror (1080p BluRay x265 Panda).mkv (1.1 GB)
  • Doctor Who (2005) – S12E05 – Fugitive of the Judoon (1080p BluRay x265 Panda).mkv (1.1 GB)
  • Doctor Who (2005) – S12E06 – Praxeus (1080p BluRay x265 Panda).mkv (1.3 GB)
  • Doctor Who (2005) – S12E07 – Can You Hear Me (1080p BluRay x265 Panda).mkv (1.0 GB)
  • Doctor Who (2005) – S12E08 – The Haunting of Villa Diodati (1080p BluRay x265 Panda).mkv (1.2 GB)
  • Doctor Who (2005) – S12E09 – Ascension of the Cybermen (1080p BluRay x265 Panda).mkv (1.3 GB)
  • Doctor Who (2005) – S12E10 – The Timeless Children (1080p BluRay x265 Panda).mkv (1.6 GB)

Featurettes

  • Doctor Who Closer Look – S12E01 – Spyfall Part 1.mkv (74.8 MB)
  • Doctor Who Closer Look – S12E02 – Spyfall Part 2.mkv (42.2 MB)
  • Doctor Who Closer Look – S12E03 – Orphan 55.mkv (43.3 MB)
  • Doctor Who Closer Look – S12E04 – Nikola Tesla’s Night of Terror.mkv (39.3 MB)
  • Doctor Who Closer Look – S12E05 – Fugitive of the Judoon.mkv (45.5 MB)
  • Doctor Who Closer Look – S12E06 – Praxeus.mkv (50.2 MB)
  • Doctor Who Closer Look – S12E07 – Can You Hear Me.mkv (47.2 MB)
  • Doctor Who Closer Look – S12E08 – The Haunting of Vila Diodati.mkv (44.6 MB)
  • Doctor Who Closer Look – S12E09 – Ascension of the Cybermen.mkv (86.7 MB)
  • Doctor Who Closer Look – S12E10 – The Timeless Children.mkv (44.9 MB)
  • Season 12 Preview.mkv (7.1 MB)

Mediainfo

General
Format : Matroska
File Size : 1.57 GiB
Duration : 59 min 49 s
Overall Bit Rate : 3764 kb/s

Video
Format : HEVC
Format Profile : Main [email protected]@Main
Bit Rate : 3114 kb/s
Dimensions : 1920 pixels x 960 pixels
Display Aspect Ratio : 2.000
Frame Rate : 25.000 FPS
Writing Library : x265 3.3+10-g08d895bb6:[Windows][GCC 10.0.1][64 bit] 10bit
Encoding Settings : cpuid=1111039 / frame-threads=5 / numa-pools=32 / wpp / no-pmode / no-pme / no-psnr / no-ssim / log-level=2 / input-csp=1 / input-res=1920x960 / interlace=0 / total-frames=89740 / level-idc=0 / high-tier=1 / uhd-bd=0 / ref=4 / no-allow-non-conformance / no-repeat-headers / annexb / no-aud / no-hrd / info / hash=0 / no-temporal-layers / open-gop / min-keyint=25 / keyint=250 / gop-lookahead=0 / bframes=8 / b-adapt=2 / b-pyramid / bframe-bias=0 / rc-lookahead=80 / lookahead-slices=0 / scenecut=40 / hist-scenecut=0 / radl=0 / no-splice / no-intra-refresh / ctu=64 / min-cu-size=8 / no-rect / no-amp / max-tu-size=32 / tu-inter-depth=1 / tu-intra-depth=1 / limit-tu=0 / rdoq-level=2 / dynamic-rd=0.00 / no-ssim-rd / signhide / no-tskip / nr-intra=0 / nr-inter=0 / no-constrained-intra / no-strong-intra-smoothing / max-merge=3 / limit-refs=3 / limit-modes / me=3 / subme=5 / merange=57 / temporal-mvp / no-frame-dup / no-hme / weightp / no-weightb / no-analyze-src-pics / deblock=-3:-3 / no-sao / no-sao-non-deblock / rd=4 / selective-sao=0 / no-early-skip / rskip / no-fast-intra / no-tskip-fast / no-cu-lossless / no-b-intra / no-splitrd-skip / rdpenalty=0 / psy-rd=2.00 / psy-rdoq=1.00 / no-rd-refine / no-lossless / cbqpoffs=0 / crqpoffs=0 / rc=crf / crf=20.0 / qcomp=0.60 / qpstep=4 / stats-write=0 / stats-read=0 / ipratio=1.40 / pbratio=1.30 / aq-mode=3 / aq-strength=1.00 / cutree / zone-count=0 / no-strict-cbr / qg-size=32 / no-rc-grain / qpmax=69 / qpmin=0 / no-const-vbv / sar=0 / overscan=0 / videoformat=5 / range=0 / colorprim=2 / transfer=2 / colormatrix=2 / chromaloc=0 / display-window=0 / cll=0,0 / min-luma=0 / max-luma=1023 / log2-max-poc-lsb=8 / vui-timing-info / vui-hrd-info / slices=1 / no-opt-qp-pps / no-opt-ref-list-length-pps / no-multi-pass-opt-rps / scenecut-bias=0.05 / hist-threshold=0.01 / no-opt-cu-delta-qp / no-aq-motion / no-hdr10 / no-hdr10-opt / no-dhdr10-opt / no-idr-recovery-sei / analysis-reuse-level=0 / analysis-save-reuse-level=0 / analysis-load-reuse-level=0 / scale-factor=0 / refine-intra=0 / refine-inter=0 / refine-mv=1 / refine-ctu-distortion=0 / no-limit-sao / ctu-info=0 / no-lowpass-dct / refine-analysis-type=0 / copy-pic=1 / max-ausize-factor=1.0 / no-dynamic-refine / no-single-sei / no-hevc-aq / no-svt / no-field / qp-adaptation-range=1.00 / no-scenecut-aware-qpconformance-window-offsets / right=0 / bottom=0 / decoder-max-rate=0

Audio #1 : English / AAC LC / 6 channels / 475 kb/s
Audio #2 : English / AAC LC / 2 channels / 157 kb/s

Subtitle #1 : English / PGS / 54.9 kb/s

Chapters
00:00:00.000 : en:Chapter 1
00:06:10.640 : en:Chapter 2
00:10:08.920 : en:Chapter 3
00:15:49.240 : en:Chapter 4
00:20:06.320 : en:Chapter 5
00:25:43.000 : en:Chapter 6
00:29:22.720 : en:Chapter 7
00:33:57.120 : en:Chapter 8
00:39:38.400 : en:Chapter 9
00:44:23.720 : en:Chapter 10
00:49:04.080 : en:Chapter 11
00:59:03.440 : en:Chapter 12

Screens

Download

Season: Google Drive (13.51 GB)

Extras: Google Drive (0.52 GB)

14 thoughts on “Doctor Who (2005) Season 1-12 + Extras (1080p BluRay x265 HEVC 10bit AAC 5.1 Panda)

  1. trying to download files but I get the quota has exceeded message so I go and try the fix that’s on the site but I cant make a copy. I don’t get an error message or anything but i would have it on for hours and the file won’t copy

  2. Keep getting this message when trying to download…. Sorry, you cannot view or download this file at this time.

      1. Thank you for the quick reply got error message saying error while making copy. I will wait and try downloading again later. Great site btw

        1. Also in some cases the quota exceeded error doesn’t go away for quite a while. So you’re better of making copy and downloading.

Leave a Reply