DARK Season 1-3 (1080p + 2160p NF WEB-DL x265 HEVC 10bit AAC 5.1 English+German Joy)

Summary: When two children go missing in a small German town, its sinful past is exposed along with the double lives and fractured relationships that exist among four families as they search for the kids. The mystery-drama series introduces an intricate puzzle filled with twists that includes a web of curious characters, all of whom have a connection to the town’s troubled history — whether they know it or not. The story includes supernatural elements that tie back to the same town in 1986.

Season 1 (1080p)

DARK (2018) Season 01 S01 (1080p NF WEB-DL x265 HEVC 10bit AAC 5.1 English+German Joy) [UTR]

Files

Dark (1080p x265 DUAL 10bit S92 Joy)

  • Dark S01E01 Secrets (1080p x265 10bit Joy).mkv (580.8 MB)
  • Dark S01E02 Lies (1080p x265 10bit Joy).mkv (504.5 MB)
  • Dark S01E03 Past And Present (1080p x265 10bit Joy).mkv (514.5 MB)
  • Dark S01E04 Double Lives (1080p x265 10bit Joy).mkv (535.8 MB)
  • Dark S01E05 Truths (1080p x265 10bit Joy).mkv (513.6 MB)
  • Dark S01E06 Sic Mundus Creatus Est (1080p x265 10bit Joy).mkv (574.6 MB)
  • Dark S01E07 Crossroads (1080p x265 10bit Joy).mkv (582.4 MB)
  • Dark S01E08 As You Sow So You Shall Reap (1080p x265 10bit Joy).mkv (569.6 MB)
  • Dark S01E09 Everything Is Now (1080p x265 10bit Joy).mkv (624.8 MB)
  • Dark S01E10 Alpha And Omega (1080p x265 10bit Joy).mkv (643.3 MB)

Mediainfo

General
Format                                   : Matroska
Format version                           : Version 4 / Version 2
File size                                : 514 MiB
Duration                                 : 45 min 30 s
Overall bit rate                         : 1 581 kb/s
Movie name                               : Dark S01E03 Past And Present  (1080p x265 10bit Joy)[UTR]
Encoded date                             : UTC 2019-05-30 22:43:51
Writing application                      : mkvmerge v32.0.0 ('Astral Progressions') 64-bit
Writing library                          : libebml v1.3.7 + libmatroska v1.5.0
Writing frontend                         : StaxRip v1.8.2.0

Video
ID                                       : 1
Format                                   : HEVC
Format/Info                              : High Efficiency Video Coding
Format profile                           : Main [email protected]@Main
Codec ID                                 : V_MPEGH/ISO/HEVC
Duration                                 : 45 min 30 s
Bit rate                                 : 1 201 kb/s
Width                                    : 1 920 pixels
Height                                   : 960 pixels
Display aspect ratio                     : 2.000
Frame rate mode                          : Constant
Frame rate                               : 24.000 FPS
Color space                              : YUV
Chroma subsampling                       : 4:2:0
Bit depth                                : 10 bits
Bits/(Pixel*Frame)                       : 0.027
Stream size                              : 391 MiB (76%)
Writing library                          : x265 3.0_Au+14-c7e5878bdd31:[Windows][MSVC 1916][64 bit] 10bit
Encoding settings                        : cpuid=1111039 / frame-threads=4 / numa-pools=16 / wpp / no-pmode / no-pme / no-psnr / ssim / log-level=2 / input-csp=1 / input-res=1920x960 / interlace=0 / total-frames=65527 / level-idc=0 / high-tier=1 / uhd-bd=0 / ref=4 / no-allow-non-conformance / no-repeat-headers / annexb / no-aud / no-hrd / info / hash=0 / no-temporal-layers / open-gop / min-keyint=24 / keyint=250 / gop-lookahead=0 / bframes=8 / b-adapt=2 / b-pyramid / bframe-bias=40 / rc-lookahead=80 / lookahead-slices=4 / scenecut=40 / radl=0 / no-splice / no-intra-refresh / ctu=64 / min-cu-size=8 / rect / no-amp / max-tu-size=32 / tu-inter-depth=1 / tu-intra-depth=1 / limit-tu=0 / rdoq-level=2 / dynamic-rd=0.00 / ssim-rd / signhide / no-tskip / nr-intra=0 / nr-inter=0 / no-constrained-intra / strong-intra-smoothing / max-merge=3 / limit-refs=3 / limit-modes / me=3 / subme=3 / merange=57 / temporal-mvp / weightp / no-weightb / no-analyze-src-pics / deblock=0:0 / sao / no-sao-non-deblock / rd=4 / early-skip / rskip / no-fast-intra / no-tskip-fast / no-cu-lossless / no-b-intra / splitrd-skip / rdpenalty=0 / psy-rd=0.00 / psy-rdoq=1.00 / no-rd-refine / no-lossless / cbqpoffs=0 / crqpoffs=0 / rc=abr / bitrate=1200 / qcomp=0.60 / qpstep=4 / stats-write=0 / stats-read=2 / cplxblur=20.0 / qblur=0.5 / ipratio=1.40 / pbratio=1.30 / aq-mode=2 / aq-strength=0.80 / cutree / zone-count=0 / no-strict-cbr / qg-size=32 / no-rc-grain / qpmax=69 / qpmin=0 / no-const-vbv / sar=0 / overscan=0 / videoformat=5 / range=0 / colorprim=2 / transfer=2 / colormatrix=2 / chromaloc=0 / display-window=0 / max-cll=0,0 / min-luma=0 / max-luma=1023 / log2-max-poc-lsb=8 / vui-timing-info / vui-hrd-info / slices=1 / no-opt-qp-pps / no-opt-ref-list-length-pps / multi-pass-opt-rps / scenecut-bias=0.05 / no-opt-cu-delta-qp / no-aq-motion / no-hdr / no-hdr-opt / no-dhdr10-opt / no-idr-recovery-sei / analysis-reuse-level=10 / scale-factor=0 / refine-intra=0 / refine-inter=0 / refine-mv=0 / refine-ctu-distortion=0 / limit-sao / ctu-info=0 / no-lowpass-dct / refine-analysis-type=0 / copy-pic=1 / max-ausize-factor=1.0 / no-dynamic-refine / no-single-sei / no-hevc-aq / no-svt / qp-adaptation-range=1.00
Default                                  : Yes
Forced                                   : No

Audio #1
ID                                       : 2
Format                                   : AAC
Format/Info                              : Advanced Audio Codec
Format profile                           : HE-AAC / LC
Codec ID                                 : A_AAC
Duration                                 : 45 min 14 s
Bit rate                                 : 192 kb/s
Channel(s)                               : 6 channels
Channel positions                        : Front: L C R, Side: L R, LFE
Sampling rate                            : 48.0 kHz / 24.0 kHz
Frame rate                               : 23.438 FPS (1024 spf)
Compression mode                         : Lossy
Delay relative to video                  : 31 ms
Stream size                              : 61.3 MiB (12%)
Language                                 : German
Default                                  : No
Forced                                   : No

Audio #2
ID                                       : 11
Format                                   : AAC
Format/Info                              : Advanced Audio Codec
Format profile                           : HE-AAC / LC
Codec ID                                 : A_AAC
Duration                                 : 45 min 30 s
Bit rate                                 : 192 kb/s
Channel(s)                               : 6 channels
Channel positions                        : Front: L C R, Side: L R, LFE
Sampling rate                            : 48.0 kHz / 24.0 kHz
Frame rate                               : 23.438 FPS (1024 spf)
Compression mode                         : Lossy
Delay relative to video                  : 31 ms
Stream size                              : 61.3 MiB (12%)
Language                                 : English
Default                                  : No
Forced                                   : No

Subtitle #1
ID                                       : 3
Format                                   : UTF-8
Codec ID                                 : S_TEXT/UTF8
Codec ID/Info                            : UTF-8 Plain Text
Duration                                 : 43 min 51 s
Bit rate                                 : 26 b/s
Count of elements                        : 283
Stream size                              : 8.45 KiB (0%)
Language                                 : English
Default                                  : No
Forced                                   : No

Subtitle #2
ID                                       : 4
Format                                   : UTF-8
Codec ID                                 : S_TEXT/UTF8
Codec ID/Info                            : UTF-8 Plain Text
Duration                                 : 41 min 6 s
Bit rate                                 : 43 b/s
Count of elements                        : 283
Stream size                              : 13.1 KiB (0%)
Language                                 : Bulgarian
Default                                  : No
Forced                                   : No

Subtitle #3
ID                                       : 5
Format                                   : UTF-8
Codec ID                                 : S_TEXT/UTF8
Codec ID/Info                            : UTF-8 Plain Text
Duration                                 : 43 min 51 s
Bit rate                                 : 27 b/s
Count of elements                        : 277
Stream size                              : 8.81 KiB (0%)
Language                                 : French
Default                                  : No
Forced                                   : No

Subtitle #4
ID                                       : 6
Format                                   : UTF-8
Codec ID                                 : S_TEXT/UTF8
Codec ID/Info                            : UTF-8 Plain Text
Duration                                 : 42 min 13 s
Bit rate                                 : 37 b/s
Count of elements                        : 361
Stream size                              : 11.7 KiB (0%)
Language                                 : German
Default                                  : No
Forced                                   : No

Subtitle #5
ID                                       : 7
Format                                   : UTF-8
Codec ID                                 : S_TEXT/UTF8
Codec ID/Info                            : UTF-8 Plain Text
Duration                                 : 43 min 52 s
Bit rate                                 : 28 b/s
Count of elements                        : 288
Stream size                              : 9.16 KiB (0%)
Language                                 : Italian
Default                                  : No
Forced                                   : No

Subtitle #6
ID                                       : 8
Format                                   : UTF-8
Codec ID                                 : S_TEXT/UTF8
Codec ID/Info                            : UTF-8 Plain Text
Duration                                 : 42 min 11 s
Bit rate                                 : 27 b/s
Count of elements                        : 284
Stream size                              : 8.53 KiB (0%)
Language                                 : Romanian
Default                                  : No
Forced                                   : No

Subtitle #7
ID                                       : 9
Format                                   : UTF-8
Codec ID                                 : S_TEXT/UTF8
Codec ID/Info                            : UTF-8 Plain Text
Duration                                 : 43 min 52 s
Bit rate                                 : 29 b/s
Count of elements                        : 288
Stream size                              : 9.37 KiB (0%)
Language                                 : Spanish
Default                                  : No
Forced                                   : No

Subtitle #8
ID                                       : 10
Format                                   : UTF-8
Codec ID                                 : S_TEXT/UTF8
Codec ID/Info                            : UTF-8 Plain Text
Duration                                 : 43 min 52 s
Bit rate                                 : 26 b/s
Count of elements                        : 292
Stream size                              : 8.40 KiB (0%)
Language                                 : Turkish
Default                                  : No
Forced                                   : No

Download

Download: Google Drive (5.51 GB)

Season 1 (2160p)

DARK (2018) Season 01 S01 (2160p WEB-DL NVENC HEVC 10bit AAC 5.1 English+German Joy) [UTR]

Files

Dark (2160p NV DUAL 10bit Joy)

  • Dark S01E01 Secrets (2160p NV 10bit Joy).mkv (2.4 GB)
  • Dark S01E02 Lies (2160p NV 10bit Joy).mkv (1.7 GB)
  • Dark S01E03 Past And Present (2160p NV 10bit Joy).mkv (1.8 GB)
  • Dark S01E04 Double Lives (2160p NV 10bit Joy).mkv (1.8 GB)
  • Dark S01E05 Truths (2160p NV 10bit Joy).mkv (1.8 GB)
  • Dark S01E06 Sic Mundus Creatus Est (2160p NV 10bit Joy).mkv (2.0 GB)
  • Dark S01E07 Crossroads (2160p NV 10bit Joy).mkv (2.0 GB)
  • Dark S01E08 As You Sow So You Shall Reap (2160p NV 10bit Joy).mkv (2.0 GB)
  • Dark S01E09 Everything Is Now (2160p NV 10bit Joy).mkv (2.1 GB)
  • Dark S01E10 Alpha And Omega (2160p NV 10bit Joy).mkv (2.2 GB)

Mediainfo

General
Format                                   : Matroska
Format version                           : Version 4 / Version 2
File size                                : 1.75 GiB
Duration                                 : 45 min 30 s
Overall bit rate                         : 5 513 kb/s
Movie name                               : Dark S01E03 Past And Present  (2160p NV 10bit Joy)[UTR]
Encoded date                             : UTC 2019-05-30 23:01:37
Writing application                      : mkvmerge v32.0.0 ('Astral Progressions') 64-bit
Writing library                          : libebml v1.3.7 + libmatroska v1.5.0
Writing frontend                         : StaxRip v1.8.2.0

Video
ID                                       : 1
Format                                   : HEVC
Format/Info                              : High Efficiency Video Coding
Format profile                           : Main [email protected]@High
Codec ID                                 : V_MPEGH/ISO/HEVC
Duration                                 : 45 min 30 s
Bit rate                                 : 4 985 kb/s
Width                                    : 3 840 pixels
Height                                   : 1 920 pixels
Display aspect ratio                     : 2.000
Frame rate mode                          : Constant
Frame rate                               : 24.000 FPS
Color space                              : YUV
Chroma subsampling                       : 4:2:0
Bit depth                                : 10 bits
Bits/(Pixel*Frame)                       : 0.028
Stream size                              : 1.58 GiB (90%)
Default                                  : Yes
Forced                                   : No
Color range                              : Limited
Matrix coefficients                      : BT.709

Audio #1
ID                                       : 2
Format                                   : AAC
Format/Info                              : Advanced Audio Codec
Format profile                           : LC
Codec ID                                 : A_AAC
Duration                                 : 45 min 14 s
Bit rate                                 : 339 kb/s
Channel(s)                               : 6 channels
Channel positions                        : Front: L C R, Side: L R, LFE
Sampling rate                            : 48.0 kHz
Frame rate                               : 46.875 FPS (1024 spf)
Compression mode                         : Lossy
Delay relative to video                  : 9 ms
Stream size                              : 110 MiB (6%)
Language                                 : German
Default                                  : No
Forced                                   : No

Audio #2
ID                                       : 11
Format                                   : AAC
Format/Info                              : Advanced Audio Codec
Format profile                           : HE-AAC / LC
Codec ID                                 : A_AAC
Duration                                 : 45 min 30 s
Bit rate                                 : 192 kb/s
Channel(s)                               : 6 channels
Channel positions                        : Front: L C R, Side: L R, LFE
Sampling rate                            : 48.0 kHz / 24.0 kHz
Frame rate                               : 23.438 FPS (1024 spf)
Compression mode                         : Lossy
Delay relative to video                  : 31 ms
Stream size                              : 61.3 MiB (3%)
Language                                 : English
Default                                  : No
Forced                                   : No

Subtitle #1
ID                                       : 3
Format                                   : UTF-8
Codec ID                                 : S_TEXT/UTF8
Codec ID/Info                            : UTF-8 Plain Text
Duration                                 : 43 min 51 s
Bit rate                                 : 26 b/s
Count of elements                        : 283
Stream size                              : 8.45 KiB (0%)
Language                                 : English
Default                                  : No
Forced                                   : No

Subtitle #2
ID                                       : 4
Format                                   : UTF-8
Codec ID                                 : S_TEXT/UTF8
Codec ID/Info                            : UTF-8 Plain Text
Duration                                 : 41 min 6 s
Bit rate                                 : 43 b/s
Count of elements                        : 283
Stream size                              : 13.1 KiB (0%)
Language                                 : Bulgarian
Default                                  : No
Forced                                   : No

Subtitle #3
ID                                       : 5
Format                                   : UTF-8
Codec ID                                 : S_TEXT/UTF8
Codec ID/Info                            : UTF-8 Plain Text
Duration                                 : 43 min 51 s
Bit rate                                 : 27 b/s
Count of elements                        : 277
Stream size                              : 8.81 KiB (0%)
Language                                 : French
Default                                  : No
Forced                                   : No

Subtitle #4
ID                                       : 6
Format                                   : UTF-8
Codec ID                                 : S_TEXT/UTF8
Codec ID/Info                            : UTF-8 Plain Text
Duration                                 : 42 min 13 s
Bit rate                                 : 37 b/s
Count of elements                        : 361
Stream size                              : 11.7 KiB (0%)
Language                                 : German
Default                                  : No
Forced                                   : No

Subtitle #5
ID                                       : 7
Format                                   : UTF-8
Codec ID                                 : S_TEXT/UTF8
Codec ID/Info                            : UTF-8 Plain Text
Duration                                 : 43 min 52 s
Bit rate                                 : 28 b/s
Count of elements                        : 288
Stream size                              : 9.16 KiB (0%)
Language                                 : Italian
Default                                  : No
Forced                                   : No

Subtitle #6
ID                                       : 8
Format                                   : UTF-8
Codec ID                                 : S_TEXT/UTF8
Codec ID/Info                            : UTF-8 Plain Text
Duration                                 : 42 min 11 s
Bit rate                                 : 27 b/s
Count of elements                        : 284
Stream size                              : 8.53 KiB (0%)
Language                                 : Romanian
Default                                  : No
Forced                                   : No

Subtitle #7
ID                                       : 9
Format                                   : UTF-8
Codec ID                                 : S_TEXT/UTF8
Codec ID/Info                            : UTF-8 Plain Text
Duration                                 : 43 min 52 s
Bit rate                                 : 29 b/s
Count of elements                        : 288
Stream size                              : 9.37 KiB (0%)
Language                                 : Spanish
Default                                  : No
Forced                                   : No

Subtitle #8
ID                                       : 10
Format                                   : UTF-8
Codec ID                                 : S_TEXT/UTF8
Codec ID/Info                            : UTF-8 Plain Text
Duration                                 : 43 min 52 s
Bit rate                                 : 26 b/s
Count of elements                        : 292
Stream size                              : 8.40 KiB (0%)
Language                                 : Turkish
Default                                  : No
Forced                                   : No

Download

Download: Google Drive (19.79 GB)

Season 2 (1080p)

DARK (2018) Season 02 S02 (1080p NF WEB-DL x265 HEVC 10bit AAC 5.1 English+German Joy) [UTR]

Files

Dark Season 2 (1080p x265 DUAL 10bit FS94 Joy)

  • Dark S02E01 Beginnings and Endings (1080p x265 10bit Joy).mkv (607.3 MB)
  • Dark S02E02 Dark Matter (1080p x265 10bit Joy).mkv (617.5 MB)
  • Dark S02E03 Ghosts (1080p x265 10bit Joy).mkv (632.5 MB)
  • Dark S02E04 The Travelers (1080p x265 10bit Joy).mkv (683.7 MB)
  • Dark S02E05 Lost and Found (1080p x265 10bit Joy).mkv (633.9 MB)
  • Dark S02E06 An Endless Cycle (1080p x265 10bit Joy).mkv (614.7 MB)
  • Dark S02E07 The White Devil (1080p x265 10bit Joy).mkv (657.6 MB)
  • Dark S02E08 Endings and Beginnings (1080p x265 10bit Joy).mkv (648.3 MB)

Mediainfo

General
Format : Matroska
Format version : Version 4 / Version 2
File size : 615 MiB
Duration : 54 min 34 s
Overall bit rate : 1 575 kb/s
Movie name : Dark S02E06 An Endless Cycle (1080p x265 10bit Joy)[UTR]
Encoded date : UTC 2019-06-29 08:11:09
Writing application : mkvmerge v34.0.0 ('Sight and Seen') 64-bit
Writing library : libebml v1.3.7 + libmatroska v1.5.0
Writing frontend : StaxRip v2.0.2.0, a JoyBell Encode

Video
ID : 1
Format : HEVC
Format/Info : High Efficiency Video Coding
Format profile : Main [email protected]@Main
Codec ID : V_MPEGH/ISO/HEVC
Duration : 54 min 32 s
Bit rate : 1 201 kb/s
Width : 1 920 pixels
Height : 960 pixels
Display aspect ratio : 2.000
Frame rate mode : Constant
Frame rate : 24.000 FPS
Color space : YUV
Chroma subsampling : 4:2:0
Bit depth : 10 bits
Bits/(Pixel*Frame) : 0.027
Stream size : 469 MiB (76%)
Writing library : x265 3.0_Au+24-4217e691387c:[Windows][GCC 9.1.1][64 bit] 10bit
Encoding settings : rc=abr / bitrate=1200 / qcomp=0.60 / qpstep=4 / stats-write=0 / stats-read=2 / cplxblur=20.0 / qblur=0.5 / qpmax=69 / qpmin=0 / no-lossless / no-cu-lossless / no-hevc-aq / no-aq-motion / aq-mode=2 / aq-strength=0.80 / cbqpoffs=0 / crqpoffs=0 / ipratio=1.40 / pbratio=1.30 / psy-rd=2.45 / psy-rdoq=1.50 / deblock=0:0 / ref=4 / limit-refs=3 / limit-modes / bframes=8 / b-adapt=2 / bframe-bias=40 / b-pyramid / no-b-intra / weightp / no-weightb / keyint=250 / min-keyint=24 / rc-lookahead=80 / gop-lookahead=0 / scenecut=40 / scenecut-bias=0.05 / ctu=64 / min-cu-size=8 / me=3 / subme=3 / merange=57 / rd=4 / no-rd-refine / ssim-rd / dynamic-rd=0.00 / rdoq-level=2 / rdpenalty=0 / cutree / sao / limit-sao / no-sao-non-deblock / no-rect / no-amp / open-gop / max-tu-size=32 / tu-inter-depth=1 / tu-intra-depth=1 / limit-tu=0 / qg-size=32 / wpp / no-pmode / no-pme / no-psnr / ssim / no-tskip / constrained-intra / strong-intra-smoothing / max-merge=3 / nr-intra=0 / nr-inter=0 / input-csp=1 / input-res=1920x960 / interlace=0 / total-frames=78548 / level-idc=0 / high-tier=1cpuid=1111039 / frame-threads=3 / numa-pools=12 / log-level=2 / uhd-bd=0 / lookahead-slices=4 / radl=0 / no-splice / no-intra-refresh / signhide / temporal-mvp / no-analyze-src-pics / early-skip / rskip / no-fast-intra / no-tskip-fast / splitrd-skip / zone-count=0 / no-strict-cbr / no-rc-grain / no-const-vbv / no-allow-non-conformance / no-repeat-headers / annexb / no-aud / no-hrd / info / hash=0 / no-temporal-layers / sar=0 / overscan=0 / videoformat=5 / range=0 / colorprim=2 / transfer=2 / colormatrix=2 / chromaloc=0 / display-window=0 / max-cll=0,0 / min-luma=0 / max-luma=1023 / log2-max-poc-lsb=8 / vui-timing-info / vui-hrd-info / slices=1 / no-opt-qp-pps / no-opt-ref-list-length-pps / multi-pass-opt-rps / no-opt-cu-delta-qp / no-hdr / no-hdr-opt / no-dhdr10-opt / no-idr-recovery-sei / analysis-reuse-level=10 / scale-factor=0 / refine-intra=0 / refine-inter=0 / refine-mv=0 / refine-ctu-distortion=0 / ctu-info=0 / no-lowpass-dct / refine-analysis-type=0 / copy-pic=1 / max-ausize-factor=1.0 / no-dynamic-refine / no-single-sei / no-svt / qp-adaptation-range=1.00
Default : Yes
Forced : No

Audio #1
ID : 2
Format : AAC
Format/Info : Advanced Audio Codec
Format profile : HE-AAC / LC
Codec ID : A_AAC
Duration : 54 min 34 s
Bit rate : 185 kb/s
Channel(s) : 6 channels
Channel positions : Front: L C R, Side: L R, LFE
Sampling rate : 48.0 kHz / 24.0 kHz
Frame rate : 23.438 FPS (1024 spf)
Compression mode : Lossy
Delay relative to video : 31 ms
Stream size : 72.2 MiB (12%)
Language : English
Default : No
Forced : No

Audio #2
ID : 3
Format : AAC
Format/Info : Advanced Audio Codec
Format profile : HE-AAC / LC
Codec ID : A_AAC
Duration : 54 min 34 s
Bit rate : 185 kb/s
Channel(s) : 6 channels
Channel positions : Front: L C R, Side: L R, LFE
Sampling rate : 48.0 kHz / 24.0 kHz
Frame rate : 23.438 FPS (1024 spf)
Compression mode : Lossy
Delay relative to video : 31 ms
Stream size : 72.3 MiB (12%)
Title : German [Original]
Language : German
Default : Yes
Forced : No

Subtitle #1
ID : 4
Format : UTF-8
Codec ID : S_TEXT/UTF8
Codec ID/Info : UTF-8 Plain Text
Duration : 50 min 44 s
Bit rate : 42 b/s
Count of elements : 541
Stream size : 15.9 KiB (0%)
Language : German
Default : No
Forced : No

Subtitle #2
ID : 5
Format : UTF-8
Codec ID : S_TEXT/UTF8
Codec ID/Info : UTF-8 Plain Text
Duration : 2 s 584 ms
Bit rate : 83 b/s
Count of elements : 1
Stream size : 27.0 Bytes (0%)
Language : German
Default : No
Forced : No

Subtitle #3
ID : 6
Format : UTF-8
Codec ID : S_TEXT/UTF8
Codec ID/Info : UTF-8 Plain Text
Duration : 50 min 47 s
Bit rate : 30 b/s
Count of elements : 443
Stream size : 11.4 KiB (0%)
Language : English
Default : No
Forced : No

Subtitle #4
ID : 7
Format : UTF-8
Codec ID : S_TEXT/UTF8
Codec ID/Info : UTF-8 Plain Text
Duration : 50 min 48 s
Bit rate : 41 b/s
Count of elements : 567
Stream size : 15.6 KiB (0%)
Language : English
Default : No
Forced : No

Subtitle #5
ID : 8
Format : UTF-8
Codec ID : S_TEXT/UTF8
Codec ID/Info : UTF-8 Plain Text
Duration : 48 min 9 s
Bit rate : 1 b/s
Count of elements : 17
Stream size : 629 Bytes (0%)
Language : English
Default : No
Forced : No

Subtitle #6
ID : 9
Format : UTF-8
Codec ID : S_TEXT/UTF8
Codec ID/Info : UTF-8 Plain Text
Duration : 50 min 47 s
Bit rate : 28 b/s
Count of elements : 444
Stream size : 10.7 KiB (0%)
Language : Polish
Default : No
Forced : No

Subtitle #7
ID : 10
Format : UTF-8
Codec ID : S_TEXT/UTF8
Codec ID/Info : UTF-8 Plain Text
Duration : 48 min 9 s
Bit rate : 1 b/s
Count of elements : 10
Stream size : 365 Bytes (0%)
Language : Polish
Default : No
Forced : No

Subtitle #8
ID : 11
Format : UTF-8
Codec ID : S_TEXT/UTF8
Codec ID/Info : UTF-8 Plain Text
Duration : 50 min 47 s
Bit rate : 32 b/s
Count of elements : 457
Stream size : 12.2 KiB (0%)
Language : Turkish
Default : No
Forced : No

Subtitle #9
ID : 12
Format : UTF-8
Codec ID : S_TEXT/UTF8
Codec ID/Info : UTF-8 Plain Text
Duration : 49 min 37 s
Bit rate : 1 b/s
Count of elements : 19
Stream size : 717 Bytes (0%)
Language : Turkish
Default : No
Forced : No

Subtitle #10
ID : 13
Format : UTF-8
Codec ID : S_TEXT/UTF8
Codec ID/Info : UTF-8 Plain Text
Duration : 50 min 47 s
Bit rate : 30 b/s
Count of elements : 444
Stream size : 11.2 KiB (0%)
Language : Portuguese
Default : No
Forced : No

Subtitle #11
ID : 14
Format : UTF-8
Codec ID : S_TEXT/UTF8
Codec ID/Info : UTF-8 Plain Text
Duration : 49 min 36 s
Bit rate : 1 b/s
Count of elements : 19
Stream size : 715 Bytes (0%)
Language : Portuguese
Default : No
Forced : No

Subtitle #12
ID : 15
Format : UTF-8
Codec ID : S_TEXT/UTF8
Codec ID/Info : UTF-8 Plain Text
Duration : 50 min 46 s
Bit rate : 31 b/s
Count of elements : 458
Stream size : 11.8 KiB (0%)
Language : Italian
Default : No
Forced : No

Subtitle #13
ID : 16
Format : UTF-8
Codec ID : S_TEXT/UTF8
Codec ID/Info : UTF-8 Plain Text
Duration : 49 min 36 s
Bit rate : 1 b/s
Count of elements : 18
Stream size : 723 Bytes (0%)
Language : Italian
Default : No
Forced : No

Subtitle #14
ID : 17
Format : UTF-8
Codec ID : S_TEXT/UTF8
Codec ID/Info : UTF-8 Plain Text
Duration : 50 min 47 s
Bit rate : 30 b/s
Count of elements : 445
Stream size : 11.3 KiB (0%)
Language : Spanish
Default : No
Forced : No

Subtitle #15
ID : 18
Format : UTF-8
Codec ID : S_TEXT/UTF8
Codec ID/Info : UTF-8 Plain Text
Duration : 49 min 36 s
Bit rate : 1 b/s
Count of elements : 19
Stream size : 740 Bytes (0%)
Language : Spanish
Default : No
Forced : No

Subtitle #16
ID : 19
Format : UTF-8
Codec ID : S_TEXT/UTF8
Codec ID/Info : UTF-8 Plain Text
Duration : 53 min 59 s
Bit rate : 27 b/s
Count of elements : 431
Stream size : 10.8 KiB (0%)
Language : French
Default : No
Forced : No

Subtitle #17
ID : 20
Format : UTF-8
Codec ID : S_TEXT/UTF8
Codec ID/Info : UTF-8 Plain Text
Duration : 49 min 36 s
Bit rate : 1 b/s
Count of elements : 17
Stream size : 638 Bytes (0%)
Language : French
Default : No
Forced : No

Subtitle #18
ID : 21
Format : UTF-8
Codec ID : S_TEXT/UTF8
Codec ID/Info : UTF-8 Plain Text
Duration : 50 min 47 s
Bit rate : 32 b/s
Count of elements : 444
Stream size : 12.2 KiB (0%)
Language : Spanish
Default : No
Forced : No

Subtitle #19
ID : 22
Format : UTF-8
Codec ID : S_TEXT/UTF8
Codec ID/Info : UTF-8 Plain Text
Duration : 49 min 36 s
Bit rate : 1 b/s
Count of elements : 19
Stream size : 722 Bytes (0%)
Language : Spanish
Default : No
Forced : No

Subtitle #20
ID : 23
Format : UTF-8
Codec ID : S_TEXT/UTF8
Codec ID/Info : UTF-8 Plain Text
Duration : 50 min 47 s
Bit rate : 57 b/s
Count of elements : 445
Stream size : 21.5 KiB (0%)
Language : Arabic
Default : No
Forced : No

Subtitle #21
ID : 24
Format : UTF-8
Codec ID : S_TEXT/UTF8
Codec ID/Info : UTF-8 Plain Text
Duration : 50 min 47 s
Bit rate : 31 b/s
Count of elements : 400
Stream size : 11.9 KiB (0%)
Language : Danish
Default : No
Forced : No

Subtitle #22
ID : 25
Format : UTF-8
Codec ID : S_TEXT/UTF8
Codec ID/Info : UTF-8 Plain Text
Duration : 50 min 48 s
Bit rate : 52 b/s
Count of elements : 442
Stream size : 19.4 KiB (0%)
Language : Greek
Default : No
Forced : No

Subtitle #23
ID : 26
Format : UTF-8
Codec ID : S_TEXT/UTF8
Codec ID/Info : UTF-8 Plain Text
Duration : 50 min 47 s
Bit rate : 30 b/s
Count of elements : 401
Stream size : 11.4 KiB (0%)
Language : Finnish
Default : No
Forced : No

Subtitle #24
ID : 27
Format : UTF-8
Codec ID : S_TEXT/UTF8
Codec ID/Info : UTF-8 Plain Text
Duration : 50 min 49 s
Bit rate : 45 b/s
Count of elements : 445
Stream size : 16.9 KiB (0%)
Language : Hebrew
Default : No
Forced : No

Subtitle #25
ID : 28
Format : UTF-8
Codec ID : S_TEXT/UTF8
Codec ID/Info : UTF-8 Plain Text
Duration : 50 min 47 s
Bit rate : 30 b/s
Count of elements : 444
Stream size : 11.4 KiB (0%)
Language : Indonesian
Default : No
Forced : No

Subtitle #26
ID : 29
Format : UTF-8
Codec ID : S_TEXT/UTF8
Codec ID/Info : UTF-8 Plain Text
Duration : 50 min 50 s
Bit rate : 31 b/s
Count of elements : 455
Stream size : 11.8 KiB (0%)
Language : Japanese
Default : No
Forced : No

Subtitle #27
ID : 30
Format : UTF-8
Codec ID : S_TEXT/UTF8
Codec ID/Info : UTF-8 Plain Text
Duration : 50 min 47 s
Bit rate : 36 b/s
Count of elements : 445
Stream size : 13.7 KiB (0%)
Language : Korean
Default : No
Forced : No

Subtitle #28
ID : 31
Format : UTF-8
Codec ID : S_TEXT/UTF8
Codec ID/Info : UTF-8 Plain Text
Duration : 50 min 47 s
Bit rate : 31 b/s
Count of elements : 400
Stream size : 11.6 KiB (0%)
Language : Norwegian Bokmal
Default : No
Forced : No

Subtitle #29
ID : 32
Format : UTF-8
Codec ID : S_TEXT/UTF8
Codec ID/Info : UTF-8 Plain Text
Duration : 50 min 52 s
Bit rate : 30 b/s
Count of elements : 421
Stream size : 11.4 KiB (0%)
Language : Dutch
Default : No
Forced : No

Subtitle #30
ID : 33
Format : UTF-8
Codec ID : S_TEXT/UTF8
Codec ID/Info : UTF-8 Plain Text
Duration : 50 min 47 s
Bit rate : 30 b/s
Count of elements : 442
Stream size : 11.4 KiB (0%)
Language : Portuguese
Default : No
Forced : No

Subtitle #31
ID : 34
Format : UTF-8
Codec ID : S_TEXT/UTF8
Codec ID/Info : UTF-8 Plain Text
Duration : 50 min 47 s
Bit rate : 35 b/s
Count of elements : 444
Stream size : 13.3 KiB (0%)
Language : Romanian
Default : No
Forced : No

Subtitle #32
ID : 35
Format : UTF-8
Codec ID : S_TEXT/UTF8
Codec ID/Info : UTF-8 Plain Text
Duration : 50 min 47 s
Bit rate : 32 b/s
Count of elements : 400
Stream size : 12.1 KiB (0%)
Language : Swedish
Default : No
Forced : No

Subtitle #33
ID : 36
Format : UTF-8
Codec ID : S_TEXT/UTF8
Codec ID/Info : UTF-8 Plain Text
Duration : 50 min 47 s
Bit rate : 82 b/s
Count of elements : 445
Stream size : 30.7 KiB (0%)
Language : Thai
Default : No
Forced : No

Subtitle #34
ID : 37
Format : UTF-8
Codec ID : S_TEXT/UTF8
Codec ID/Info : UTF-8 Plain Text
Duration : 50 min 47 s
Bit rate : 32 b/s
Count of elements : 445
Stream size : 12.3 KiB (0%)
Language : Chinese
Default : No
Forced : No

Subtitle #35
ID : 38
Format : UTF-8
Codec ID : S_TEXT/UTF8
Codec ID/Info : UTF-8 Plain Text
Duration : 50 min 47 s
Bit rate : 33 b/s
Count of elements : 445
Stream size : 12.4 KiB (0%)
Language : Chinese
Default : No
Forced : No

Download

Download: Google Drive (4.98 GB)

Season 2 (2160p)

DARK (2018) Season 02 S02 (2160p NF WEB-DL x265 HEVC 10bit AAC 5.1 English+German Joy) [UTR]

Files

Dark Season 2 (2160p NV DUAL 10bit Joy)

  • Dark S02E01 Beginnings and Endings (2160p NV 10bit Joy).mkv (2.0 GB)
  • Dark S02E02 Dark Matter (2160p NV 10bit Joy).mkv (2.1 GB)
  • Dark S02E03 Ghosts (2160p NV 10bit Joy).mkv (2.1 GB)
  • Dark S02E04 The Travelers (2160p NV 10bit Joy).mkv (2.3 GB)
  • Dark S02E05 Lost and Found (2160p NV 10bit Joy).mkv (2.1 GB)
  • Dark S02E06 An Endless Cycle (2160p NV 10bit Joy).mkv (2.1 GB)
  • Dark S02E07 The White Devil (2160p NV 10bit Joy).mkv (2.2 GB)
  • Dark S02E08 Endings and Beginnings (2160p NV 10bit Joy).mkv (2.2 GB)

Mediainfo

Format : Matroska
Format version : Version 4 / Version 2
File size : 2.13 GiB
Duration : 56 min 16 s
Overall bit rate : 5 429 kb/s
Movie name : Dark S02E03 Ghosts (2160p NV 10bit Joy)[UTR]
Encoded date : UTC 2019-08-03 00:54:53
Writing application : mkvmerge v32.0.0 ('Astral Progressions') 64-bit
Writing library : libebml v1.3.7 + libmatroska v1.5.0
Writing frontend : StaxRip v2.0.2.0, a JoyBell Encode

Video
ID : 1
Format : HEVC
Format/Info : High Efficiency Video Coding
Format profile : Main [email protected]@High
Codec ID : V_MPEGH/ISO/HEVC
Duration : 56 min 16 s
Bit rate : 5 059 kb/s
Width : 3 840 pixels
Height : 1 920 pixels
Display aspect ratio : 2.000
Frame rate mode : Constant
Frame rate : 24.000 FPS
Color space : YUV
Chroma subsampling : 4:2:0
Bit depth : 10 bits
Bits/(Pixel*Frame) : 0.029
Stream size : 1.99 GiB (93%)
Default : Yes
Forced : No
Color range : Limited
Matrix coefficients : BT.709

Audio #1
ID : 2
Format : AAC
Format/Info : Advanced Audio Codec
Format profile : HE-AAC / LC
Codec ID : A_AAC
Duration : 56 min 16 s
Bit rate : 183 kb/s
Channel(s) : 6 channels
Channel positions : Front: L C R, Side: L R, LFE
Sampling rate : 48.0 kHz / 24.0 kHz
Frame rate : 23.438 FPS (1024 spf)
Compression mode : Lossy
Delay relative to video : 31 ms
Stream size : 73.5 MiB (3%)
Language : English
Default : No
Forced : No

Audio #2
ID : 3
Format : AAC
Format/Info : Advanced Audio Codec
Format profile : HE-AAC / LC
Codec ID : A_AAC
Duration : 56 min 16 s
Bit rate : 183 kb/s
Channel(s) : 6 channels
Channel positions : Front: L C R, Side: L R, LFE
Sampling rate : 48.0 kHz / 24.0 kHz
Frame rate : 23.438 FPS (1024 spf)
Compression mode : Lossy
Delay relative to video : 31 ms
Stream size : 73.8 MiB (3%)
Language : German
Default : No
Forced : No

Subtitle #1
ID : 4
Format : UTF-8
Codec ID : S_TEXT/UTF8
Codec ID/Info : UTF-8 Plain Text
Duration : 52 min 20 s
Bit rate : 47 b/s
Count of elements : 619
Stream size : 18.3 KiB (0%)
Language : German
Default : No
Forced : No

Subtitle #2
ID : 5
Format : UTF-8
Codec ID : S_TEXT/UTF8
Codec ID/Info : UTF-8 Plain Text
Duration : 2 s 583 ms
Bit rate : 83 b/s
Count of elements : 1
Stream size : 27.0 Bytes (0%)
Language : German
Default : No
Forced : No

Subtitle #3
ID : 6
Format : UTF-8
Codec ID : S_TEXT/UTF8
Codec ID/Info : UTF-8 Plain Text
Duration : 52 min 25 s
Bit rate : 35 b/s
Count of elements : 508
Stream size : 13.7 KiB (0%)
Language : English
Default : No
Forced : No

Subtitle #4
ID : 7
Format : UTF-8
Codec ID : S_TEXT/UTF8
Codec ID/Info : UTF-8 Plain Text
Duration : 52 min 31 s
Bit rate : 44 b/s
Count of elements : 623
Stream size : 17.0 KiB (0%)
Language : English
Default : No
Forced : No

Subtitle #5
ID : 8
Format : UTF-8
Codec ID : S_TEXT/UTF8
Codec ID/Info : UTF-8 Plain Text
Duration : 47 min 31 s
Bit rate : 1 b/s
Count of elements : 17
Stream size : 452 Bytes (0%)
Language : English
Default : No
Forced : No

Subtitle #6
ID : 9
Format : UTF-8
Codec ID : S_TEXT/UTF8
Codec ID/Info : UTF-8 Plain Text
Duration : 52 min 25 s
Bit rate : 38 b/s
Count of elements : 548
Stream size : 14.8 KiB (0%)
Language : Turkish
Default : No
Forced : No

Subtitle #7
ID : 10
Format : UTF-8
Codec ID : S_TEXT/UTF8
Codec ID/Info : UTF-8 Plain Text
Duration : 51 min 11 s
Bit rate : 1 b/s
Count of elements : 20
Stream size : 548 Bytes (0%)
Language : Turkish
Default : No
Forced : No

Subtitle #8
ID : 11
Format : UTF-8
Codec ID : S_TEXT/UTF8
Codec ID/Info : UTF-8 Plain Text
Duration : 52 min 25 s
Bit rate : 39 b/s
Count of elements : 536
Stream size : 15.0 KiB (0%)
Language : French
Default : No
Forced : No

Subtitle #9
ID : 12
Format : UTF-8
Codec ID : S_TEXT/UTF8
Codec ID/Info : UTF-8 Plain Text
Duration : 51 min 11 s
Bit rate : 1 b/s
Count of elements : 19
Stream size : 447 Bytes (0%)
Language : French
Default : No
Forced : No

Subtitle #10
ID : 13
Format : UTF-8
Codec ID : S_TEXT/UTF8
Codec ID/Info : UTF-8 Plain Text
Duration : 52 min 25 s
Bit rate : 38 b/s
Count of elements : 542
Stream size : 14.9 KiB (0%)
Language : Spanish
Default : No
Forced : No

Subtitle #11
ID : 14
Format : UTF-8
Codec ID : S_TEXT/UTF8
Codec ID/Info : UTF-8 Plain Text
Duration : 51 min 11 s
Bit rate : 1 b/s
Count of elements : 21
Stream size : 510 Bytes (0%)
Language : Spanish
Default : No
Forced : No

Subtitle #12
ID : 15
Format : UTF-8
Codec ID : S_TEXT/UTF8
Codec ID/Info : UTF-8 Plain Text
Duration : 52 min 25 s
Bit rate : 38 b/s
Count of elements : 544
Stream size : 14.6 KiB (0%)
Language : Italian
Default : No
Forced : No

Subtitle #13
ID : 16
Format : UTF-8
Codec ID : S_TEXT/UTF8
Codec ID/Info : UTF-8 Plain Text
Duration : 51 min 11 s
Bit rate : 1 b/s
Count of elements : 22
Stream size : 571 Bytes (0%)
Language : Italian
Default : No
Forced : No

Subtitle #14
ID : 17
Format : UTF-8
Codec ID : S_TEXT/UTF8
Codec ID/Info : UTF-8 Plain Text
Duration : 52 min 25 s
Bit rate : 35 b/s
Count of elements : 536
Stream size : 13.5 KiB (0%)
Language : Polish
Default : No
Forced : No

Subtitle #15
ID : 18
Format : UTF-8
Codec ID : S_TEXT/UTF8
Codec ID/Info : UTF-8 Plain Text
Duration : 52 min 25 s
Bit rate : 36 b/s
Count of elements : 536
Stream size : 13.9 KiB (0%)
Language : Spanish
Default : No
Forced : No

Subtitle #16
ID : 19
Format : UTF-8
Codec ID : S_TEXT/UTF8
Codec ID/Info : UTF-8 Plain Text
Duration : 51 min 11 s
Bit rate : 1 b/s
Count of elements : 20
Stream size : 514 Bytes (0%)
Language : Spanish
Default : No
Forced : No

Subtitle #17
ID : 20
Format : UTF-8
Codec ID : S_TEXT/UTF8
Codec ID/Info : UTF-8 Plain Text
Duration : 52 min 28 s
Bit rate : 36 b/s
Count of elements : 538
Stream size : 14.1 KiB (0%)
Language : Portuguese
Default : No
Forced : No

Subtitle #18
ID : 21
Format : UTF-8
Codec ID : S_TEXT/UTF8
Codec ID/Info : UTF-8 Plain Text
Duration : 51 min 11 s
Bit rate : 1 b/s
Count of elements : 23
Stream size : 689 Bytes (0%)
Language : Portuguese
Default : No
Forced : No

Subtitle #19
ID : 22
Format : UTF-8
Codec ID : S_TEXT/UTF8
Codec ID/Info : UTF-8 Plain Text
Duration : 52 min 25 s
Bit rate : 64 b/s
Count of elements : 537
Stream size : 24.7 KiB (0%)
Language : Arabic
Default : No
Forced : No

Subtitle #20
ID : 23
Format : UTF-8
Codec ID : S_TEXT/UTF8
Codec ID/Info : UTF-8 Plain Text
Duration : 52 min 25 s
Bit rate : 37 b/s
Count of elements : 473
Stream size : 14.5 KiB (0%)
Language : Danish
Default : No
Forced : No

Subtitle #21
ID : 24
Format : UTF-8
Codec ID : S_TEXT/UTF8
Codec ID/Info : UTF-8 Plain Text
Duration : 52 min 25 s
Bit rate : 62 b/s
Count of elements : 538
Stream size : 24.1 KiB (0%)
Language : Greek
Default : No
Forced : No

Subtitle #22
ID : 25
Format : UTF-8
Codec ID : S_TEXT/UTF8
Codec ID/Info : UTF-8 Plain Text
Duration : 52 min 25 s
Bit rate : 37 b/s
Count of elements : 474
Stream size : 14.5 KiB (0%)
Language : Finnish
Default : No
Forced : No

Subtitle #23
ID : 26
Format : UTF-8
Codec ID : S_TEXT/UTF8
Codec ID/Info : UTF-8 Plain Text
Duration : 52 min 25 s
Bit rate : 53 b/s
Count of elements : 537
Stream size : 20.4 KiB (0%)
Language : Hebrew
Default : No
Forced : No

Subtitle #24
ID : 27
Format : UTF-8
Codec ID : S_TEXT/UTF8
Codec ID/Info : UTF-8 Plain Text
Duration : 52 min 25 s
Bit rate : 35 b/s
Count of elements : 535
Stream size : 13.7 KiB (0%)
Language : Indonesian
Default : No
Forced : No

Subtitle #25
ID : 28
Format : UTF-8
Codec ID : S_TEXT/UTF8
Codec ID/Info : UTF-8 Plain Text
Duration : 52 min 28 s
Bit rate : 38 b/s
Count of elements : 527
Stream size : 14.9 KiB (0%)
Language : Japanese
Default : No
Forced : No

Subtitle #26
ID : 29
Format : UTF-8
Codec ID : S_TEXT/UTF8
Codec ID/Info : UTF-8 Plain Text
Duration : 52 min 25 s
Bit rate : 45 b/s
Count of elements : 537
Stream size : 17.4 KiB (0%)
Language : Korean
Default : No
Forced : No

Subtitle #27
ID : 30
Format : UTF-8
Codec ID : S_TEXT/UTF8
Codec ID/Info : UTF-8 Plain Text
Duration : 52 min 25 s
Bit rate : 37 b/s
Count of elements : 473
Stream size : 14.3 KiB (0%)
Language : Norwegian Bokmal
Default : No
Forced : No

Subtitle #28
ID : 31
Format : UTF-8
Codec ID : S_TEXT/UTF8
Codec ID/Info : UTF-8 Plain Text
Duration : 52 min 34 s
Bit rate : 38 b/s
Count of elements : 527
Stream size : 14.7 KiB (0%)
Language : Dutch
Default : No
Forced : No

Subtitle #29
ID : 32
Format : UTF-8
Codec ID : S_TEXT/UTF8
Codec ID/Info : UTF-8 Plain Text
Duration : 52 min 25 s
Bit rate : 35 b/s
Count of elements : 528
Stream size : 13.6 KiB (0%)
Language : Portuguese
Default : No
Forced : No

Subtitle #30
ID : 33
Format : UTF-8
Codec ID : S_TEXT/UTF8
Codec ID/Info : UTF-8 Plain Text
Duration : 52 min 25 s
Bit rate : 41 b/s
Count of elements : 536
Stream size : 16.0 KiB (0%)
Language : Romanian
Default : No
Forced : No

Subtitle #31
ID : 34
Format : UTF-8
Codec ID : S_TEXT/UTF8
Codec ID/Info : UTF-8 Plain Text
Duration : 52 min 25 s
Bit rate : 38 b/s
Count of elements : 474
Stream size : 14.9 KiB (0%)
Language : Swedish
Default : No
Forced : No

Subtitle #32
ID : 35
Format : UTF-8
Codec ID : S_TEXT/UTF8
Codec ID/Info : UTF-8 Plain Text
Duration : 52 min 25 s
Bit rate : 99 b/s
Count of elements : 539
Stream size : 38.0 KiB (0%)
Language : Thai
Default : No
Forced : No

Subtitle #33
ID : 36
Format : UTF-8
Codec ID : S_TEXT/UTF8
Codec ID/Info : UTF-8 Plain Text
Duration : 52 min 25 s
Bit rate : 38 b/s
Count of elements : 539
Stream size : 14.8 KiB (0%)
Language : Chinese
Default : No
Forced : No

Subtitle #34
ID : 37
Format : UTF-8
Codec ID : S_TEXT/UTF8
Codec ID/Info : UTF-8 Plain Text
Duration : 52 min 25 s
Bit rate : 38 b/s
Count of elements : 539
Stream size : 14.8 KiB (0%)
Language : Chinese
Default : No
Forced : No

Download

Download: Google Drive (17.18 GB)

Season 3 (1080p)

DARK (2018) Season 03 S03 DUAL (1080p NF WEBRip x265 HEVC 10bit AAC 5.1 Joy) [UTR]

Files

Dark Season 3 [1080p x265 DUAL 10bit S94 Joy]

  • Dark S03E01 Deja-vu [1080p x265 10bit Joy].mkv (728.1 MB)
  • Dark S03E02 The Survivors [1080p x265 10bit Joy].mkv (703.0 MB)
  • Dark S03E03 Adam and Eva [1080p x265 10bit Joy].mkv (663.3 MB)
  • Dark S03E04 The Origin [1080p x265 10bit Joy].mkv (755.1 MB)
  • Dark S03E05 Life and Death [1080p x265 10bit Joy].mkv (749.7 MB)
  • Dark S03E06 Light and Shadow [1080p x265 10bit Joy].mkv (687.7 MB)
  • Dark S03E07 Between the Time [1080p x265 10bit Joy].mkv (809.0 MB)
  • Dark S03E08 The Paradise [1080p x265 10bit Joy].mkv (858.7 MB)

Mediainfo

General
Format                                   : Matroska
Format version                           : Version 4 / Version 2
File size                                : 728 MiB
Duration                                 : 1 h 2 min
Overall bit rate                         : 1 639 kb/s
Encoded date                             : UTC 2020-07-03 07:09:10
Writing application                      : mkvmerge v48.0.0 ('Fortress Around Your Heart') 64-bit
Writing library                          : libebml v1.4.0 + libmatroska v1.6.0

Video
ID                                       : 1
Format                                   : HEVC
Format/Info                              : High Efficiency Video Coding
Format profile                           : Main [email protected]@Main
Codec ID                                 : V_MPEGH/ISO/HEVC
Duration                                 : 1 h 1 min
Bit rate                                 : 1 201 kb/s
Width                                    : 1 920 pixels
Height                                   : 960 pixels
Display aspect ratio                     : 2.000
Frame rate mode                          : Constant
Frame rate                               : 24.000 FPS
Color space                              : YUV
Chroma subsampling                       : 4:2:0
Bit depth                                : 10 bits
Bits/(Pixel*Frame)                       : 0.027
Stream size                              : 527 MiB (72%)
Writing library                          : x265 3.2+9-971180b100f8:[Windows][MSVC 1923][64 bit] 10bit
Encoding settings                        : cpuid=1111039 / frame-threads=3 / numa-pools=8 / wpp / no-pmode / no-pme / no-psnr / ssim / log-level=2 / input-csp=1 / input-res=1920x960 / interlace=0 / total-frames=88392 / level-idc=0 / high-tier=1 / uhd-bd=0 / ref=4 / no-allow-non-conformance / no-repeat-headers / annexb / no-aud / no-hrd / info / hash=0 / no-temporal-layers / open-gop / min-keyint=24 / keyint=250 / gop-lookahead=0 / bframes=8 / b-adapt=2 / b-pyramid / bframe-bias=40 / rc-lookahead=80 / lookahead-slices=4 / scenecut=40 / radl=0 / no-splice / no-intra-refresh / ctu=64 / min-cu-size=8 / rect / no-amp / max-tu-size=32 / tu-inter-depth=1 / tu-intra-depth=1 / limit-tu=0 / rdoq-level=2 / dynamic-rd=0.00 / ssim-rd / signhide / no-tskip / nr-intra=0 / nr-inter=0 / constrained-intra / strong-intra-smoothing / max-merge=3 / limit-refs=3 / limit-modes / me=3 / subme=3 / merange=57 / temporal-mvp / no-frame-dup / no-hme / weightp / no-weightb / no-analyze-src-pics / deblock=0:0 / sao / no-sao-non-deblock / rd=4 / selective-sao=4 / early-skip / rskip / no-fast-intra / no-tskip-fast / no-cu-lossless / no-b-intra / splitrd-skip / rdpenalty=0 / psy-rd=2.45 / psy-rdoq=1.50 / no-rd-refine / no-lossless / cbqpoffs=0 / crqpoffs=0 / rc=abr / bitrate=1200 / qcomp=0.60 / qpstep=4 / stats-write=0 / stats-read=2 / cplxblur=20.0 / qblur=0.5 / ipratio=1.40 / pbratio=1.30 / aq-mode=3 / aq-strength=0.40 / cutree / zone-count=0 / no-strict-cbr / qg-size=32 / no-rc-grain / qpmax=69 / qpmin=0 / no-const-vbv / sar=0 / overscan=0 / videoformat=5 / range=0 / colorprim=2 / transfer=2 / colormatrix=2 / chromaloc=0 / display-window=0 / cll=0,0 / min-luma=0 / max-luma=1023 / log2-max-poc-lsb=8 / vui-timing-info / vui-hrd-info / slices=1 / no-opt-qp-pps / no-opt-ref-list-length-pps / multi-pass-opt-rps / scenecut-bias=0.05 / no-opt-cu-delta-qp / no-aq-motion / no-hdr / no-hdr-opt / no-dhdr10-opt / no-idr-recovery-sei / analysis-load / analysis-reuse-level=10 / scale-factor=0 / refine-intra=0 / refine-inter=0 / refine-mv=1 / refine-ctu-distortion=0 / limit-sao / ctu-info=0 / no-lowpass-dct / refine-analysis-type=0 / copy-pic=1 / max-ausize-factor=1.0 / no-dynamic-refine / no-single-sei / no-hevc-aq / no-svt / no-field / qp-adaptation-range=1.00
Default                                  : Yes
Forced                                   : No

Audio #1
ID                                       : 2
Format                                   : AAC
Format/Info                              : Advanced Audio Codec
Format profile                           : HE-AAC / LC
Codec ID                                 : A_AAC
Duration                                 : 1 h 1 min
Bit rate                                 : 192 kb/s
Channel(s)                               : 6 channels
Channel positions                        : Front: L C R, Side: L R, LFE
Sampling rate                            : 48.0 kHz / 24.0 kHz
Frame rate                               : 23.438 FPS (1024 spf)
Compression mode                         : Lossy
Delay relative to video                  : 31 ms
Stream size                              : 82.6 MiB (11%)
Language                                 : German
Default                                  : No
Forced                                   : No

Audio #2
ID                                       : 35
Format                                   : AAC
Format/Info                              : Advanced Audio Codec
Format profile                           : LC
Codec ID                                 : A_AAC
Duration                                 : 1 h 2 min
Bit rate                                 : 265 kb/s
Channel(s)                               : 6 channels
Channel positions                        : Front: L C R, Side: L R, LFE
Sampling rate                            : 48.0 kHz
Frame rate                               : 46.875 FPS (1024 spf)
Compression mode                         : Lossy
Delay relative to video                  : 9 ms
Stream size                              : 116 MiB (16%)
Language                                 : English
Default                                  : No
Forced                                   : No

Subtitle #1
ID                                       : 3
Format                                   : UTF-8
Codec ID                                 : S_TEXT/UTF8
Codec ID/Info                            : UTF-8 Plain Text
Duration                                 : 42 min 49 s
Bit rate                                 : 0 b/s
Count of elements                        : 5
Stream size                              : 74.0 Bytes (0%)
Title                                    : Forced
Language                                 : German
Default                                  : No
Forced                                   : Yes

Subtitle #2
ID                                       : 4
Format                                   : UTF-8
Codec ID                                 : S_TEXT/UTF8
Codec ID/Info                            : UTF-8 Plain Text
Duration                                 : 57 min 14 s
Bit rate                                 : 37 b/s
Count of elements                        : 594
Stream size                              : 15.9 KiB (0%)
Title                                    : SDH
Language                                 : English
Default                                  : No
Forced                                   : No

Subtitle #3
ID                                       : 5
Format                                   : UTF-8
Codec ID                                 : S_TEXT/UTF8
Codec ID/Info                            : UTF-8 Plain Text
Duration                                 : 1 h 1 min
Bit rate                                 : 26 b/s
Count of elements                        : 449
Stream size                              : 11.8 KiB (0%)
Language                                 : English
Default                                  : No
Forced                                   : No

Subtitle #4
ID                                       : 6
Format                                   : UTF-8
Codec ID                                 : S_TEXT/UTF8
Codec ID/Info                            : UTF-8 Plain Text
Duration                                 : 1 h 0 min
Bit rate                                 : 44 b/s
Count of elements                        : 456
Stream size                              : 19.8 KiB (0%)
Language                                 : Arabic
Default                                  : No
Forced                                   : No

Subtitle #5
ID                                       : 7
Format                                   : UTF-8
Codec ID                                 : S_TEXT/UTF8
Codec ID/Info                            : UTF-8 Plain Text
Duration                                 : 57 min 13 s
Bit rate                                 : 25 b/s
Count of elements                        : 451
Stream size                              : 10.9 KiB (0%)
Language                                 : Czech
Default                                  : No
Forced                                   : No

Subtitle #6
ID                                       : 8
Format                                   : UTF-8
Codec ID                                 : S_TEXT/UTF8
Codec ID/Info                            : UTF-8 Plain Text
Duration                                 : 57 min 18 s
Bit rate                                 : 27 b/s
Count of elements                        : 416
Stream size                              : 11.5 KiB (0%)
Language                                 : Danish
Default                                  : No
Forced                                   : No

Subtitle #7
ID                                       : 9
Format                                   : UTF-8
Codec ID                                 : S_TEXT/UTF8
Codec ID/Info                            : UTF-8 Plain Text
Duration                                 : 56 min 57 s
Bit rate                                 : 32 b/s
Count of elements                        : 471
Stream size                              : 13.6 KiB (0%)
Language                                 : German
Default                                  : No
Forced                                   : No

Subtitle #8
ID                                       : 10
Format                                   : UTF-8
Codec ID                                 : S_TEXT/UTF8
Codec ID/Info                            : UTF-8 Plain Text
Duration                                 : 57 min 1 s
Bit rate                                 : 38 b/s
Count of elements                        : 568
Stream size                              : 16.0 KiB (0%)
Title                                    : SDH
Language                                 : German
Default                                  : No
Forced                                   : No

Subtitle #9
ID                                       : 11
Format                                   : UTF-8
Codec ID                                 : S_TEXT/UTF8
Codec ID/Info                            : UTF-8 Plain Text
Duration                                 : 57 min 13 s
Bit rate                                 : 45 b/s
Count of elements                        : 457
Stream size                              : 19.0 KiB (0%)
Language                                 : Greek
Default                                  : No
Forced                                   : No

Subtitle #10
ID                                       : 12
Format                                   : UTF-8
Codec ID                                 : S_TEXT/UTF8
Codec ID/Info                            : UTF-8 Plain Text
Duration                                 : 1 h 0 min
Bit rate                                 : 25 b/s
Count of elements                        : 456
Stream size                              : 11.4 KiB (0%)
Language                                 : Spanish
Default                                  : No
Forced                                   : No

Subtitle #11
ID                                       : 13
Format                                   : UTF-8
Codec ID                                 : S_TEXT/UTF8
Codec ID/Info                            : UTF-8 Plain Text
Duration                                 : 57 min 13 s
Bit rate                                 : 28 b/s
Count of elements                        : 452
Stream size                              : 11.9 KiB (0%)
Title                                    : European
Language                                 : Spanish
Default                                  : No
Forced                                   : No

Subtitle #12
ID                                       : 14
Format                                   : UTF-8
Codec ID                                 : S_TEXT/UTF8
Codec ID/Info                            : UTF-8 Plain Text
Duration                                 : 1 h 1 min
Bit rate                                 : 24 b/s
Count of elements                        : 419
Stream size                              : 11.0 KiB (0%)
Language                                 : Finnish
Default                                  : No
Forced                                   : No

Subtitle #13
ID                                       : 15
Format                                   : UTF-8
Codec ID                                 : S_TEXT/UTF8
Codec ID/Info                            : UTF-8 Plain Text
Duration                                 : 57 min 12 s
Bit rate                                 : 27 b/s
Count of elements                        : 420
Stream size                              : 11.5 KiB (0%)
Language                                 : French
Default                                  : No
Forced                                   : No

Subtitle #14
ID                                       : 16
Format                                   : UTF-8
Codec ID                                 : S_TEXT/UTF8
Codec ID/Info                            : UTF-8 Plain Text
Duration                                 : 57 min 15 s
Bit rate                                 : 44 b/s
Count of elements                        : 456
Stream size                              : 18.7 KiB (0%)
Language                                 : Hebrew
Default                                  : No
Forced                                   : No

Subtitle #15
ID                                       : 17
Format                                   : UTF-8
Codec ID                                 : S_TEXT/UTF8
Codec ID/Info                            : UTF-8 Plain Text
Duration                                 : 1 h 0 min
Bit rate                                 : 24 b/s
Count of elements                        : 450
Stream size                              : 11.1 KiB (0%)
Language                                 : Hungarian
Default                                  : No
Forced                                   : No

Subtitle #16
ID                                       : 18
Format                                   : UTF-8
Codec ID                                 : S_TEXT/UTF8
Codec ID/Info                            : UTF-8 Plain Text
Duration                                 : 1 h 1 min
Bit rate                                 : 24 b/s
Count of elements                        : 451
Stream size                              : 11.1 KiB (0%)
Language                                 : Indonesian
Default                                  : No
Forced                                   : No

Subtitle #17
ID                                       : 19
Format                                   : UTF-8
Codec ID                                 : S_TEXT/UTF8
Codec ID/Info                            : UTF-8 Plain Text
Duration                                 : 1 h 0 min
Bit rate                                 : 24 b/s
Count of elements                        : 441
Stream size                              : 11.2 KiB (0%)
Language                                 : Italian
Default                                  : No
Forced                                   : No

Subtitle #18
ID                                       : 20
Format                                   : UTF-8
Codec ID                                 : S_TEXT/UTF8
Codec ID/Info                            : UTF-8 Plain Text
Duration                                 : 1 h 1 min
Bit rate                                 : 26 b/s
Count of elements                        : 431
Stream size                              : 11.7 KiB (0%)
Language                                 : Japanese
Default                                  : No
Forced                                   : No

Subtitle #19
ID                                       : 21
Format                                   : UTF-8
Codec ID                                 : S_TEXT/UTF8
Codec ID/Info                            : UTF-8 Plain Text
Duration                                 : 57 min 12 s
Bit rate                                 : 34 b/s
Count of elements                        : 453
Stream size                              : 14.5 KiB (0%)
Language                                 : Korean
Default                                  : No
Forced                                   : No

Subtitle #20
ID                                       : 22
Format                                   : UTF-8
Codec ID                                 : S_TEXT/UTF8
Codec ID/Info                            : UTF-8 Plain Text
Duration                                 : 57 min 18 s
Bit rate                                 : 27 b/s
Count of elements                        : 405
Stream size                              : 11.5 KiB (0%)
Language                                 : Norwegian Bokmal
Default                                  : No
Forced                                   : No

Subtitle #21
ID                                       : 23
Format                                   : UTF-8
Codec ID                                 : S_TEXT/UTF8
Codec ID/Info                            : UTF-8 Plain Text
Duration                                 : 57 min 19 s
Bit rate                                 : 26 b/s
Count of elements                        : 404
Stream size                              : 11.1 KiB (0%)
Language                                 : Dutch
Default                                  : No
Forced                                   : No

Subtitle #22
ID                                       : 24
Format                                   : UTF-8
Codec ID                                 : S_TEXT/UTF8
Codec ID/Info                            : UTF-8 Plain Text
Duration                                 : 1 h 1 min
Bit rate                                 : 23 b/s
Count of elements                        : 426
Stream size                              : 10.4 KiB (0%)
Language                                 : Polish
Default                                  : No
Forced                                   : No

Subtitle #23
ID                                       : 25
Format                                   : UTF-8
Codec ID                                 : S_TEXT/UTF8
Codec ID/Info                            : UTF-8 Plain Text
Duration                                 : 57 min 12 s
Bit rate                                 : 28 b/s
Count of elements                        : 449
Stream size                              : 11.8 KiB (0%)
Language                                 : Portuguese
Default                                  : No
Forced                                   : No

Subtitle #24
ID                                       : 26
Format                                   : UTF-8
Codec ID                                 : S_TEXT/UTF8
Codec ID/Info                            : UTF-8 Plain Text
Duration                                 : 1 h 0 min
Bit rate                                 : 25 b/s
Count of elements                        : 452
Stream size                              : 11.4 KiB (0%)
Title                                    : Brazilian
Language                                 : Portuguese
Default                                  : No
Forced                                   : No

Subtitle #25
ID                                       : 27
Format                                   : UTF-8
Codec ID                                 : S_TEXT/UTF8
Codec ID/Info                            : UTF-8 Plain Text
Duration                                 : 1 h 1 min
Bit rate                                 : 29 b/s
Count of elements                        : 440
Stream size                              : 13.0 KiB (0%)
Language                                 : Romanian
Default                                  : No
Forced                                   : No

Subtitle #26
ID                                       : 28
Format                                   : UTF-8
Codec ID                                 : S_TEXT/UTF8
Codec ID/Info                            : UTF-8 Plain Text
Duration                                 : 57 min 13 s
Bit rate                                 : 42 b/s
Count of elements                        : 455
Stream size                              : 17.9 KiB (0%)
Language                                 : Russian
Default                                  : No
Forced                                   : No

Subtitle #27
ID                                       : 29
Format                                   : UTF-8
Codec ID                                 : S_TEXT/UTF8
Codec ID/Info                            : UTF-8 Plain Text
Duration                                 : 57 min 18 s
Bit rate                                 : 27 b/s
Count of elements                        : 423
Stream size                              : 11.5 KiB (0%)
Language                                 : Swedish
Default                                  : No
Forced                                   : No

Subtitle #28
ID                                       : 30
Format                                   : UTF-8
Codec ID                                 : S_TEXT/UTF8
Codec ID/Info                            : UTF-8 Plain Text
Duration                                 : 1 h 1 min
Bit rate                                 : 64 b/s
Count of elements                        : 456
Stream size                              : 28.9 KiB (0%)
Language                                 : Thai
Default                                  : No
Forced                                   : No

Subtitle #29
ID                                       : 31
Format                                   : UTF-8
Codec ID                                 : S_TEXT/UTF8
Codec ID/Info                            : UTF-8 Plain Text
Duration                                 : 1 h 0 min
Bit rate                                 : 27 b/s
Count of elements                        : 452
Stream size                              : 12.2 KiB (0%)
Language                                 : Turkish
Default                                  : No
Forced                                   : No

Subtitle #30
ID                                       : 32
Format                                   : UTF-8
Codec ID                                 : S_TEXT/UTF8
Codec ID/Info                            : UTF-8 Plain Text
Duration                                 : 57 min 12 s
Bit rate                                 : 38 b/s
Count of elements                        : 449
Stream size                              : 16.2 KiB (0%)
Language                                 : Vietnamese
Default                                  : No
Forced                                   : No

Subtitle #31
ID                                       : 33
Format                                   : UTF-8
Codec ID                                 : S_TEXT/UTF8
Codec ID/Info                            : UTF-8 Plain Text
Duration                                 : 1 h 0 min
Bit rate                                 : 27 b/s
Count of elements                        : 475
Stream size                              : 12.5 KiB (0%)
Title                                    : Simplified
Language                                 : Chinese
Default                                  : No
Forced                                   : No

Subtitle #32
ID                                       : 34
Format                                   : UTF-8
Codec ID                                 : S_TEXT/UTF8
Codec ID/Info                            : UTF-8 Plain Text
Duration                                 : 57 min 12 s
Bit rate                                 : 29 b/s
Count of elements                        : 456
Stream size                              : 12.5 KiB (0%)
Title                                    : Traditional
Language                                 : Chinese
Default                                  : No
Forced                                   : No

Menu
00:03:35.520                             : en:Credit start
00:04:58.020                             : en:Credit end

Screens

Download

Download: Google Drive (5.82 GB)

Season 3 (2160p)

DARK (2018) Season 03 S03 DUAL AUDIO (2160p NF WEBRip x265 HEVC 10bit AAC 5.1 Joy) [UTR]

Files

Dark Season 3 [2160p x265 DUAL 10bit S99 Joy]

  • Dark S03E01 Deja-vu [2160p x265 10bit Joy].mkv (1.9 GB)
  • Dark S03E02 The Survivors [2160p x265 10bit Joy].mkv (1.9 GB)
  • Dark S03E03 Adam and Eva [2160p x265 10bit Joy].mkv (1.8 GB)
  • Dark S03E04 The Origin [2160p x265 10bit Joy].mkv (2.0 GB)
  • Dark S03E05 Life and Death [2160p x265 10bit Joy].mkv (2.0 GB)
  • Dark S03E06 Light and Shadow [2160p x265 10bit Joy].mkv (1.8 GB)
  • Dark S03E07 Between the Time [2160p x265 10bit Joy].mkv (2.2 GB)
  • Dark S03E08 The Paradise [2160p x265 10bit Joy].mkv (2.3 GB)

Mediainfo

General
Format                                   : Matroska
Format version                           : Version 4 / Version 2
File size                                : 1.94 GiB
Duration                                 : 1 h 2 min
Overall bit rate                         : 4 483 kb/s
Encoded date                             : UTC 2020-07-03 20:55:57
Writing application                      : mkvmerge v48.0.0 ('Fortress Around Your Heart') 64-bit
Writing library                          : libebml v1.4.0 + libmatroska v1.6.0

Video
ID                                       : 1
Format                                   : HEVC
Format/Info                              : High Efficiency Video Coding
Format profile                           : Main [email protected]@Main
Codec ID                                 : V_MPEGH/ISO/HEVC
Duration                                 : 1 h 1 min
Bit rate                                 : 4 001 kb/s
Width                                    : 3 840 pixels
Height                                   : 1 920 pixels
Display aspect ratio                     : 2.000
Frame rate mode                          : Constant
Frame rate                               : 24.000 FPS
Color space                              : YUV
Chroma subsampling                       : 4:2:0
Bit depth                                : 10 bits
Bits/(Pixel*Frame)                       : 0.023
Stream size                              : 1.72 GiB (88%)
Writing library                          : x265 3.2+9-971180b100f8:[Windows][GCC 9.2.0][64 bit] 10bit
Encoding settings                        : cpuid=1111039 / frame-threads=3 / numa-pools=12 / wpp / no-pmode / no-pme / no-psnr / ssim / log-level=2 / input-csp=1 / input-res=3840x1920 / interlace=0 / total-frames=88392 / level-idc=0 / high-tier=1 / uhd-bd=0 / ref=3 / no-allow-non-conformance / no-repeat-headers / annexb / no-aud / no-hrd / info / hash=0 / no-temporal-layers / open-gop / min-keyint=24 / keyint=250 / gop-lookahead=0 / bframes=8 / b-adapt=2 / b-pyramid / bframe-bias=40 / rc-lookahead=80 / lookahead-slices=8 / scenecut=40 / radl=0 / no-splice / no-intra-refresh / ctu=64 / min-cu-size=8 / no-rect / no-amp / max-tu-size=32 / tu-inter-depth=1 / tu-intra-depth=1 / limit-tu=0 / rdoq-level=2 / dynamic-rd=0.00 / ssim-rd / signhide / no-tskip / nr-intra=0 / nr-inter=0 / constrained-intra / strong-intra-smoothing / max-merge=3 / limit-refs=1 / no-limit-modes / me=3 / subme=5 / merange=57 / temporal-mvp / no-frame-dup / no-hme / weightp / no-weightb / no-analyze-src-pics / deblock=0:0 / no-sao / no-sao-non-deblock / rd=3 / selective-sao=0 / early-skip / rskip / no-fast-intra / no-tskip-fast / no-cu-lossless / b-intra / splitrd-skip / rdpenalty=0 / psy-rd=0.00 / psy-rdoq=0.00 / no-rd-refine / no-lossless / cbqpoffs=0 / crqpoffs=0 / rc=abr / bitrate=4000 / qcomp=0.60 / qpstep=4 / stats-write=0 / stats-read=2 / cplxblur=20.0 / qblur=0.5 / ipratio=1.40 / pbratio=1.30 / aq-mode=3 / aq-strength=0.30 / cutree / zone-count=0 / no-strict-cbr / qg-size=32 / no-rc-grain / qpmax=69 / qpmin=0 / no-const-vbv / sar=0 / overscan=0 / videoformat=5 / range=0 / colorprim=1 / transfer=1 / colormatrix=1 / chromaloc=0 / display-window=0 / cll=0,0 / min-luma=0 / max-luma=1023 / log2-max-poc-lsb=8 / vui-timing-info / vui-hrd-info / slices=1 / no-opt-qp-pps / no-opt-ref-list-length-pps / multi-pass-opt-rps / scenecut-bias=0.05 / no-opt-cu-delta-qp / no-aq-motion / no-hdr / no-hdr-opt / no-dhdr10-opt / no-idr-recovery-sei / analysis-load / analysis-reuse-level=10 / scale-factor=0 / refine-intra=0 / refine-inter=0 / refine-mv=1 / refine-ctu-distortion=0 / no-limit-sao / ctu-info=0 / no-lowpass-dct / refine-analysis-type=0 / copy-pic=1 / max-ausize-factor=1.0 / no-dynamic-refine / no-single-sei / no-hevc-aq / no-svt / no-field / qp-adaptation-range=1.00
Default                                  : Yes
Forced                                   : No
Color range                              : Limited
Color primaries                          : BT.709
Transfer characteristics                 : BT.709
Matrix coefficients                      : BT.709

Audio #1
ID                                       : 2
Format                                   : AAC
Format/Info                              : Advanced Audio Codec
Format profile                           : LC
Codec ID                                 : A_AAC
Duration                                 : 1 h 1 min
Bit rate                                 : 265 kb/s
Channel(s)                               : 6 channels
Channel positions                        : Front: L C R, Side: L R, LFE
Sampling rate                            : 48.0 kHz
Frame rate                               : 46.875 FPS (1024 spf)
Compression mode                         : Lossy
Delay relative to video                  : 9 ms
Stream size                              : 116 MiB (6%)
Language                                 : German
Default                                  : No
Forced                                   : No

Audio #2
ID                                       : 35
Format                                   : AAC
Format/Info                              : Advanced Audio Codec
Format profile                           : LC
Codec ID                                 : A_AAC
Duration                                 : 1 h 2 min
Bit rate                                 : 265 kb/s
Channel(s)                               : 6 channels
Channel positions                        : Front: L C R, Side: L R, LFE
Sampling rate                            : 48.0 kHz
Frame rate                               : 46.875 FPS (1024 spf)
Compression mode                         : Lossy
Delay relative to video                  : 9 ms
Stream size                              : 116 MiB (6%)
Language                                 : English
Default                                  : No
Forced                                   : No

Subtitle #1
ID                                       : 3
Format                                   : UTF-8
Codec ID                                 : S_TEXT/UTF8
Codec ID/Info                            : UTF-8 Plain Text
Duration                                 : 42 min 49 s
Bit rate                                 : 0 b/s
Count of elements                        : 5
Stream size                              : 74.0 Bytes (0%)
Title                                    : Forced
Language                                 : German
Default                                  : No
Forced                                   : Yes

Subtitle #2
ID                                       : 4
Format                                   : UTF-8
Codec ID                                 : S_TEXT/UTF8
Codec ID/Info                            : UTF-8 Plain Text
Duration                                 : 57 min 14 s
Bit rate                                 : 37 b/s
Count of elements                        : 594
Stream size                              : 15.9 KiB (0%)
Title                                    : SDH
Language                                 : English
Default                                  : No
Forced                                   : No

Subtitle #3
ID                                       : 5
Format                                   : UTF-8
Codec ID                                 : S_TEXT/UTF8
Codec ID/Info                            : UTF-8 Plain Text
Duration                                 : 1 h 1 min
Bit rate                                 : 26 b/s
Count of elements                        : 449
Stream size                              : 11.8 KiB (0%)
Language                                 : English
Default                                  : No
Forced                                   : No

Subtitle #4
ID                                       : 6
Format                                   : UTF-8
Codec ID                                 : S_TEXT/UTF8
Codec ID/Info                            : UTF-8 Plain Text
Duration                                 : 1 h 0 min
Bit rate                                 : 44 b/s
Count of elements                        : 456
Stream size                              : 19.8 KiB (0%)
Language                                 : Arabic
Default                                  : No
Forced                                   : No

Subtitle #5
ID                                       : 7
Format                                   : UTF-8
Codec ID                                 : S_TEXT/UTF8
Codec ID/Info                            : UTF-8 Plain Text
Duration                                 : 57 min 13 s
Bit rate                                 : 25 b/s
Count of elements                        : 451
Stream size                              : 10.9 KiB (0%)
Language                                 : Czech
Default                                  : No
Forced                                   : No

Subtitle #6
ID                                       : 8
Format                                   : UTF-8
Codec ID                                 : S_TEXT/UTF8
Codec ID/Info                            : UTF-8 Plain Text
Duration                                 : 57 min 18 s
Bit rate                                 : 27 b/s
Count of elements                        : 416
Stream size                              : 11.5 KiB (0%)
Language                                 : Danish
Default                                  : No
Forced                                   : No

Subtitle #7
ID                                       : 9
Format                                   : UTF-8
Codec ID                                 : S_TEXT/UTF8
Codec ID/Info                            : UTF-8 Plain Text
Duration                                 : 56 min 57 s
Bit rate                                 : 32 b/s
Count of elements                        : 471
Stream size                              : 13.6 KiB (0%)
Language                                 : German
Default                                  : No
Forced                                   : No

Subtitle #8
ID                                       : 10
Format                                   : UTF-8
Codec ID                                 : S_TEXT/UTF8
Codec ID/Info                            : UTF-8 Plain Text
Duration                                 : 57 min 1 s
Bit rate                                 : 38 b/s
Count of elements                        : 568
Stream size                              : 16.0 KiB (0%)
Title                                    : SDH
Language                                 : German
Default                                  : No
Forced                                   : No

Subtitle #9
ID                                       : 11
Format                                   : UTF-8
Codec ID                                 : S_TEXT/UTF8
Codec ID/Info                            : UTF-8 Plain Text
Duration                                 : 57 min 13 s
Bit rate                                 : 45 b/s
Count of elements                        : 457
Stream size                              : 19.0 KiB (0%)
Language                                 : Greek
Default                                  : No
Forced                                   : No

Subtitle #10
ID                                       : 12
Format                                   : UTF-8
Codec ID                                 : S_TEXT/UTF8
Codec ID/Info                            : UTF-8 Plain Text
Duration                                 : 1 h 0 min
Bit rate                                 : 25 b/s
Count of elements                        : 456
Stream size                              : 11.4 KiB (0%)
Language                                 : Spanish
Default                                  : No
Forced                                   : No

Subtitle #11
ID                                       : 13
Format                                   : UTF-8
Codec ID                                 : S_TEXT/UTF8
Codec ID/Info                            : UTF-8 Plain Text
Duration                                 : 57 min 13 s
Bit rate                                 : 28 b/s
Count of elements                        : 452
Stream size                              : 11.9 KiB (0%)
Title                                    : European
Language                                 : Spanish
Default                                  : No
Forced                                   : No

Subtitle #12
ID                                       : 14
Format                                   : UTF-8
Codec ID                                 : S_TEXT/UTF8
Codec ID/Info                            : UTF-8 Plain Text
Duration                                 : 1 h 1 min
Bit rate                                 : 24 b/s
Count of elements                        : 419
Stream size                              : 11.0 KiB (0%)
Language                                 : Finnish
Default                                  : No
Forced                                   : No

Subtitle #13
ID                                       : 15
Format                                   : UTF-8
Codec ID                                 : S_TEXT/UTF8
Codec ID/Info                            : UTF-8 Plain Text
Duration                                 : 57 min 12 s
Bit rate                                 : 27 b/s
Count of elements                        : 420
Stream size                              : 11.5 KiB (0%)
Language                                 : French
Default                                  : No
Forced                                   : No

Subtitle #14
ID                                       : 16
Format                                   : UTF-8
Codec ID                                 : S_TEXT/UTF8
Codec ID/Info                            : UTF-8 Plain Text
Duration                                 : 57 min 15 s
Bit rate                                 : 44 b/s
Count of elements                        : 456
Stream size                              : 18.7 KiB (0%)
Language                                 : Hebrew
Default                                  : No
Forced                                   : No

Subtitle #15
ID                                       : 17
Format                                   : UTF-8
Codec ID                                 : S_TEXT/UTF8
Codec ID/Info                            : UTF-8 Plain Text
Duration                                 : 1 h 0 min
Bit rate                                 : 24 b/s
Count of elements                        : 450
Stream size                              : 11.1 KiB (0%)
Language                                 : Hungarian
Default                                  : No
Forced                                   : No

Subtitle #16
ID                                       : 18
Format                                   : UTF-8
Codec ID                                 : S_TEXT/UTF8
Codec ID/Info                            : UTF-8 Plain Text
Duration                                 : 1 h 1 min
Bit rate                                 : 24 b/s
Count of elements                        : 451
Stream size                              : 11.1 KiB (0%)
Language                                 : Indonesian
Default                                  : No
Forced                                   : No

Subtitle #17
ID                                       : 19
Format                                   : UTF-8
Codec ID                                 : S_TEXT/UTF8
Codec ID/Info                            : UTF-8 Plain Text
Duration                                 : 1 h 0 min
Bit rate                                 : 24 b/s
Count of elements                        : 441
Stream size                              : 11.2 KiB (0%)
Language                                 : Italian
Default                                  : No
Forced                                   : No

Subtitle #18
ID                                       : 20
Format                                   : UTF-8
Codec ID                                 : S_TEXT/UTF8
Codec ID/Info                            : UTF-8 Plain Text
Duration                                 : 1 h 1 min
Bit rate                                 : 26 b/s
Count of elements                        : 431
Stream size                              : 11.7 KiB (0%)
Language                                 : Japanese
Default                                  : No
Forced                                   : No

Subtitle #19
ID                                       : 21
Format                                   : UTF-8
Codec ID                                 : S_TEXT/UTF8
Codec ID/Info                            : UTF-8 Plain Text
Duration                                 : 57 min 12 s
Bit rate                                 : 34 b/s
Count of elements                        : 453
Stream size                              : 14.5 KiB (0%)
Language                                 : Korean
Default                                  : No
Forced                                   : No

Subtitle #20
ID                                       : 22
Format                                   : UTF-8
Codec ID                                 : S_TEXT/UTF8
Codec ID/Info                            : UTF-8 Plain Text
Duration                                 : 57 min 18 s
Bit rate                                 : 27 b/s
Count of elements                        : 405
Stream size                              : 11.5 KiB (0%)
Language                                 : Norwegian Bokmal
Default                                  : No
Forced                                   : No

Subtitle #21
ID                                       : 23
Format                                   : UTF-8
Codec ID                                 : S_TEXT/UTF8
Codec ID/Info                            : UTF-8 Plain Text
Duration                                 : 57 min 19 s
Bit rate                                 : 26 b/s
Count of elements                        : 404
Stream size                              : 11.1 KiB (0%)
Language                                 : Dutch
Default                                  : No
Forced                                   : No

Subtitle #22
ID                                       : 24
Format                                   : UTF-8
Codec ID                                 : S_TEXT/UTF8
Codec ID/Info                            : UTF-8 Plain Text
Duration                                 : 1 h 1 min
Bit rate                                 : 23 b/s
Count of elements                        : 426
Stream size                              : 10.4 KiB (0%)
Language                                 : Polish
Default                                  : No
Forced                                   : No

Subtitle #23
ID                                       : 25
Format                                   : UTF-8
Codec ID                                 : S_TEXT/UTF8
Codec ID/Info                            : UTF-8 Plain Text
Duration                                 : 57 min 12 s
Bit rate                                 : 28 b/s
Count of elements                        : 449
Stream size                              : 11.8 KiB (0%)
Language                                 : Portuguese
Default                                  : No
Forced                                   : No

Subtitle #24
ID                                       : 26
Format                                   : UTF-8
Codec ID                                 : S_TEXT/UTF8
Codec ID/Info                            : UTF-8 Plain Text
Duration                                 : 1 h 0 min
Bit rate                                 : 25 b/s
Count of elements                        : 452
Stream size                              : 11.4 KiB (0%)
Title                                    : Brazilian
Language                                 : Portuguese
Default                                  : No
Forced                                   : No

Subtitle #25
ID                                       : 27
Format                                   : UTF-8
Codec ID                                 : S_TEXT/UTF8
Codec ID/Info                            : UTF-8 Plain Text
Duration                                 : 1 h 1 min
Bit rate                                 : 29 b/s
Count of elements                        : 440
Stream size                              : 13.0 KiB (0%)
Language                                 : Romanian
Default                                  : No
Forced                                   : No

Subtitle #26
ID                                       : 28
Format                                   : UTF-8
Codec ID                                 : S_TEXT/UTF8
Codec ID/Info                            : UTF-8 Plain Text
Duration                                 : 57 min 13 s
Bit rate                                 : 42 b/s
Count of elements                        : 455
Stream size                              : 17.9 KiB (0%)
Language                                 : Russian
Default                                  : No
Forced                                   : No

Subtitle #27
ID                                       : 29
Format                                   : UTF-8
Codec ID                                 : S_TEXT/UTF8
Codec ID/Info                            : UTF-8 Plain Text
Duration                                 : 57 min 18 s
Bit rate                                 : 27 b/s
Count of elements                        : 423
Stream size                              : 11.5 KiB (0%)
Language                                 : Swedish
Default                                  : No
Forced                                   : No

Subtitle #28
ID                                       : 30
Format                                   : UTF-8
Codec ID                                 : S_TEXT/UTF8
Codec ID/Info                            : UTF-8 Plain Text
Duration                                 : 1 h 1 min
Bit rate                                 : 64 b/s
Count of elements                        : 456
Stream size                              : 28.9 KiB (0%)
Language                                 : Thai
Default                                  : No
Forced                                   : No

Subtitle #29
ID                                       : 31
Format                                   : UTF-8
Codec ID                                 : S_TEXT/UTF8
Codec ID/Info                            : UTF-8 Plain Text
Duration                                 : 1 h 0 min
Bit rate                                 : 27 b/s
Count of elements                        : 452
Stream size                              : 12.2 KiB (0%)
Language                                 : Turkish
Default                                  : No
Forced                                   : No

Subtitle #30
ID                                       : 32
Format                                   : UTF-8
Codec ID                                 : S_TEXT/UTF8
Codec ID/Info                            : UTF-8 Plain Text
Duration                                 : 57 min 12 s
Bit rate                                 : 38 b/s
Count of elements                        : 449
Stream size                              : 16.2 KiB (0%)
Language                                 : Vietnamese
Default                                  : No
Forced                                   : No

Subtitle #31
ID                                       : 33
Format                                   : UTF-8
Codec ID                                 : S_TEXT/UTF8
Codec ID/Info                            : UTF-8 Plain Text
Duration                                 : 1 h 0 min
Bit rate                                 : 27 b/s
Count of elements                        : 475
Stream size                              : 12.5 KiB (0%)
Title                                    : Simplified
Language                                 : Chinese
Default                                  : No
Forced                                   : No

Subtitle #32
ID                                       : 34
Format                                   : UTF-8
Codec ID                                 : S_TEXT/UTF8
Codec ID/Info                            : UTF-8 Plain Text
Duration                                 : 57 min 12 s
Bit rate                                 : 29 b/s
Count of elements                        : 456
Stream size                              : 12.5 KiB (0%)
Title                                    : Traditional
Language                                 : Chinese
Default                                  : No
Forced                                   : No

Menu
00:03:35.520                             : en:Credit start
00:04:58.020                             : en:Credit end

Screens

Download

Download: Google Drive (15.91 GB)

3 thoughts on “DARK Season 1-3 (1080p + 2160p NF WEB-DL x265 HEVC 10bit AAC 5.1 English+German Joy)

Leave a Reply