Counterpart (2017) Season 1-2 (1080p Mixed x265 HEVC 10bit AAC 5.1 Vyndros)

Plot: After discovering that the spy agency he works for is hiding a gateway to a parallel dimension, a low-level UN bureaucrat in Berlin is thrust into a shadow world of intrigue and danger and must determine if he can trust his near-identical counterpart in the other world.

Season 1

Counterpart (2017) Season 1 S01 (1080p BluRay x265 HEVC 10bit AAC 5.1 Vyndros)

Files

Counterpart (2017) Season 1 S01 (1080p BluRay x265 HEVC 10bit AAC 5.1 Vyndros)

  • Counterpart.S01E01.The.Crossing.1080p.10bit.BluRay.AAC5.1.HEVC-Vyndros.mkv (877.7 MB)
  • Counterpart.S01E02.Birds.of.a.Feather.1080p.10bit.BluRay.AAC5.1.HEVC-Vyndros.mkv (869.9 MB)
  • Counterpart.S01E03.The.Lost.Art.of.Diplomacy.1080p.10bit.BluRay.AAC5.1.HEVC-Vyndros.mkv (969.9 MB)
  • Counterpart.S01E04.Both.Sides.Now.1080p.10bit.BluRay.AAC5.1.HEVC-Vyndros.mkv (815.0 MB)
  • Counterpart.S01E05.Shaking.the.Tree.1080p.10bit.BluRay.AAC5.1.HEVC-Vyndros.mkv (958.5 MB)
  • Counterpart.S01E06.Act.Like.You’ve.Been.Here.Before.1080p.10bit.BluRay.AAC5.1.HEVC-Vyndros.mkv (893.0 MB)
  • Counterpart.S01E07.The.Sincerest.Form.of.Flattery.1080p.10bit.BluRay.AAC5.1.HEVC-Vyndros.mkv (788.5 MB)
  • Counterpart.S01E08.Love.the.Lie.1080p.10bit.BluRay.AAC5.1.HEVC-Vyndros.mkv (884.9 MB)
  • Counterpart.S01E09.No.Man’s.Land,.Part.One.1080p.10bit.BluRay.AAC5.1.HEVC-Vyndros.mkv (902.4 MB)
  • Counterpart.S01E10.No.Man’s.Land,.Part.Two.1080p.10bit.BluRay.AAC5.1.HEVC-Vyndros.mkv (778.6 MB)

Mediainfo

General
Format                                   : Matroska
Format version                           : Version 4 / Version 2
File size                                : 902 MiB
Duration                                 : 52 min 23 s
Overall bit rate                         : 2 408 kb/s
Encoded date                             : UTC 2018-08-29 10:43:56
Writing application                      : mkvmerge v20.0.0 ('I Am The Sun') 64-bit
Writing library                          : libebml v1.3.5 + libmatroska v1.4.8
Writing frontend                         : StaxRip v1.7.0.6

Video
ID                                       : 1
Format                                   : HEVC
Format/Info                              : High Efficiency Video Coding
Format profile                           : Main [email protected]@Main
Codec ID                                 : V_MPEGH/ISO/HEVC
Duration                                 : 52 min 23 s
Bit rate                                 : 1 953 kb/s
Width                                    : 1 920 pixels
Height                                   : 1 080 pixels
Display aspect ratio                     : 16:9
Frame rate mode                          : Constant
Frame rate                               : 23.976 (24000/1001) FPS
Color space                              : YUV
Chroma subsampling                       : 4:2:0
Bit depth                                : 10 bits
Bits/(Pixel*Frame)                       : 0.039
Stream size                              : 732 MiB (81%)
Writing library                          : x265 2.8+57-eea92165b035:[Windows][GCC 7.3.0][64 bit] 10bit
Encoding settings                        : cpuid=1111039 / frame-threads=3 / numa-pools=12 / wpp / no-pmode / no-pme / no-psnr / ssim / log-level=2 / input-csp=1 / input-res=1920x1080 / interlace=0 / total-frames=75361 / level-idc=0 / high-tier=1 / uhd-bd=0 / ref=3 / no-allow-non-conformance / no-repeat-headers / annexb / no-aud / no-hrd / info / hash=0 / no-temporal-layers / open-gop / min-keyint=23 / keyint=250 / gop-lookahead=0 / bframes=8 / b-adapt=2 / b-pyramid / bframe-bias=0 / rc-lookahead=50 / lookahead-slices=6 / scenecut=40 / radl=0 / no-intra-refresh / ctu=64 / min-cu-size=8 / no-rect / no-amp / max-tu-size=32 / tu-inter-depth=1 / tu-intra-depth=1 / limit-tu=0 / rdoq-level=0 / dynamic-rd=0.00 / no-ssim-rd / signhide / no-tskip / nr-intra=0 / nr-inter=0 / no-constrained-intra / no-strong-intra-smoothing / max-merge=3 / limit-refs=3 / no-limit-modes / me=3 / subme=5 / merange=57 / temporal-mvp / weightp / no-weightb / no-analyze-src-pics / deblock=0:0 / sao / no-sao-non-deblock / rd=3 / no-early-skip / no-rskip / no-fast-intra / no-tskip-fast / no-cu-lossless / no-b-intra / no-splitrd-skip / rdpenalty=0 / psy-rd=2.00 / psy-rdoq=0.00 / no-rd-refine / no-lossless / cbqpoffs=0 / crqpoffs=0 / rc=crf / crf=19.0 / qcomp=0.60 / qpstep=4 / stats-write=0 / stats-read=0 / ipratio=1.40 / pbratio=1.30 / aq-mode=3 / aq-strength=1.00 / cutree / zone-count=0 / no-strict-cbr / qg-size=32 / no-rc-grain / qpmax=69 / qpmin=0 / no-const-vbv / sar=0 / overscan=0 / videoformat=5 / range=0 / colorprim=2 / transfer=2 / colormatrix=2 / chromaloc=0 / display-window=0 / max-cll=0,0 / min-luma=0 / max-luma=1023 / log2-max-poc-lsb=8 / vui-timing-info / vui-hrd-info / slices=1 / no-opt-qp-pps / no-opt-ref-list-length-pps / no-multi-pass-opt-rps / scenecut-bias=0.05 / no-opt-cu-delta-qp / no-aq-motion / no-hdr / no-hdr-opt / no-dhdr10-opt / no-idr-recovery-sei / analysis-reuse-level=5 / scale-factor=0 / refine-intra=0 / refine-inter=0 / refine-mv=0 / no-limit-sao / ctu-info=0 / no-lowpass-dct / refine-mv-type=0 / copy-pic=1 / max-ausize-factor=1.0 / no-dynamic-refine / no-single-sei
Default                                  : Yes
Forced                                   : No

Audio
ID                                       : 2
Format                                   : AAC
Format/Info                              : Advanced Audio Codec
Format profile                           : LC
Codec ID                                 : A_AAC
Duration                                 : 52 min 23 s
Bit rate                                 : 442 kb/s
Channel(s)                               : 6 channels
Channel positions                        : Front: L C R, Side: L R, LFE
Sampling rate                            : 48.0 kHz
Frame rate                               : 46.875 FPS (1024 spf)
Compression mode                         : Lossy
Stream size                              : 165 MiB (18%)
Language                                 : English
Default                                  : Yes
Forced                                   : Yes

Subtitle
ID                                       : 3
Format                                   : PGS
Muxing mode                              : zlib
Codec ID                                 : S_HDMV/PGS
Codec ID/Info                            : Picture based subtitle format used on BDs/HD-DVDs
Duration                                 : 51 min 5 s
Bit rate                                 : 25.2 kb/s
Count of elements                        : 1276
Stream size                              : 9.19 MiB (1%)
Language                                 : English
Default                                  : No
Forced                                   : No

Download

Season: Google Drive (8.53 GB)

Season 2

Counterpart (2017) Season 2 S02 (1080p AMZN WEB-DL x265 HEVC 10bit AAC 5.1 Vyndros)

Files

Counterpart (2017) Season 2 S02 (1080p AMZN WEB-DL x265 HEVC 10bit AAC 5.1 Vyndros)

  • Counterpart.S02E01.Inside.Out.1080p.10bit.AMZN.WEB-DL.AAC5.1.HEVC-Vyndros.mkv (856.0 MB)
  • Counterpart.S02E02.Outside.In.1080p.10bit.AMZN.WEB-DL.AAC5.1.HEVC-Vyndros.mkv (710.3 MB)
  • Counterpart.S02E03.Something.Borrowed.1080p.10bit.AMZN.WEB-DL.AAC5.1.HEVC-Vyndros.mkv (830.9 MB)
  • Counterpart.S02E04.Point.of.Departure.1080p.10bit.AMZN.WEB-DL.AAC5.1.HEVC-Vyndros.mkv (905.6 MB)
  • Counterpart.S02E05.Shadow.Puppets.1080p.10bit.AMZN.WEB-DL.AAC5.1.HEVC-Vyndros.mkv (798.3 MB)
  • Counterpart.S02E06.Twin.Cities.1080p.10bit.AMZN.WEB-DL.AAC5.1.HEVC-Vyndros.mkv (1.0 GB)
  • Counterpart.S02E07.No.Strings.Attached.1080p.10bit.AMZN.WEB-DL.AAC5.1.HEVC-Vyndros.mkv (753.6 MB)
  • Counterpart.S02E08.In.from.the.Cold.1080p.10bit.AMZN.WEB-DL.AAC5.1.HEVC-Vyndros.mkv (590.8 MB)
  • Counterpart.S02E09.You.to.You.1080p.10bit.AMZN.WEB-DL.AAC5.1.HEVC-Vyndros.mkv (817.4 MB)
  • Counterpart.S02E10.Better.Angels.1080p.10bit.AMZN.WEB-DL.AAC5.1.HEVC-Vyndros.mkv (1.1 GB)

Mediainfo

General
Format : Matroska
Format version : Version 4 / Version 2
File size : 1.06 GiB
Duration : 59 min 9 s
Overall bit rate : 2 572 kb/s
Encoded date : UTC 2019-02-17 19:46:25
Writing application : mkvmerge v20.0.0 ('I Am The Sun') 64-bit
Writing library : libebml v1.3.5 + libmatroska v1.4.8
Writing frontend : StaxRip v1.7.0.6

Video
ID : 1
Format : HEVC
Format/Info : High Efficiency Video Coding
Format profile : Main [email protected]@Main
Codec ID : V_MPEGH/ISO/HEVC
Duration : 59 min 9 s
Bit rate : 2 122 kb/s
Width : 1 920 pixels
Height : 1 080 pixels
Display aspect ratio : 16:9
Frame rate mode : Constant
Frame rate : 23.976 (24000/1001) FPS
Color space : YUV
Chroma subsampling : 4:2:0
Bit depth : 10 bits
Bits/(Pixel*Frame) : 0.043
Stream size : 898 MiB (82%)
Writing library : x265 3.0_RC+14-46b84ff665fd:[Windows][GCC 8.2.1][64 bit] 10bit
Encoding settings : cpuid=1111039 / frame-threads=3 / numa-pools=12 / wpp / no-pmode / no-pme / no-psnr / ssim / log-level=2 / input-csp=1 / input-res=1920x1080 / interlace=0 / total-frames=85093 / level-idc=0 / high-tier=1 / uhd-bd=0 / ref=3 / no-allow-non-conformance / no-repeat-headers / annexb / no-aud / no-hrd / info / hash=0 / no-temporal-layers / open-gop / min-keyint=23 / keyint=250 / gop-lookahead=0 / bframes=8 / b-adapt=2 / b-pyramid / bframe-bias=0 / rc-lookahead=50 / lookahead-slices=6 / scenecut=40 / radl=0 / no-splice / no-intra-refresh / ctu=64 / min-cu-size=8 / no-rect / no-amp / max-tu-size=32 / tu-inter-depth=1 / tu-intra-depth=1 / limit-tu=0 / rdoq-level=0 / dynamic-rd=0.00 / no-ssim-rd / signhide / no-tskip / nr-intra=0 / nr-inter=0 / no-constrained-intra / no-strong-intra-smoothing / max-merge=3 / limit-refs=3 / no-limit-modes / me=3 / subme=3 / merange=57 / temporal-mvp / weightp / no-weightb / no-analyze-src-pics / deblock=0:0 / sao / no-sao-non-deblock / rd=3 / no-early-skip / no-rskip / no-fast-intra / no-tskip-fast / no-cu-lossless / no-b-intra / no-splitrd-skip / rdpenalty=0 / psy-rd=2.00 / psy-rdoq=0.00 / no-rd-refine / no-lossless / cbqpoffs=0 / crqpoffs=0 / rc=crf / crf=20.0 / qcomp=0.60 / qpstep=4 / stats-write=0 / stats-read=0 / ipratio=1.40 / pbratio=1.30 / aq-mode=3 / aq-strength=0.80 / cutree / zone-count=0 / no-strict-cbr / qg-size=32 / no-rc-grain / qpmax=69 / qpmin=0 / no-const-vbv / sar=0 / overscan=0 / videoformat=5 / range=0 / colorprim=2 / transfer=2 / colormatrix=2 / chromaloc=0 / display-window=0 / max-cll=0,0 / min-luma=0 / max-luma=1023 / log2-max-poc-lsb=8 / vui-timing-info / vui-hrd-info / slices=1 / no-opt-qp-pps / no-opt-ref-list-length-pps / no-multi-pass-opt-rps / scenecut-bias=0.05 / no-opt-cu-delta-qp / no-aq-motion / no-hdr / no-hdr-opt / no-dhdr10-opt / no-idr-recovery-sei / analysis-reuse-level=5 / scale-factor=0 / refine-intra=0 / refine-inter=0 / refine-mv=0 / refine-ctu-distortion=0 / no-limit-sao / ctu-info=0 / no-lowpass-dct / refine-analysis-type=0 / copy-pic=1 / max-ausize-factor=1.0 / no-dynamic-refine / no-single-sei / no-hevc-aq / qp-adaptation-range=1.00
Default : Yes
Forced : No

Audio
ID : 2
Format : AAC
Format/Info : Advanced Audio Codec
Format profile : LC
Codec ID : A_AAC
Duration : 59 min 9 s
Bit rate : 448 kb/s
Channel(s) : 6 channels
Channel positions : Front: L C R, Side: L R, LFE
Sampling rate : 48.0 kHz
Frame rate : 46.875 FPS (1024 spf)
Compression mode : Lossy
Stream size : 189 MiB (17%)
Language : English
Default : Yes
Forced : Yes

Subtitle
ID : 3
Format : UTF-8
Codec ID : S_TEXT/UTF8
Codec ID/Info : UTF-8 Plain Text
Duration : 57 min 40 s
Bit rate : 43 b/s
Count of elements : 712
Stream size : 18.4 KiB (0%)
Language : English
Default : No
Forced : No

Download

Season: Google Drive (8.18 GB)

Leave a Reply