Cosmos: A Spacetime Odyssey (2014) Season 1 (1080p BluRay x265 HEVC 10bit AAC 5.1 Silence)

Info

Summary: Hosted by renowned astrophysicist Dr. Neil deGrasse Tyson, Cosmos continues from its 1980 predecessor, exploring how we discovered the laws of nature and found our coordinates in space and time. It brings to life never-before-told stories of the heroic quest for knowledge and transports viewers to new worlds and across the universe for a vision of the cosmos on the grandest scale. The most profound scientific concepts are presented with stunning clarity, uniting skepticism and wonder, weaving rigorous science with emotion and spirituality to form a single, united, transcendent experience.

Files

Cosmos A Spacetime Odyssey (2014) Season 1 S01 + Extras (1080p BluRay x265 HEVC 10bit AAC 5.1 Silence)
Cosmos A Spacetime Odyssey (2014) - S01E01 - Standing Up in the Milky Way (1080p BluRay x265 Silence).mkv (1.4 GB)
Cosmos A Spacetime Odyssey (2014) - S01E02 - Some of the Things that Molecules Do (1080p BluRay x265 Silence).mkv (1.4 GB)
Cosmos A Spacetime Odyssey (2014) - S01E03 - When Knowledge Conquered Fear (1080p BluRay x265 Silence).mkv (1.1 GB)
Cosmos A Spacetime Odyssey (2014) - S01E04 - A Sky Full of Ghosts (1080p BluRay x265 Silence).mkv (1.1 GB)
Cosmos A Spacetime Odyssey (2014) - S01E05 - Hiding in the Light (1080p BluRay x265 Silence).mkv (1.3 GB)
Cosmos A Spacetime Odyssey (2014) - S01E06 - Deeper, Deeper, Deeper Still (1080p BluRay x265 Silence).mkv (1.6 GB)
Cosmos A Spacetime Odyssey (2014) - S01E07 - The Clean Room (1080p BluRay x265 Silence).mkv (1.1 GB)
Cosmos A Spacetime Odyssey (2014) - S01E08 - Sisters of the Sun (1080p BluRay x265 Silence).mkv (928.0 MB)
Cosmos A Spacetime Odyssey (2014) - S01E09 - The Lost Worlds of Planet Earth (1080p BluRay x265 Silence).mkv (1.2 GB)
Cosmos A Spacetime Odyssey (2014) - S01E10 - The Electric Boy (1080p BluRay x265 Silence).mkv (936.8 MB)
Cosmos A Spacetime Odyssey (2014) - S01E11 - The Immortals (1080p BluRay x265 Silence).mkv (1.2 GB)
Cosmos A Spacetime Odyssey (2014) - S01E12 - The World Set Free (1080p BluRay x265 Silence).mkv (1.2 GB)
Cosmos A Spacetime Odyssey (2014) - S01E13 - Unafraid of the Dark (1080p BluRay x265 Silence).mkv (1.2 GB)

Featurettes
Celebrating Carl Sagan - A Selection from the Library of Congress Dedication_new.mkv (381.2 MB)
Cosmos A Spacetime Odyssey - The Voyage Continues_new.mkv (970.4 MB)
Cosmos A Spacetime Odyssey at Comic-Con 2013_new.mkv (711.2 MB)
Interactive Cosmic Calendar_new.mkv (580.6 MB)

Mediainfo

General 
Format : Matroska 
Format version : Version 4 / Version 2 
File size : 1.39 GiB 
Duration : 46 min 3 s 
Overall bit rate : 4 325 kb/s 
Movie name : COSMOS: A SpaceTime Odyssey, S01E01 
Encoded date : UTC 2018-09-23 00:54:44 
Writing application : mkvmerge v20.0.0 ('I Am The Sun') 64-bit 
Writing library : libebml v1.3.5 + libmatroska v1.4.8 
Cover : Yes 
Attachments : cover.jpg 
Writing frontend : StaxRip v1.7.0.6 

Video 
ID : 1 
Format : HEVC 
Format/Info : High Efficiency Video Coding 
Format profile : Main [email protected]@Main 
Codec ID : V_MPEGH/ISO/HEVC 
Duration : 46 min 3 s 
Bit rate : 3 588 kb/s 
Width : 1 920 pixels 
Height : 1 080 pixels 
Display aspect ratio : 16:9 
Frame rate mode : Constant 
Frame rate : 23.976 (24000/1001) FPS 
Color space : YUV 
Chroma subsampling : 4:2:0 
Bit depth : 10 bits 
Bits/(Pixel*Frame) : 0.072 
Stream size : 1.15 GiB (83%) 
Writing library : x265 2.8+74-fd517ae68f93:[Windows][MSVC 1900][64 bit] 10bit 
Encoding settings : cpuid=1111039 / frame-threads=4 / numa-pools=16 / wpp / no-pmode / no-pme / no-psnr / no-ssim / log-level=2 / input-csp=1 / input-res=1920x1080 / interlace=0 / total-frames=66250 / level-idc=0 / high-tier=1 / uhd-bd=0 / ref=5 / no-allow-non-conformance / no-repeat-headers / annexb / no-aud / no-hrd / info / hash=0 / no-temporal-layers / open-gop / min-keyint=23 / keyint=250 / gop-lookahead=0 / bframes=8 / b-adapt=2 / b-pyramid / bframe-bias=0 / rc-lookahead=80 / lookahead-slices=4 / scenecut=40 / radl=0 / no-intra-refresh / ctu=64 / min-cu-size=8 / no-rect / no-amp / max-tu-size=32 / tu-inter-depth=1 / tu-intra-depth=1 / limit-tu=0 / rdoq-level=2 / dynamic-rd=0.00 / no-ssim-rd / signhide / no-tskip / nr-intra=0 / nr-inter=0 / no-constrained-intra / no-strong-intra-smoothing / max-merge=3 / limit-refs=3 / limit-modes / me=3 / subme=5 / merange=57 / temporal-mvp / weightp / weightb / no-analyze-src-pics / deblock=-3:-3 / no-sao / no-sao-non-deblock / rd=4 / no-early-skip / rskip / no-fast-intra / no-tskip-fast / no-cu-lossless / b-intra / no-splitrd-skip / rdpenalty=0 / psy-rd=1.50 / psy-rdoq=1.00 / no-rd-refine / no-lossless / cbqpoffs=0 / crqpoffs=0 / rc=crf / crf=23.0 / qcomp=0.60 / qpstep=4 / stats-write=0 / stats-read=0 / ipratio=1.40 / pbratio=1.30 / aq-mode=3 / aq-strength=1.00 / cutree / zone-count=0 / no-strict-cbr / qg-size=32 / no-rc-grain / qpmax=69 / qpmin=0 / no-const-vbv / sar=0 / overscan=0 / videoformat=5 / range=0 / colorprim=2 / transfer=2 / colormatrix=2 / chromaloc=0 / display-window=0 / max-cll=0,0 / min-luma=0 / max-luma=1023 / log2-max-poc-lsb=8 / vui-timing-info / vui-hrd-info / slices=1 / no-opt-qp-pps / no-opt-ref-list-length-pps / no-multi-pass-opt-rps / scenecut-bias=0.05 / no-opt-cu-delta-qp / no-aq-motion / no-hdr / no-hdr-opt / no-dhdr10-opt / no-idr-recovery-sei / analysis-reuse-level=5 / scale-factor=0 / refine-intra=0 / refine-inter=0 / refine-mv=0 / no-limit-sao / ctu-info=0 / no-lowpass-dct / refine-mv-type=0 / copy-pic=1 / max-ausize-factor=1.0 / no-dynamic-refine / no-single-sei 
Default : Yes 
Forced : No 

Audio #1 
ID : 2 
Format : AAC 
Format/Info : Advanced Audio Codec 
Format profile : LC 
Codec ID : A_AAC 
Duration : 46 min 3 s 
Bit rate : 461 kb/s 
Channel(s) : 6 channels 
Channel positions : Front: L C R, Side: L R, LFE 
Sampling rate : 48.0 kHz 
Frame rate : 46.875 FPS (1024 spf) 
Compression mode : Lossy 
Delay relative to video : 20 ms 
Stream size : 152 MiB (11%) 
Language : English 
Default : Yes 
Forced : No 

Audio #2 
ID : 3 
Format : AAC 
Format/Info : Advanced Audio Codec 
Format profile : HE-AAC / LC 
Codec ID : A_AAC 
Duration : 46 min 3 s 
Bit rate : 80.0 kb/s 
Channel(s) : 2 channels 
Channel positions : Front: L R 
Sampling rate : 48.0 kHz / 24.0 kHz 
Frame rate : 23.438 FPS (1024 spf) 
Compression mode : Lossy 
Delay relative to video : 40 ms 
Stream size : 26.4 MiB (2%) 
Language : English 
Default : No 
Forced : No 

Subtitle #1 
ID : 4 
Format : PGS 
Muxing mode : zlib 
Codec ID : S_HDMV/PGS 
Codec ID/Info : Picture based subtitle format used on BDs/HD-DVDs 
Duration : 42 min 46 s 
Bit rate : 46.0 kb/s 
Count of elements : 1106 
Stream size : 14.1 MiB (1%) 
Language : English 
Default : No 
Forced : No 

Subtitle #2 
ID : 5 
Format : PGS 
Muxing mode : zlib 
Codec ID : S_HDMV/PGS 
Codec ID/Info : Picture based subtitle format used on BDs/HD-DVDs 
Duration : 46 min 0 s 
Bit rate : 46.5 kb/s 
Count of elements : 1144 
Stream size : 15.3 MiB (1%) 
Language : Spanish 
Default : No 
Forced : No 

Subtitle #3 
ID : 6 
Format : PGS 
Muxing mode : zlib 
Codec ID : S_HDMV/PGS 
Codec ID/Info : Picture based subtitle format used on BDs/HD-DVDs 
Duration : 46 min 0 s 
Bit rate : 41.1 kb/s 
Count of elements : 1116 
Stream size : 13.5 MiB (1%) 
Language : French 
Default : No 
Forced : No 

Subtitle #4 
ID : 7 
Format : PGS 
Muxing mode : zlib 
Codec ID : S_HDMV/PGS 
Codec ID/Info : Picture based subtitle format used on BDs/HD-DVDs 
Duration : 46 min 0 s 
Bit rate : 41.2 kb/s 
Count of elements : 1116 
Stream size : 13.5 MiB (1%) 
Language : French 
Default : No 
Forced : No 

Subtitle #5 
ID : 8 
Format : PGS 
Muxing mode : zlib 
Codec ID : S_HDMV/PGS 
Codec ID/Info : Picture based subtitle format used on BDs/HD-DVDs 
Duration : 46 min 0 s 
Bit rate : 39.2 kb/s 
Count of elements : 936 
Stream size : 12.9 MiB (1%) 
Language : Dutch 
Default : No 
Forced : No 

Subtitle #6 
ID : 9 
Format : PGS 
Muxing mode : zlib 
Codec ID : S_HDMV/PGS 
Codec ID/Info : Picture based subtitle format used on BDs/HD-DVDs 
Duration : 46 min 0 s 
Bit rate : 46.0 kb/s 
Count of elements : 1112 
Stream size : 15.1 MiB (1%) 
Language : Portuguese 
Default : No 
Forced : No 

Subtitle #7 
ID : 10 
Format : PGS 
Muxing mode : zlib 
Codec ID : S_HDMV/PGS 
Codec ID/Info : Picture based subtitle format used on BDs/HD-DVDs 
Duration : 37 min 32 s 
Bit rate : 598 b/s 
Count of elements : 20 
Stream size : 164 KiB (0%) 
Language : Portuguese 
Default : No 
Forced : No 

Subtitle #8 
ID : 11 
Format : PGS 
Muxing mode : zlib 
Codec ID : S_HDMV/PGS 
Codec ID/Info : Picture based subtitle format used on BDs/HD-DVDs 
Duration : 43 min 28 s 
Bit rate : 70.2 kb/s 
Count of elements : 1544 
Stream size : 21.8 MiB (2%) 
Language : English 
Default : No 
Forced : No 

Subtitle #9 
ID : 12 
Format : PGS 
Muxing mode : zlib 
Codec ID : S_HDMV/PGS 
Codec ID/Info : Picture based subtitle format used on BDs/HD-DVDs 
Duration : 46 min 0 s 
Bit rate : 56.5 kb/s 
Count of elements : 1534 
Stream size : 18.6 MiB (1%) 
Language : French 
Default : No 
Forced : No 

Subtitle #10 
ID : 13 
Format : PGS 
Muxing mode : zlib 
Codec ID : S_HDMV/PGS 
Codec ID/Info : Picture based subtitle format used on BDs/HD-DVDs 
Duration : 46 min 0 s 
Bit rate : 58.5 kb/s 
Count of elements : 1436 
Stream size : 19.3 MiB (1%) 
Language : Dutch 
Default : No 
Forced : No 

Menu 
00:00:00.000 : en:Chapter 01 
00:03:49.354 : en:Chapter 02 
00:10:36.844 : en:Chapter 03 
00:12:48.350 : en:Chapter 04 
00:16:37.621 : en:Chapter 05 
00:19:25.706 : en:Chapter 06 
00:23:03.799 : en:Chapter 07 
00:27:53.088 : en:Chapter 08 
00:31:22.046 : en:Chapter 09 
00:36:33.399 : en:Chapter 10 
00:40:14.829 : en:Chapter 11 
00:43:22.933 : en:Chapter 12

Download

Download: Google Drive (18.27 GB)

1 thought on “Cosmos: A Spacetime Odyssey (2014) Season 1 (1080p BluRay x265 HEVC 10bit AAC 5.1 Silence)

Leave a Reply