Blue Planet II (2017) (1080p BluRay x265 HEVC 10bit AAC 5.1 ImE)

Info

Summary: Nearly a generation after the acclaimed Blue Planet documentary was released, David Attenborough returns to narrate this groundbreaking sequel/reboot. Blue Planet ll focuses more heavily on mankind’s influence on the world’s oceans through both global pollution and climate change. This series features a variety of revolutionary segments never before seen in a video documentary, including: cuttlefish that hypnotize crabs to stun them, giant trevally that leap out of the water to catch low flying birds, and newly discovered dancing yeti crabs.

Files

Blue Planet II (2017) Complete (1080p BluRay x265 HEVC 10bit AAC 5.1 ImE)

  • Blue Planet II (2017) – S01E01 – One Ocean (1080p BluRay x265 ImE).mkv (2.3 GB)
  • Blue Planet II (2017) – S01E02 – The Deep (1080p BluRay x265 ImE).mkv (1.1 GB)
  • Blue Planet II (2017) – S01E03 – Coral Reefs (1080p BluRay x265 ImE).mkv (2.3 GB)
  • Blue Planet II (2017) – S01E04 – Big Blue (1080p BluRay x265 ImE).mkv (2.4 GB)
  • Blue Planet II (2017) – S01E05 – Green Seas (1080p BluRay x265 ImE).mkv (2.8 GB)
  • Blue Planet II (2017) – S01E06 – Coasts (1080p BluRay x265 ImE).mkv (2.6 GB)
  • Blue Planet II (2017) – S01E07 – Our Blue Planet (1080p BluRay x265 ImE).mkv (1.7 GB)

Mediainfo

General
Format : Matroska
Format version : Version 4 / Version 2
File size : 2.33 GiB
Duration : 57 min 52 s
Overall bit rate : 5 770 kb/s
Movie name : BLUE PLANET II D1
Encoded date : UTC 2018-01-19 23:07:05
Writing application : mkvmerge v9.6.0 ('Slave To Your Mind') 64bit
Writing library : libebml v1.3.4 + libmatroska v1.4.5

Video
ID : 1
Format : HEVC
Format/Info : High Efficiency Video Coding
Format profile : Main [email protected]@Main
Codec ID : V_MPEGH/ISO/HEVC
Duration : 57 min 52 s
Bit rate : 5 440 kb/s
Width : 1 920 pixels
Height : 1 080 pixels
Display aspect ratio : 16:9
Frame rate mode : Constant
Frame rate : 25.000 FPS
Color space : YUV
Chroma subsampling : 4:2:0
Bit depth : 10 bits
Bits/(Pixel*Frame) : 0.105
Stream size : 2.20 GiB (94%)
Title : Encoded by: ImEverlasting
Writing library : x265 2.5+27-0e168bdeb48b:[Windows][MSVC 1911][64 bit] 10bit
Encoding settings : cpuid=1173503 / frame-threads=2 / numa-pools=4 / wpp / no-pmode / no-pme / no-psnr / no-ssim / log-level=2 / input-csp=1 / input-res=1920x1080 / interlace=0 / total-frames=86800 / level-idc=0 / high-tier=1 / uhd-bd=0 / ref=4 / no-allow-non-conformance / no-repeat-headers / annexb / no-aud / no-hrd / info / hash=0 / no-temporal-layers / open-gop / min-keyint=25 / keyint=250 / bframes=8 / b-adapt=2 / b-pyramid / bframe-bias=0 / rc-lookahead=50 / lookahead-slices=4 / scenecut=40 / no-intra-refresh / ctu=64 / min-cu-size=8 / rect / no-amp / max-tu-size=32 / tu-inter-depth=1 / tu-intra-depth=1 / limit-tu=0 / rdoq-level=2 / dynamic-rd=0.00 / no-ssim-rd / signhide / no-tskip / nr-intra=0 / nr-inter=0 / no-constrained-intra / strong-intra-smoothing / max-merge=3 / limit-refs=3 / limit-modes / me=3 / subme=5 / merange=57 / temporal-mvp / weightp / no-weightb / no-analyze-src-pics / deblock=-3:-3 / sao / no-sao-non-deblock / rd=4 / no-early-skip / rskip / no-fast-intra / no-tskip-fast / no-cu-lossless / no-b-intra / no-splitrd-skip / rdpenalty=0 / psy-rd=2.00 / psy-rdoq=1.00 / no-rd-refine / analysis-reuse-mode=0 / no-lossless / cbqpoffs=0 / crqpoffs=0 / rc=crf / crf=24.0 / qcomp=0.60 / qpstep=4 / stats-write=0 / stats-read=0 / ipratio=1.40 / pbratio=1.30 / aq-mode=3 / aq-strength=1.00 / cutree / zone-count=0 / no-strict-cbr / qg-size=32 / no-rc-grain / qpmax=69 / qpmin=0 / no-const-vbv / sar=0 / overscan=0 / videoformat=5 / range=0 / colorprim=2 / transfer=2 / colormatrix=2 / chromaloc=0 / display-window=0 / max-cll=0,0 / min-luma=0 / max-luma=1023 / log2-max-poc-lsb=8 / vui-timing-info / vui-hrd-info / slices=1 / opt-qp-pps / opt-ref-list-length-pps / no-multi-pass-opt-rps / scenecut-bias=0.05 / no-opt-cu-delta-qp / no-aq-motion / no-hdr / no-hdr-opt / no-dhdr10-opt / analysis-reuse-level=5 / scale-factor=0 / refine-intra=0 / refine-inter=0 / refine-mv=0 / no-limit-sao / ctu-info=0
Language : English
Default : Yes
Forced : No

Audio
ID : 2
Format : AAC
Format/Info : Advanced Audio Codec
Format profile : LC
Codec ID : A_AAC
Duration : 57 min 51 s
Bit rate : 320 kb/s
Channel(s) : 6 channels
Channel positions : Front: L C R, Side: L R, LFE
Sampling rate : 48.0 kHz
Frame rate : 46.875 FPS (1024 spf)
Compression mode : Lossy
Delay relative to video : 20 ms
Stream size : 132 MiB (6%)
Title : English
Language : English
Default : Yes
Forced : No

Subtitle
ID : 3
Format : PGS
Muxing mode : zlib
Codec ID : S_HDMV/PGS
Codec ID/Info : Picture based subtitle format used on BDs/HD-DVDs
Duration : 57 min 16 s
Bit rate : 8 046 b/s
Count of elements : 930
Stream size : 3.30 MiB (0%)
Title : Encoded by: ImEverlasting
Language : English
Default : No
Forced : No

Menu
00:00:00.000 : en:Chapter 01
00:12:00.680 : en:Chapter 02
00:18:35.920 : en:Chapter 03
00:27:25.280 : en:Chapter 04
00:40:16.000 : en:Chapter 05
00:48:07.120 : en:Chapter 06

Download

Download: Google Drive (15.24 GB)

3 thoughts on “Blue Planet II (2017) (1080p BluRay x265 HEVC 10bit AAC 5.1 ImE)

  1. Hello Brother Hope you are doing well Kindly Please also Post the below

    BBC: The Hunt (2015)
    BBC: Big Cats (2018)
    BBC: Frozen Planet (2011–2012)
    BBC: Life(2009)
    BBC: Life on Earth (1979)
    Human Planet (2011)

Leave a Reply