Black Mirror (2011) Season 1-5 (1080p Mixed x265 HEVC 10bit AAC 5.1)

Season 01

Black Mirror (2011) Season 1 S01 (1080p Mixed x265 HEVC 10bit AAC 2.0 Panda)

Files

Black Mirror (2011) Season 1 S01 (1080p Mixed x265 HEVC 10bit AAC 2.0 Panda)
Black Mirror (2011) - S01E02 - 15 Million Merits (1080p WEB-DL x265 Panda).mkv (2.0 GB)
Black Mirror (2011) - S01E01 - The National Anthem (1080p BluRay x265 Panda).mkv (1.5 GB)
Black Mirror (2011) - S01E03 - The Entire History of You (1080p BluRay x265 Panda).mkv (1.7 GB)

Mediainfo

General 
Format : Matroska 
Format version : Version 4 / Version 2 
File size : 1.50 GiB 
Duration : 44 min 6 s 
Overall bit rate : 4 877 kb/s 
Encoded date : UTC 2018-09-02 23:56:32 
Writing application : mkvmerge v20.0.0 ('I Am The Sun') 64-bit 
Writing library : libebml v1.3.5 + libmatroska v1.4.8 
Writing frontend : StaxRip v1.7.0.6 

Video 
ID : 1 
Format : HEVC 
Format/Info : High Efficiency Video Coding 
Format profile : Main [email protected]@Main 
Codec ID : V_MPEGH/ISO/HEVC 
Duration : 44 min 6 s 
Bit rate : 4 503 kb/s 
Width : 1 920 pixels 
Height : 1 080 pixels 
Display aspect ratio : 16:9 
Frame rate mode : Constant 
Frame rate : 25.000 FPS 
Color space : YUV 
Chroma subsampling : 4:2:0 
Bit depth : 10 bits 
Bits/(Pixel*Frame) : 0.087 
Stream size : 1.39 GiB (92%) 
Writing library : x265 2.8+66-88ee12651e30:[Windows][MSVC 1915][64 bit] 10bit 
Encoding settings : cpuid=1111039 / frame-threads=2 / numa-pools=4 / wpp / no-pmode / no-pme / no-psnr / no-ssim / log-level=2 / input-csp=1 / input-res=1920x1080 / interlace=0 / total-frames=66151 / level-idc=0 / high-tier=1 / uhd-bd=0 / ref=4 / no-allow-non-conformance / no-repeat-headers / annexb / no-aud / no-hrd / info / hash=0 / no-temporal-layers / open-gop / min-keyint=25 / keyint=250 / gop-lookahead=0 / bframes=8 / b-adapt=2 / b-pyramid / bframe-bias=0 / rc-lookahead=80 / lookahead-slices=0 / scenecut=40 / radl=0 / no-intra-refresh / ctu=64 / min-cu-size=8 / no-rect / no-amp / max-tu-size=32 / tu-inter-depth=1 / tu-intra-depth=1 / limit-tu=0 / rdoq-level=2 / dynamic-rd=0.00 / no-ssim-rd / signhide / no-tskip / nr-intra=0 / nr-inter=0 / no-constrained-intra / no-strong-intra-smoothing / max-merge=3 / limit-refs=3 / limit-modes / me=3 / subme=5 / merange=57 / temporal-mvp / weightp / no-weightb / no-analyze-src-pics / deblock=-3:-3 / no-sao / no-sao-non-deblock / rd=4 / no-early-skip / rskip / no-fast-intra / no-tskip-fast / no-cu-lossless / no-b-intra / no-splitrd-skip / rdpenalty=0 / psy-rd=2.00 / psy-rdoq=1.70 / no-rd-refine / no-lossless / cbqpoffs=0 / crqpoffs=0 / rc=abr / bitrate=4500 / qcomp=0.60 / qpstep=4 / stats-write=0 / stats-read=2 / cplxblur=20.0 / qblur=0.5 / ipratio=1.40 / pbratio=1.30 / aq-mode=3 / aq-strength=1.00 / cutree / zone-count=0 / no-strict-cbr / qg-size=32 / no-rc-grain / qpmax=69 / qpmin=0 / no-const-vbv / sar=0 / overscan=0 / videoformat=5 / range=0 / colorprim=2 / transfer=2 / colormatrix=2 / chromaloc=0 / display-window=0 / max-cll=0,0 / min-luma=0 / max-luma=1023 / log2-max-poc-lsb=8 / vui-timing-info / vui-hrd-info / slices=1 / no-opt-qp-pps / no-opt-ref-list-length-pps / no-multi-pass-opt-rps / scenecut-bias=0.05 / no-opt-cu-delta-qp / no-aq-motion / no-hdr / no-hdr-opt / no-dhdr10-opt / no-idr-recovery-sei / analysis-reuse-level=5 / scale-factor=0 / refine-intra=0 / refine-inter=0 / refine-mv=0 / no-limit-sao / ctu-info=0 / no-lowpass-dct / refine-mv-type=0 / copy-pic=1 / max-ausize-factor=1.0 / no-dynamic-refine / no-single-sei 
Default : Yes 
Forced : No 

Audio 
ID : 2 
Format : AAC 
Format/Info : Advanced Audio Codec 
Format profile : LC 
Codec ID : A_AAC 
Duration : 44 min 6 s 
Bit rate : 372 kb/s 
Channel(s) : 6 channels 
Channel positions : Front: L C R, Side: L R, LFE 
Sampling rate : 48.0 kHz 
Frame rate : 46.875 FPS (1024 spf) 
Compression mode : Lossy 
Delay relative to video : 20 ms 
Stream size : 117 MiB (8%) 
Language : English 
Default : Yes 
Forced : No 

Menu 
00:00:00.000 : en:Chapter 1 
00:01:19.800 : en:Chapter 2 
00:11:27.280 : en:Chapter 3 
00:19:18.400 : en:Chapter 4 
00:29:18.720 : en:Chapter 5 
00:42:51.800 : en:Chapter 6

Screencaps

Download

Download: Google Drive (5.17 GB)

Season 02

Black Mirror (2011) Season 2 S02 (1080p Mixed x265 HEVC 10bit AAC 2.0 Panda)

Files

Black Mirror (2011) Season 2 S02 (1080p Mixed x265 HEVC 10bit AAC 2.0 Panda)
Black Mirror (2011) - S00E01 - White Christmas (1080p WEB-DL x265 Panda).mkv (2.4 GB)
Black Mirror (2011) - S02E01 - Be Right Back (1080p BluRay x265 Panda).mkv (1.6 GB)
Black Mirror (2011) - S02E02 - White Bear (1080p BluRay x265 Panda).mkv (1.4 GB)
Black Mirror (2011) - S02E03 - The Waldo Moment (1080p BluRay x265 Panda).mkv (1.5 GB)

Mediainfo

General 
Format : Matroska 
Format version : Version 4 / Version 2 
File size : 1.65 GiB 
Duration : 48 min 30 s 
Overall bit rate : 4 865 kb/s 
Encoded date : UTC 2018-09-05 04:46:21 
Writing application : mkvmerge v20.0.0 ('I Am The Sun') 64-bit 
Writing library : libebml v1.3.5 + libmatroska v1.4.8 
Writing frontend : StaxRip v1.7.0.6 

Video 
ID : 1 
Format : HEVC 
Format/Info : High Efficiency Video Coding 
Format profile : Main [email protected]@Main 
Codec ID : V_MPEGH/ISO/HEVC 
Duration : 48 min 30 s 
Bit rate : 4 504 kb/s 
Width : 1 920 pixels 
Height : 1 080 pixels 
Display aspect ratio : 16:9 
Frame rate mode : Constant 
Frame rate : 25.000 FPS 
Color space : YUV 
Chroma subsampling : 4:2:0 
Bit depth : 10 bits 
Bits/(Pixel*Frame) : 0.087 
Stream size : 1.53 GiB (93%) 
Writing library : x265 2.8+66-88ee12651e30:[Windows][MSVC 1915][64 bit] 10bit 
Encoding settings : cpuid=1111039 / frame-threads=2 / numa-pools=4 / wpp / no-pmode / no-pme / no-psnr / no-ssim / log-level=2 / input-csp=1 / input-res=1920x1080 / interlace=0 / total-frames=72759 / level-idc=0 / high-tier=1 / uhd-bd=0 / ref=4 / no-allow-non-conformance / no-repeat-headers / annexb / no-aud / no-hrd / info / hash=0 / no-temporal-layers / open-gop / min-keyint=25 / keyint=250 / gop-lookahead=0 / bframes=8 / b-adapt=2 / b-pyramid / bframe-bias=0 / rc-lookahead=80 / lookahead-slices=0 / scenecut=40 / radl=0 / no-intra-refresh / ctu=64 / min-cu-size=8 / no-rect / no-amp / max-tu-size=32 / tu-inter-depth=1 / tu-intra-depth=1 / limit-tu=0 / rdoq-level=2 / dynamic-rd=0.00 / no-ssim-rd / signhide / no-tskip / nr-intra=0 / nr-inter=0 / no-constrained-intra / no-strong-intra-smoothing / max-merge=3 / limit-refs=3 / limit-modes / me=3 / subme=5 / merange=57 / temporal-mvp / weightp / no-weightb / no-analyze-src-pics / deblock=-3:-3 / no-sao / no-sao-non-deblock / rd=4 / no-early-skip / rskip / no-fast-intra / no-tskip-fast / no-cu-lossless / no-b-intra / no-splitrd-skip / rdpenalty=0 / psy-rd=2.00 / psy-rdoq=1.70 / no-rd-refine / no-lossless / cbqpoffs=0 / crqpoffs=0 / rc=abr / bitrate=4500 / qcomp=0.60 / qpstep=4 / stats-write=0 / stats-read=2 / cplxblur=20.0 / qblur=0.5 / ipratio=1.40 / pbratio=1.30 / aq-mode=3 / aq-strength=1.00 / cutree / zone-count=0 / no-strict-cbr / qg-size=32 / no-rc-grain / qpmax=69 / qpmin=0 / no-const-vbv / sar=0 / overscan=0 / videoformat=5 / range=0 / colorprim=2 / transfer=2 / colormatrix=2 / chromaloc=0 / display-window=0 / max-cll=0,0 / min-luma=0 / max-luma=1023 / log2-max-poc-lsb=8 / vui-timing-info / vui-hrd-info / slices=1 / no-opt-qp-pps / no-opt-ref-list-length-pps / no-multi-pass-opt-rps / scenecut-bias=0.05 / no-opt-cu-delta-qp / no-aq-motion / no-hdr / no-hdr-opt / no-dhdr10-opt / no-idr-recovery-sei / analysis-reuse-level=5 / scale-factor=0 / refine-intra=0 / refine-inter=0 / refine-mv=0 / no-limit-sao / ctu-info=0 / no-lowpass-dct / refine-mv-type=0 / copy-pic=1 / max-ausize-factor=1.0 / no-dynamic-refine / no-single-sei 
Default : Yes 
Forced : No 

Audio 
ID : 2 
Format : AAC 
Format/Info : Advanced Audio Codec 
Format profile : LC 
Codec ID : A_AAC 
Duration : 48 min 30 s 
Bit rate : 353 kb/s 
Channel(s) : 6 channels 
Channel positions : Front: L C R, Side: L R, LFE 
Sampling rate : 48.0 kHz 
Frame rate : 46.875 FPS (1024 spf) 
Compression mode : Lossy 
Delay relative to video : 20 ms 
Stream size : 124 MiB (7%) 
Language : English 
Default : Yes 
Forced : No 

Menu 
00:00:00.000 : en:Chapter 1 
00:08:54.960 : en:Chapter 2 
00:24:29.600 : en:Chapter 3 
00:47:22.960 : en:Chapter 4

Screencaps

Download

Download: Google Drive (6.94 GB)

Season 03

Black Mirror (2011) Season 3 S03 (1080p BluRay x265 HEVC 10bit AAC 5.1 Panda)

Files

Black Mirror (2011) Season 3 S03 (1080p BluRay x265 HEVC 10bit AAC 5.1 Panda)
Black Mirror (2011) - S03E06 - Hated in the Nation (1080p BluRay x265 Panda).mkv (3.1 GB)
Black Mirror (2011) - S03E02 - Playtest (1080p BluRay x265 Panda).mkv (1.9 GB)
Black Mirror (2011) - S03E03 - Shut Up and Dance (1080p BluRay x265 Panda).mkv (1.8 GB)
Black Mirror (2011) - S03E04 - San Junipero (1080p BluRay x265 Panda).mkv (2.1 GB)
Black Mirror (2011) - S03E05 - Men Against Fire (1080p BluRay x265 Panda).mkv (2.1 GB)
Black Mirror (2011) - S03E01 - Nosedive (1080p BluRay x265 Panda).mkv (2.1 GB)

Mediainfo

General 
Format : Matroska 
Format version : Version 4 / Version 2 
File size : 2.15 GiB 
Duration : 1 h 2 min 
Overall bit rate : 4 904 kb/s 
Encoded date : UTC 2018-09-08 05:14:43 
Writing application : mkvmerge v20.0.0 ('I Am The Sun') 64-bit 
Writing library : libebml v1.3.5 + libmatroska v1.4.8 
Writing frontend : StaxRip v1.7.0.6 

Video 
ID : 1 
Format : HEVC 
Format/Info : High Efficiency Video Coding 
Format profile : Main [email protected]@Main 
Codec ID : V_MPEGH/ISO/HEVC 
Duration : 1 h 2 min 
Bit rate : 4 497 kb/s 
Width : 1 920 pixels 
Height : 1 008 pixels 
Display aspect ratio : 1.905 
Frame rate mode : Constant 
Frame rate : 25.000 FPS 
Color space : YUV 
Chroma subsampling : 4:2:0 
Bit depth : 10 bits 
Bits/(Pixel*Frame) : 0.093 
Stream size : 1.97 GiB (92%) 
Writing library : x265 2.8+66-88ee12651e30:[Windows][MSVC 1915][64 bit] 10bit 
Encoding settings : cpuid=1111039 / frame-threads=2 / numa-pools=4 / wpp / no-pmode / no-pme / no-psnr / no-ssim / log-level=2 / input-csp=1 / input-res=1920x1008 / interlace=0 / total-frames=94026 / level-idc=0 / high-tier=1 / uhd-bd=0 / ref=4 / no-allow-non-conformance / no-repeat-headers / annexb / no-aud / no-hrd / info / hash=0 / no-temporal-layers / open-gop / min-keyint=25 / keyint=250 / gop-lookahead=0 / bframes=8 / b-adapt=2 / b-pyramid / bframe-bias=0 / rc-lookahead=80 / lookahead-slices=0 / scenecut=40 / radl=0 / no-intra-refresh / ctu=64 / min-cu-size=8 / no-rect / no-amp / max-tu-size=32 / tu-inter-depth=1 / tu-intra-depth=1 / limit-tu=0 / rdoq-level=2 / dynamic-rd=0.00 / no-ssim-rd / signhide / no-tskip / nr-intra=0 / nr-inter=0 / no-constrained-intra / no-strong-intra-smoothing / max-merge=3 / limit-refs=3 / limit-modes / me=3 / subme=5 / merange=57 / temporal-mvp / weightp / no-weightb / no-analyze-src-pics / deblock=-3:-3 / no-sao / no-sao-non-deblock / rd=4 / no-early-skip / rskip / no-fast-intra / no-tskip-fast / no-cu-lossless / no-b-intra / no-splitrd-skip / rdpenalty=0 / psy-rd=2.00 / psy-rdoq=1.70 / no-rd-refine / no-lossless / cbqpoffs=0 / crqpoffs=0 / rc=abr / bitrate=4500 / qcomp=0.60 / qpstep=4 / stats-write=0 / stats-read=2 / cplxblur=20.0 / qblur=0.5 / ipratio=1.40 / pbratio=1.30 / aq-mode=3 / aq-strength=1.00 / cutree / zone-count=0 / no-strict-cbr / qg-size=32 / no-rc-grain / qpmax=69 / qpmin=0 / no-const-vbv / sar=0 / overscan=0 / videoformat=5 / range=0 / colorprim=2 / transfer=2 / colormatrix=2 / chromaloc=0 / display-window=0 / max-cll=0,0 / min-luma=0 / max-luma=1023 / log2-max-poc-lsb=8 / vui-timing-info / vui-hrd-info / slices=1 / no-opt-qp-pps / no-opt-ref-list-length-pps / no-multi-pass-opt-rps / scenecut-bias=0.05 / no-opt-cu-delta-qp / no-aq-motion / no-hdr / no-hdr-opt / no-dhdr10-opt / no-idr-recovery-sei / analysis-reuse-level=5 / scale-factor=0 / refine-intra=0 / refine-inter=0 / refine-mv=0 / no-limit-sao / ctu-info=0 / no-lowpass-dct / refine-mv-type=0 / copy-pic=1 / max-ausize-factor=1.0 / no-dynamic-refine / no-single-sei 
Default : Yes 
Forced : No 

Audio 
ID : 2 
Format : AAC 
Format/Info : Advanced Audio Codec 
Format profile : LC 
Codec ID : A_AAC 
Duration : 1 h 2 min 
Bit rate : 384 kb/s 
Channel(s) : 6 channels 
Channel positions : Front: L C R, Side: L R, LFE 
Sampling rate : 48.0 kHz 
Frame rate : 46.875 FPS (1024 spf) 
Compression mode : Lossy 
Delay relative to video : 20 ms 
Stream size : 175 MiB (8%) 
Language : English 
Default : Yes 
Forced : No 

Subtitle 
ID : 3 
Format : PGS 
Muxing mode : zlib 
Codec ID : S_HDMV/PGS 
Codec ID/Info : Picture based subtitle format used on BDs/HD-DVDs 
Duration : 1 h 1 min 
Bit rate : 46.8 kb/s 
Count of elements : 1846 
Stream size : 20.5 MiB (1%) 
Language : English 
Default : No 
Forced : No 

Menu 
00:00:00.000 : en:Chapter 1 
00:16:35.760 : en:Chapter 2 
00:30:15.320 : en:Chapter 3 
00:45:22.840 : en:Chapter 4 
01:01:31.600 : en:Chapter 5 
01:02:41.040 : en:Chapter 6

Screencaps

Download

Download: Google Drive (13.06 GB)

Season 04

Black Mirror (2011) Season 4 S04 (1080p BluRay x265 HEVC 10bit AAC 5.1 Panda)

Files

Black Mirror (2011) Season 4 S04 (1080p BluRay x265 HEVC 10bit AAC 5.1 Panda)
Black Mirror (2011) - S04E01 - USS Callister (1080p BluRay x265 Panda).mkv (2.6 GB)
Black Mirror (2011) - S04E02 - Arkangel (1080p BluRay x265 Panda).mkv (1.7 GB)
Black Mirror (2011) - S04E03 - Crocodile (1080p BluRay x265 Panda).mkv (2.0 GB)
Black Mirror (2011) - S04E04 - Hang the DJ (1080p BluRay x265 Panda).mkv (1.8 GB)
Black Mirror (2011) - S04E05 - Metalhead (1080p BluRay x265 Panda).mkv (1.4 GB)
Black Mirror (2011) - S04E06 - Black Museum (1080p BluRay x265 Panda).mkv (2.4 GB)

Mediainfo

General 
Format: Matroska 
File Size: 2.58 GiB 
Duration: 1 h 16 min 
Overall Bit Rate: 4,844 kb/s 

Video 
Format: HEVC 
Format Profile: Main [email protected]@Main 
Bit Rate: 4,498 kb/s 
Dimensions: 1,920 x 872 pixels 
Display Aspect Ratio: 2.2:1 
Frame Rate: 25.000 FPS 
Writing Library: x265 2.8+12-9cde2c278464:[Windows][MSVC 1900][64 bit] 10bit 
Encoding Settings: cpuid=1111039 / frame-threads=3 / numa-pools=8 / wpp / no-pmode / no-pme / no-psnr / no-ssim / log-level=2 / input-csp=1 / input-res=1920x872 / interlace=0 / total-frames=114240 / level-idc=0 / high-tier=1 / uhd-bd=0 / ref=4 / no-allow-non-conformance / no-repeat-headers / annexb / no-aud / no-hrd / info / hash=0 / no-temporal-layers / open-gop / min-keyint=25 / keyint=250 / gop-lookahead=0 / bframes=8 / b-adapt=2 / b-pyramid / bframe-bias=0 / rc-lookahead=80 / lookahead-slices=0 / scenecut=40 / radl=0 / no-intra-refresh / ctu=64 / min-cu-size=8 / no-rect / no-amp / max-tu-size=32 / tu-inter-depth=1 / tu-intra-depth=1 / limit-tu=0 / rdoq-level=2 / dynamic-rd=0.00 / no-ssim-rd / signhide / no-tskip / nr-intra=0 / nr-inter=0 / no-constrained-intra / no-strong-intra-smoothing / max-merge=3 / limit-refs=3 / limit-modes / me=3 / subme=5 / merange=57 / temporal-mvp / weightp / no-weightb / no-analyze-src-pics / deblock=-3:-3 / no-sao / no-sao-non-deblock / rd=4 / no-early-skip / rskip / no-fast-intra / no-tskip-fast / no-cu-lossless / no-b-intra / no-splitrd-skip / rdpenalty=0 / psy-rd=2.00 / psy-rdoq=1.70 / no-rd-refine / no-lossless / cbqpoffs=0 / crqpoffs=0 / rc=abr / bitrate=4500 / qcomp=0.60 / qpstep=4 / stats-write=0 / stats-read=2 / cplxblur=20.0 / qblur=0.5 / ipratio=1.40 / pbratio=1.30 / aq-mode=3 / aq-strength=0.80 / cutree / zone-count=0 / no-strict-cbr / qg-size=32 / no-rc-grain / qpmax=69 / qpmin=0 / no-const-vbv / sar=0 / overscan=0 / videoformat=5 / range=0 / colorprim=2 / transfer=2 / colormatrix=2 / chromaloc=0 / display-window=0 / max-cll=0,0 / min-luma=0 / max-luma=1023 / log2-max-poc-lsb=8 / vui-timing-info / vui-hrd-info / slices=1 / no-opt-qp-pps / no-opt-ref-list-length-pps / no-multi-pass-opt-rps / scenecut-bias=0.05 / no-opt-cu-delta-qp / no-aq-motion / no-hdr / no-hdr-opt / no-dhdr10-opt / no-idr-recovery-sei / analysis-reuse-level=5 / scale-factor=0 / refine-intra=0 / refine-inter=0 / refine-mv=0 / no-limit-sao / ctu-info=0 / no-lowpass-dct / refine-mv-type=0 / copy-pic=1 / max-ausize-factor=1.0 / no-dynamic-refine / no-single-sei 

Audio: English - AAC LC / 6 channels / 331 kb/s [Default] 

Subtitle: English - PGS / 46.1 kb/s 

Chapters 
00:00:00.000 : en:Chapter 1 
00:10:13.560 : en:Chapter 2 
00:26:28.440 : en:Chapter 3 
00:43:47.800 : en:Chapter 4 
01:02:28.080 : en:Chapter 5 
01:14:40.640 : en:Chapter 6

Screencaps

Download

Download: Google Drive (11.80 GB)

Season 5

Black Mirror (2011) Season 05 S05 (1080p NF WEBRip x265 HEVC 10bit AAC 5.1 Joy) [UTR]

Files

Black Mirror S05E02 Smithereens (1080p x265 10bit FS84 Joy).mkv (693.7 MB)
Black Mirror S05E01 Striking Vipers (1080p x265 10bit FS86 Joy).mkv (614.1 MB)
Black Mirror S05E03 Rachel, Jack and Ashley Too (1080p x265 10bit FS94 Joy).mkv (665.3 MB)

Mediainfo

General
Format : Matroska
Format version : Version 4 / Version 2
File size : 665 MiB
Duration : 1 h 7 min
Overall bit rate : 1 384 kb/s
Movie name : Black Mirror S05E03 Rachel, Jack and Ashley Too (1080p x265 10bit Joy)[UTR]
Encoded date : UTC 2019-06-10 05:04:24
Writing application : mkvmerge v34.0.0 ('Sight and Seen') 64-bit
Writing library : libebml v1.3.7 + libmatroska v1.5.0
Writing frontend : StaxRip v2.0.2.0, a JoyBell Encode

Video
ID : 1
Format : HEVC
Format/Info : High Efficiency Video Coding
Format profile : Main [email protected]@Main
Codec ID : V_MPEGH/ISO/HEVC
Duration : 1 h 7 min
Bit rate : 1 202 kb/s
Width : 1 920 pixels
Height : 872 pixels
Display aspect ratio : 2.2:1
Frame rate mode : Constant
Frame rate : 25.000 FPS
Color space : YUV
Chroma subsampling : 4:2:0
Bit depth : 10 bits
Bits/(Pixel*Frame) : 0.029
Stream size : 578 MiB (87%)
Writing library : x265 3.0_Au+24-4217e691387c:[Windows][GCC 9.1.1][64 bit] 10bit
Encoding settings : rc=abr / bitrate=1200 / qcomp=0.60 / qpstep=4 / stats-write=0 / stats-read=2 / cplxblur=20.0 / qblur=0.5 / qpmax=69 / qpmin=0 / no-lossless / no-cu-lossless / no-hevc-aq / no-aq-motion / aq-mode=2 / aq-strength=0.80 / cbqpoffs=0 / crqpoffs=0 / ipratio=1.40 / pbratio=1.30 / psy-rd=2.45 / psy-rdoq=1.50 / deblock=0:0 / ref=4 / limit-refs=3 / limit-modes / bframes=8 / b-adapt=2 / bframe-bias=40 / b-pyramid / no-b-intra / weightp / no-weightb / keyint=250 / min-keyint=25 / rc-lookahead=80 / gop-lookahead=0 / scenecut=40 / scenecut-bias=0.05 / ctu=64 / min-cu-size=8 / me=3 / subme=3 / merange=57 / rd=4 / no-rd-refine / ssim-rd / dynamic-rd=0.00 / rdoq-level=2 / rdpenalty=0 / cutree / sao / limit-sao / no-sao-non-deblock / no-rect / no-amp / open-gop / max-tu-size=32 / tu-inter-depth=1 / tu-intra-depth=1 / limit-tu=0 / qg-size=32 / wpp / no-pmode / no-pme / no-psnr / ssim / no-tskip / constrained-intra / strong-intra-smoothing / max-merge=3 / nr-intra=0 / nr-inter=0 / input-csp=1 / input-res=1920x872 / interlace=0 / total-frames=100810 / level-idc=0 / high-tier=1cpuid=1111039 / frame-threads=3 / numa-pools=12 / log-level=2 / uhd-bd=0 / lookahead-slices=4 / radl=0 / no-splice / no-intra-refresh / signhide / temporal-mvp / no-analyze-src-pics / early-skip / rskip / no-fast-intra / no-tskip-fast / splitrd-skip / zone-count=0 / no-strict-cbr / no-rc-grain / no-const-vbv / no-allow-non-conformance / no-repeat-headers / annexb / no-aud / no-hrd / info / hash=0 / no-temporal-layers / sar=0 / overscan=0 / videoformat=5 / range=0 / colorprim=2 / transfer=2 / colormatrix=2 / chromaloc=0 / display-window=0 / max-cll=0,0 / min-luma=0 / max-luma=1023 / log2-max-poc-lsb=8 / vui-timing-info / vui-hrd-info / slices=1 / no-opt-qp-pps / no-opt-ref-list-length-pps / multi-pass-opt-rps / no-opt-cu-delta-qp / no-hdr / no-hdr-opt / no-dhdr10-opt / no-idr-recovery-sei / analysis-reuse-level=10 / scale-factor=0 / refine-intra=0 / refine-inter=0 / refine-mv=0 / refine-ctu-distortion=0 / ctu-info=0 / no-lowpass-dct / refine-analysis-type=0 / copy-pic=1 / max-ausize-factor=1.0 / no-dynamic-refine / no-single-sei / no-svt / qp-adaptation-range=1.00
Default : Yes
Forced : No

Audio
ID : 2
Format : AAC
Format/Info : Advanced Audio Codec
Format profile : HE-AAC / LC
Codec ID : A_AAC
Duration : 1 h 7 min
Bit rate : 176 kb/s
Channel(s) : 6 channels
Channel positions : Front: L C R, Side: L R, LFE
Sampling rate : 48.0 kHz / 24.0 kHz
Frame rate : 23.438 FPS (1024 spf)
Compression mode : Lossy
Delay relative to video : 31 ms
Stream size : 84.8 MiB (13%)
Language : English
Default : No
Forced : No

Subtitle #1
ID : 3
Format : UTF-8
Codec ID : S_TEXT/UTF8
Codec ID/Info : UTF-8 Plain Text
Duration : 1 h 6 min
Bit rate : 80 b/s
Count of elements : 993
Stream size : 39.0 KiB (0%)
Language : English
Default : No
Forced : No

Subtitle #2
ID : 4
Format : UTF-8
Codec ID : S_TEXT/UTF8
Codec ID/Info : UTF-8 Plain Text
Duration : 1 h 5 min
Bit rate : 114 b/s
Count of elements : 958
Stream size : 54.7 KiB (0%)
Language : Arabic
Default : No
Forced : No

Subtitle #3
ID : 5
Format : UTF-8
Codec ID : S_TEXT/UTF8
Codec ID/Info : UTF-8 Plain Text
Duration : 1 h 5 min
Bit rate : 58 b/s
Count of elements : 901
Stream size : 27.8 KiB (0%)
Language : Czech
Default : No
Forced : No

Subtitle #4
ID : 6
Format : UTF-8
Codec ID : S_TEXT/UTF8
Codec ID/Info : UTF-8 Plain Text
Duration : 1 h 6 min
Bit rate : 66 b/s
Count of elements : 826
Stream size : 32.6 KiB (0%)
Language : Danish
Default : No
Forced : No

Subtitle #5
ID : 7
Format : UTF-8
Codec ID : S_TEXT/UTF8
Codec ID/Info : UTF-8 Plain Text
Duration : 1 h 6 min
Bit rate : 64 b/s
Count of elements : 835
Stream size : 31.6 KiB (0%)
Language : German
Default : No
Forced : No

Subtitle #6
ID : 8
Format : UTF-8
Codec ID : S_TEXT/UTF8
Codec ID/Info : UTF-8 Plain Text
Duration : 1 h 4 min
Bit rate : 111 b/s
Count of elements : 919
Stream size : 52.9 KiB (0%)
Language : Greek
Default : No
Forced : No

Subtitle #7
ID : 9
Format : UTF-8
Codec ID : S_TEXT/UTF8
Codec ID/Info : UTF-8 Plain Text
Duration : 1 h 4 min
Bit rate : 67 b/s
Count of elements : 807
Stream size : 32.0 KiB (0%)
Language : Spanish
Default : No
Forced : No

Subtitle #8
ID : 10
Format : UTF-8
Codec ID : S_TEXT/UTF8
Codec ID/Info : UTF-8 Plain Text
Duration : 1 h 6 min
Bit rate : 62 b/s
Count of elements : 834
Stream size : 30.5 KiB (0%)
Language : Spanish
Default : No
Forced : No

Subtitle #9
ID : 11
Format : UTF-8
Codec ID : S_TEXT/UTF8
Codec ID/Info : UTF-8 Plain Text
Duration : 1 h 5 min
Bit rate : 57 b/s
Count of elements : 742
Stream size : 27.6 KiB (0%)
Language : Finnish
Default : No
Forced : No

Subtitle #10
ID : 12
Format : UTF-8
Codec ID : S_TEXT/UTF8
Codec ID/Info : UTF-8 Plain Text
Duration : 1 h 4 min
Bit rate : 66 b/s
Count of elements : 793
Stream size : 31.5 KiB (0%)
Language : French
Default : No
Forced : No

Subtitle #11
ID : 13
Format : UTF-8
Codec ID : S_TEXT/UTF8
Codec ID/Info : UTF-8 Plain Text
Duration : 1 h 6 min
Bit rate : 95 b/s
Count of elements : 955
Stream size : 46.4 KiB (0%)
Language : Hebrew
Default : No
Forced : No

Subtitle #12
ID : 14
Format : UTF-8
Codec ID : S_TEXT/UTF8
Codec ID/Info : UTF-8 Plain Text
Duration : 1 h 5 min
Bit rate : 63 b/s
Count of elements : 933
Stream size : 30.1 KiB (0%)
Language : Hungarian
Default : No
Forced : No

Subtitle #13
ID : 15
Format : UTF-8
Codec ID : S_TEXT/UTF8
Codec ID/Info : UTF-8 Plain Text
Duration : 1 h 6 min
Bit rate : 61 b/s
Count of elements : 955
Stream size : 30.1 KiB (0%)
Language : Indonesian
Default : No
Forced : No

Subtitle #14
ID : 16
Format : UTF-8
Codec ID : S_TEXT/UTF8
Codec ID/Info : UTF-8 Plain Text
Duration : 1 h 6 min
Bit rate : 69 b/s
Count of elements : 852
Stream size : 33.7 KiB (0%)
Language : Icelandic
Default : No
Forced : No

Subtitle #15
ID : 17
Format : UTF-8
Codec ID : S_TEXT/UTF8
Codec ID/Info : UTF-8 Plain Text
Duration : 1 h 5 min
Bit rate : 62 b/s
Count of elements : 798
Stream size : 30.0 KiB (0%)
Language : Italian
Default : No
Forced : No

Subtitle #16
ID : 18
Format : UTF-8
Codec ID : S_TEXT/UTF8
Codec ID/Info : UTF-8 Plain Text
Duration : 1 h 6 min
Bit rate : 61 b/s
Count of elements : 959
Stream size : 30.0 KiB (0%)
Language : Japanese
Default : No
Forced : No

Subtitle #17
ID : 19
Format : UTF-8
Codec ID : S_TEXT/UTF8
Codec ID/Info : UTF-8 Plain Text
Duration : 1 h 6 min
Bit rate : 71 b/s
Count of elements : 965
Stream size : 35.1 KiB (0%)
Language : Korean
Default : No
Forced : No

Subtitle #18
ID : 20
Format : UTF-8
Codec ID : S_TEXT/UTF8
Codec ID/Info : UTF-8 Plain Text
Duration : 1 h 6 min
Bit rate : 66 b/s
Count of elements : 825
Stream size : 32.4 KiB (0%)
Language : Norwegian Bokmal
Default : No
Forced : No

Subtitle #19
ID : 21
Format : UTF-8
Codec ID : S_TEXT/UTF8
Codec ID/Info : UTF-8 Plain Text
Duration : 1 h 4 min
Bit rate : 54 b/s
Count of elements : 782
Stream size : 26.1 KiB (0%)
Language : Dutch
Default : No
Forced : No

Subtitle #20
ID : 22
Format : UTF-8
Codec ID : S_TEXT/UTF8
Codec ID/Info : UTF-8 Plain Text
Duration : 1 h 4 min
Bit rate : 60 b/s
Count of elements : 885
Stream size : 28.6 KiB (0%)
Language : Polish
Default : No
Forced : No

Subtitle #21
ID : 23
Format : UTF-8
Codec ID : S_TEXT/UTF8
Codec ID/Info : UTF-8 Plain Text
Duration : 1 h 6 min
Bit rate : 59 b/s
Count of elements : 837
Stream size : 28.9 KiB (0%)
Language : Portuguese
Default : No
Forced : No

Subtitle #22
ID : 24
Format : UTF-8
Codec ID : S_TEXT/UTF8
Codec ID/Info : UTF-8 Plain Text
Duration : 1 h 6 min
Bit rate : 65 b/s
Count of elements : 861
Stream size : 32.0 KiB (0%)
Language : Portuguese
Default : No
Forced : No

Subtitle #23
ID : 25
Format : UTF-8
Codec ID : S_TEXT/UTF8
Codec ID/Info : UTF-8 Plain Text
Duration : 1 h 6 min
Bit rate : 65 b/s
Count of elements : 904
Stream size : 32.1 KiB (0%)
Language : Romanian
Default : No
Forced : No

Subtitle #24
ID : 26
Format : UTF-8
Codec ID : S_TEXT/UTF8
Codec ID/Info : UTF-8 Plain Text
Duration : 1 h 5 min
Bit rate : 100 b/s
Count of elements : 930
Stream size : 47.7 KiB (0%)
Language : Russian
Default : No
Forced : No

Subtitle #25
ID : 27
Format : UTF-8
Codec ID : S_TEXT/UTF8
Codec ID/Info : UTF-8 Plain Text
Duration : 1 h 4 min
Bit rate : 61 b/s
Count of elements : 814
Stream size : 29.3 KiB (0%)
Language : Swedish
Default : No
Forced : No

Subtitle #26
ID : 28
Format : UTF-8
Codec ID : S_TEXT/UTF8
Codec ID/Info : UTF-8 Plain Text
Duration : 1 h 6 min
Bit rate : 152 b/s
Count of elements : 972
Stream size : 74.3 KiB (0%)
Language : Thai
Default : No
Forced : No

Subtitle #27
ID : 29
Format : UTF-8
Codec ID : S_TEXT/UTF8
Codec ID/Info : UTF-8 Plain Text
Duration : 1 h 6 min
Bit rate : 67 b/s
Count of elements : 971
Stream size : 32.8 KiB (0%)
Language : Turkish
Default : No
Forced : No

Subtitle #28
ID : 30
Format : UTF-8
Codec ID : S_TEXT/UTF8
Codec ID/Info : UTF-8 Plain Text
Duration : 1 h 6 min
Bit rate : 102 b/s
Count of elements : 970
Stream size : 50.1 KiB (0%)
Language : Vietnamese
Default : No
Forced : No

Subtitle #29
ID : 31
Format : UTF-8
Codec ID : S_TEXT/UTF8
Codec ID/Info : UTF-8 Plain Text
Duration : 1 h 6 min
Bit rate : 61 b/s
Count of elements : 970
Stream size : 30.2 KiB (0%)
Language : Chinese
Default : No
Forced : No

Subtitle #30
ID : 32
Format : UTF-8
Codec ID : S_TEXT/UTF8
Codec ID/Info : UTF-8 Plain Text
Duration : 1 h 6 min
Bit rate : 61 b/s
Count of elements : 969
Stream size : 30.1 KiB (0%)
Language : Chinese
Default : No
Forced : No

Menu
00:00:05.000 : en:Intro start
00:00:24.400 : en:Intro end

Screens

Download

Download: Google Drive

12 thoughts on “Black Mirror (2011) Season 1-5 (1080p Mixed x265 HEVC 10bit AAC 5.1)

  1. All the links are offline. Please check them admin. And can you add ‘End of the fucking world’ and ‘Band of brothers’ Please.

  2. PLEASE brother FIX Season 1-4..

    Add Season 05….

    Add this special episode —>> Black Mirror Bandersnatch (2018) (1080p WEBRip x265 HEVC 10bit AAC 5.1 Q22 Joy) [UTR] 2.1GB

    1. There’s PSA version for the movie. Unless there’s a BluRay release, not really planning to upload different version.

  3. you are the best ma man,,,,, keep it up nigga!!!
    no one gives hassle free high speed ddl links, no limit from megalinks, no slow torrents and other third party shit…. you da man

  4. Black Mirror (2011) Season 4 S04 (1080p BluRay x265 HEVC 10bit AAC 5.1 Panda)
    Upload the bluray release for season 4 and thanks.

Leave a Reply