Billions (2016) Season 1-4 (1080p Mixed x265 HEVC 10bit AAC 5.1 Vyndros)

Plot: U.S. Attorney Chuck Rhoades goes after hedge fund king, Bobby “Axe” Axelrod in a battle between two powerful New York figures.

Season 1

Billions (2016) Season 1 S01 (1080p BluRay x265 HEVC 10bit AAC 5.1 Vyndros)

Files

  • Billions.S01E01.Pilot.1080p.10bit.BluRay.AAC5.1.HEVC-Vyndros.mkv (1.1 GB)
  • Billions.S01E02.Naming.Rights.1080p.10bit.BluRay.AAC5.1.HEVC-Vyndros.mkv (1.0 GB)
  • Billions.S01E03.YumTime.1080p.10bit.BluRay.AAC5.1.HEVC-Vyndros.mkv (1.1 GB)
  • Billions.S01E04.Short.Squeeze.1080p.10bit.BluRay.AAC5.1.HEVC-Vyndros.mkv (1.2 GB)
  • Billions.S01E05.The.Good.Life.1080p.10bit.BluRay.AAC5.1.HEVC-Vyndros.mkv (1.2 GB)
  • Billions.S01E06.The.Deal.1080p.10bit.BluRay.AAC5.1.HEVC-Vyndros.mkv (892.8 MB)
  • Billions.S01E07.The.Punch.1080p.10bit.BluRay.AAC5.1.HEVC-Vyndros.mkv (1.1 GB)
  • Billions.S01E08.Boasts.and.Rails.1080p.10bit.BluRay.AAC5.1.HEVC-Vyndros.mkv (1.0 GB)
  • Billions.S01E09.Where.the.Fuck.is.Donnie.1080p.10bit.BluRay.AAC5.1.HEVC-Vyndros.mkv (1.1 GB)
  • Billions.S01E10.Quality.of.Life.1080p.10bit.BluRay.AAC5.1.HEVC-Vyndros.mkv (1.2 GB)
  • Billions.S01E11.Magical.Thinking.1080p.10bit.BluRay.AAC5.1.HEVC-Vyndros.mkv (873.4 MB)
  • Billions.S01E12.The.Conversation.1080p.10bit.BluRay.AAC5.1.HEVC-Vyndros.mkv (1,015.6 MB)

Mediainfo

General
Format : Matroska
Format version : Version 4 / Version 2
File size : 1.00 GiB
Duration : 56 min 50 s
Overall bit rate : 2 521 kb/s
Movie name : Billions S01E08 Boasts and Rails 1080p Blu-ray Remux AVC TrueHD 5.1 - KRaLiMaRKo
Encoded date : UTC 2020-01-19 18:32:10
Writing application : mkvmerge v20.0.0 ('I Am The Sun') 64-bit
Writing library : libebml v1.3.5 + libmatroska v1.4.8
Writing frontend : StaxRip v1.7.0.6

Video
ID : 1
Format : HEVC
Format/Info : High Efficiency Video Coding
Format profile : Main [email protected]@Main
Codec ID : V_MPEGH/ISO/HEVC
Duration : 56 min 50 s
Bit rate : 2 139 kb/s
Width : 1 920 pixels
Height : 1 080 pixels
Display aspect ratio : 16:9
Frame rate mode : Constant
Frame rate : 23.976 (24000/1001) FPS
Color space : YUV
Chroma subsampling : 4:2:0
Bit depth : 10 bits
Bits/(Pixel*Frame) : 0.043
Stream size : 870 MiB (85%)
Writing library : x265 3.2+5-354901970679:[Windows][GCC 9.2.0][64 bit] 10bit
Encoding settings : cpuid=1111039 / frame-threads=2 / numa-pools=4 / wpp / no-pmode / no-pme / no-psnr / ssim / log-level=2 / input-csp=1 / input-res=1920x1080 / interlace=0 / total-frames=81773 / level-idc=0 / high-tier=1 / uhd-bd=0 / ref=3 / no-allow-non-conformance / no-repeat-headers / annexb / no-aud / no-hrd / info / hash=0 / no-temporal-layers / open-gop / min-keyint=23 / keyint=250 / gop-lookahead=0 / bframes=8 / b-adapt=2 / b-pyramid / bframe-bias=0 / rc-lookahead=80 / lookahead-slices=6 / scenecut=40 / radl=0 / no-splice / no-intra-refresh / ctu=64 / min-cu-size=8 / no-rect / no-amp / max-tu-size=32 / tu-inter-depth=1 / tu-intra-depth=1 / limit-tu=0 / rdoq-level=0 / dynamic-rd=0.00 / no-ssim-rd / signhide / no-tskip / nr-intra=0 / nr-inter=0 / no-constrained-intra / no-strong-intra-smoothing / max-merge=3 / limit-refs=1 / no-limit-modes / me=3 / subme=5 / merange=57 / temporal-mvp / no-frame-dup / no-hme / weightp / no-weightb / no-analyze-src-pics / deblock=0:0 / sao / no-sao-non-deblock / rd=3 / selective-sao=4 / early-skip / no-rskip / no-fast-intra / no-tskip-fast / no-cu-lossless / b-intra / no-splitrd-skip / rdpenalty=0 / psy-rd=2.00 / psy-rdoq=0.00 / no-rd-refine / no-lossless / cbqpoffs=0 / crqpoffs=0 / rc=crf / crf=20.0 / qcomp=0.60 / qpstep=4 / stats-write=0 / stats-read=0 / ipratio=1.40 / pbratio=1.30 / aq-mode=3 / aq-strength=1.00 / cutree / zone-count=0 / no-strict-cbr / qg-size=32 / no-rc-grain / qpmax=69 / qpmin=0 / no-const-vbv / sar=0 / overscan=0 / videoformat=5 / range=0 / colorprim=2 / transfer=2 / colormatrix=2 / chromaloc=0 / display-window=0 / cll=0,0 / min-luma=0 / max-luma=1023 / log2-max-poc-lsb=8 / vui-timing-info / vui-hrd-info / slices=1 / no-opt-qp-pps / no-opt-ref-list-length-pps / no-multi-pass-opt-rps / scenecut-bias=0.05 / no-opt-cu-delta-qp / no-aq-motion / no-hdr / no-hdr-opt / no-dhdr10-opt / no-idr-recovery-sei / analysis-reuse-level=5 / scale-factor=0 / refine-intra=0 / refine-inter=0 / refine-mv=1 / refine-ctu-distortion=0 / no-limit-sao / ctu-info=0 / no-lowpass-dct / refine-analysis-type=0 / copy-pic=1 / max-ausize-factor=1.0 / no-dynamic-refine / no-single-sei / no-hevc-aq / no-svt / no-field / qp-adaptation-range=1.00
Default : Yes
Forced : No

Audio
ID : 2
Format : AAC
Format/Info : Advanced Audio Codec
Format profile : LC
Codec ID : A_AAC
Duration : 56 min 50 s
Bit rate : 361 kb/s
Channel(s) : 6 channels
Channel positions : Front: L C R, Side: L R, LFE
Sampling rate : 48.0 kHz
Frame rate : 46.875 FPS (1024 spf)
Compression mode : Lossy
Delay relative to video : 20 ms
Stream size : 147 MiB (14%)
Language : English
Default : Yes
Forced : No

Subtitle
ID : 3
Format : PGS
Muxing mode : zlib
Codec ID : S_HDMV/PGS
Codec ID/Info : Picture based subtitle format used on BDs/HD-DVDs
Duration : 56 min 22 s
Bit rate : 62.3 kb/s
Count of elements : 2450
Stream size : 25.1 MiB (2%)
Language : English
Default : No
Forced : No

Screens

Download

Download: Google Drive

Season 2

Billions (2016) Season 2 S02 (1080p AMZN WEB-DL x265 HEVC 10bit AAC 5.1 Vyndros)

Files

  • Billions.S02E01.Risk.Management.1080p.10bit.AMZN.WEB-DL.AAC5.1.HEVC-Vyndros.mkv (1.0 GB)
  • Billions.S02E02.Dead.Cat.Bounce.1080p.10bit.AMZN.WEB-DL.AAC5.1.HEVC-Vyndros.mkv (1.0 GB)
  • Billions.S02E03.Optimal.Play.1080p.10bit.AMZN.WEB-DL.AAC5.1.HEVC-Vyndros.mkv (1.0 GB)
  • Billions.S02E04.The.Oath.1080p.10bit.AMZN.WEB-DL.AAC5.1.HEVC-Vyndros.mkv (1.1 GB)
  • Billions.S02E05.Currency.1080p.10bit.AMZN.WEB-DL.AAC5.1.HEVC-Vyndros.mkv (1.1 GB)
  • Billions.S02E06.Indian.Four.1080p.10bit.AMZN.WEB-DL.AAC5.1.HEVC-Vyndros.mkv (1.0 GB)
  • Billions.S02E07.Victory.Lap.1080p.10bit.AMZN.WEB-DL.AAC5.1.HEVC-Vyndros.mkv (1,018.2 MB)
  • Billions.S02E08.The.Kingmaker.1080p.10bit.AMZN.WEB-DL.AAC5.1.HEVC-Vyndros.mkv (1,016.0 MB)
  • Billions.S02E09.Sic.Transit.Imperium.1080p.10bit.AMZN.WEB-DL.AAC5.1.HEVC-Vyndros.mkv (1.1 GB)
  • Billions.S02E10.With.or.Without.You.1080p.10bit.AMZN.WEB-DL.AAC5.1.HEVC-Vyndros.mkv (965.7 MB)
  • Billions.S02E11.Golden.Frog.Time.1080p.10bit.AMZN.WEB-DL.AAC5.1.HEVC-Vyndros.mkv (974.8 MB)
  • Billions.S02E12.Ball.in.Hand.1080p.10bit.AMZN.WEB-DL.AAC5.1.HEVC-Vyndros.mkv (1.1 GB)

Mediainfo

General
Format : Matroska
Format version : Version 4 / Version 2
File size : 1 016 MiB
Duration : 58 min 11 s
Overall bit rate : 2 441 kb/s
Encoded date : UTC 2020-01-15 17:57:42
Writing application : mkvmerge v20.0.0 ('I Am The Sun') 64-bit
Writing library : libebml v1.3.5 + libmatroska v1.4.8
Writing frontend : StaxRip v1.7.0.6

Video
ID : 1
Format : HEVC
Format/Info : High Efficiency Video Coding
Format profile : Main [email protected]@Main
Codec ID : V_MPEGH/ISO/HEVC
Duration : 58 min 11 s
Bit rate : 1 990 kb/s
Width : 1 920 pixels
Height : 1 080 pixels
Display aspect ratio : 16:9
Frame rate mode : Constant
Frame rate : 23.976 (24000/1001) FPS
Color space : YUV
Chroma subsampling : 4:2:0
Bit depth : 10 bits
Bits/(Pixel*Frame) : 0.040
Stream size : 828 MiB (82%)
Writing library : x265 3.2+5-354901970679:[Windows][GCC 9.2.0][64 bit] 10bit
Encoding settings : cpuid=1111039 / frame-threads=2 / numa-pools=4 / wpp / no-pmode / no-pme / no-psnr / ssim / log-level=2 / input-csp=1 / input-res=1920x1080 / interlace=0 / total-frames=83704 / level-idc=0 / high-tier=1 / uhd-bd=0 / ref=3 / no-allow-non-conformance / no-repeat-headers / annexb / no-aud / no-hrd / info / hash=0 / no-temporal-layers / open-gop / min-keyint=23 / keyint=250 / gop-lookahead=0 / bframes=8 / b-adapt=2 / b-pyramid / bframe-bias=0 / rc-lookahead=80 / lookahead-slices=6 / scenecut=40 / radl=0 / no-splice / no-intra-refresh / ctu=64 / min-cu-size=8 / no-rect / no-amp / max-tu-size=32 / tu-inter-depth=1 / tu-intra-depth=1 / limit-tu=0 / rdoq-level=0 / dynamic-rd=0.00 / no-ssim-rd / signhide / no-tskip / nr-intra=0 / nr-inter=0 / no-constrained-intra / no-strong-intra-smoothing / max-merge=3 / limit-refs=1 / no-limit-modes / me=3 / subme=5 / merange=57 / temporal-mvp / no-frame-dup / no-hme / weightp / no-weightb / no-analyze-src-pics / deblock=0:0 / sao / no-sao-non-deblock / rd=3 / selective-sao=4 / early-skip / no-rskip / no-fast-intra / no-tskip-fast / no-cu-lossless / b-intra / no-splitrd-skip / rdpenalty=0 / psy-rd=2.00 / psy-rdoq=0.00 / no-rd-refine / no-lossless / cbqpoffs=0 / crqpoffs=0 / rc=crf / crf=20.0 / qcomp=0.60 / qpstep=4 / stats-write=0 / stats-read=0 / ipratio=1.40 / pbratio=1.30 / aq-mode=3 / aq-strength=1.00 / cutree / zone-count=0 / no-strict-cbr / qg-size=32 / no-rc-grain / qpmax=69 / qpmin=0 / no-const-vbv / sar=0 / overscan=0 / videoformat=5 / range=0 / colorprim=2 / transfer=2 / colormatrix=2 / chromaloc=0 / display-window=0 / cll=0,0 / min-luma=0 / max-luma=1023 / log2-max-poc-lsb=8 / vui-timing-info / vui-hrd-info / slices=1 / no-opt-qp-pps / no-opt-ref-list-length-pps / no-multi-pass-opt-rps / scenecut-bias=0.05 / no-opt-cu-delta-qp / no-aq-motion / no-hdr / no-hdr-opt / no-dhdr10-opt / no-idr-recovery-sei / analysis-reuse-level=5 / scale-factor=0 / refine-intra=0 / refine-inter=0 / refine-mv=1 / refine-ctu-distortion=0 / no-limit-sao / ctu-info=0 / no-lowpass-dct / refine-analysis-type=0 / copy-pic=1 / max-ausize-factor=1.0 / no-dynamic-refine / no-single-sei / no-hevc-aq / no-svt / no-field / qp-adaptation-range=1.00
Default : Yes
Forced : No

Audio
ID : 2
Format : AAC
Format/Info : Advanced Audio Codec
Format profile : LC
Codec ID : A_AAC
Duration : 58 min 11 s
Bit rate : 448 kb/s
Channel(s) : 6 channels
Channel positions : Front: L C R, Side: L R, LFE
Sampling rate : 48.0 kHz
Frame rate : 46.875 FPS (1024 spf)
Compression mode : Lossy
Stream size : 187 MiB (18%)
Language : English
Default : Yes
Forced : No

Subtitle
ID : 3
Format : UTF-8
Codec ID : S_TEXT/UTF8
Codec ID/Info : UTF-8 Plain Text
Duration : 57 min 49 s
Bit rate : 85 b/s
Count of elements : 1114
Stream size : 36.3 KiB (0%)
Language : English
Default : No
Forced : No

Screens

Download

Download: Google Drive

Season 3

Billions (2016) Season 3 S03 (1080p AMZN WEB-DL x265 HEVC 10bit AAC 5.1 Vyndros)

Files

  • Billions.S03E01.Tie.Goes.to.the.Runner.1080p.10bit.AMZN.WEB-DL.AAC5.1.HEVC-Vyndros.mkv (675.6 MB)
  • Billions.S03E02.The.Wrong.Maria.Gonzalez.1080p.10bit.AMZN.WEB-DL.AAC5.1.HEVC-Vyndros.mkv (721.6 MB)
  • Billions.S03E03.A.Generation.Too.Late.1080p.10bit.AMZN.WEB-DL.AAC5.1.HEVC-Vyndros.mkv (784.4 MB)
  • Billions.S03E04.Hell.of.a.Ride.1080p.10bit.AMZN.WEB-DL.AAC5.1.HEVC-Vyndros.mkv (677.4 MB)
  • Billions.S03E05.Flaw.in.the.Death.Star.1080p.10bit.AMZN.WEB-DL.AAC5.1.HEVC-Vyndros.mkv (749.1 MB)
  • Billions.S03E06.The.Third.Ortolan.1080p.10bit.AMZN.WEB-DL.AAC5.1.HEVC-Vyndros.mkv (799.2 MB)
  • Billions.S03E07.Not.You,.Mr.Dake.1080p.10bit.AMZN.WEB-DL.AAC5.1.HEVC-Vyndros.mkv (741.5 MB)
  • Billions.S03E08.All.the.Wilburys.1080p.10bit.AMZN.WEB-DL.AAC5.1.HEVC-Vyndros.mkv (790.8 MB)
  • Billions.S03E09.Icebreaker.1080p.10bit.AMZN.WEB-DL.AAC5.1.HEVC-Vyndros.mkv (704.4 MB)
  • Billions.S03E10.Redemption.1080p.10bit.AMZN.WEB-DL.AAC5.1.HEVC-Vyndros.mkv (909.3 MB)
  • Billions.S03E11.Kompenso.1080p.10bit.AMZN.WEB-DL.AAC5.1.HEVC-Vyndros.mkv (819.9 MB)
  • Billions.S03E12.Elmsley.Count.1080p.10bit.AMZN.WEB-DL.AAC5.1.HEVC-Vyndros.mkv (764.0 MB)

Mediainfo

General
Format : Matroska
Format version : Version 4 / Version 2
File size : 764 MiB
Duration : 55 min 32 s
Overall bit rate : 1 923 kb/s
Encoded date : UTC 2018-06-11 16:36:30
Writing application : mkvmerge v20.0.0 ('I Am The Sun') 64-bit
Writing library : libebml v1.3.5 + libmatroska v1.4.8
Writing frontend : StaxRip v1.7.0.6

Video
ID : 1
Format : HEVC
Format/Info : High Efficiency Video Coding
Format profile : Main [email protected]@Main
Codec ID : V_MPEGH/ISO/HEVC
Duration : 55 min 32 s
Bit rate : 1 472 kb/s
Width : 1 920 pixels
Height : 1 080 pixels
Display aspect ratio : 16:9
Frame rate mode : Constant
Frame rate : 23.976 (24000/1001) FPS
Color space : YUV
Chroma subsampling : 4:2:0
Bit depth : 10 bits
Bits/(Pixel*Frame) : 0.030
Stream size : 585 MiB (77%)
Writing library : x265 2.8+10-a7bd0622ece5:[Windows][GCC 7.3.0][64 bit] 10bit
Encoding settings : cpuid=1111039 / frame-threads=3 / numa-pools=12 / wpp / no-pmode / no-pme / no-psnr / ssim / log-level=2 / input-csp=1 / input-res=1920x1080 / interlace=0 / total-frames=79894 / level-idc=0 / high-tier=1 / uhd-bd=0 / ref=3 / no-allow-non-conformance / no-repeat-headers / annexb / no-aud / no-hrd / info / hash=0 / no-temporal-layers / open-gop / min-keyint=23 / keyint=250 / gop-lookahead=0 / bframes=8 / b-adapt=2 / b-pyramid / bframe-bias=0 / rc-lookahead=50 / lookahead-slices=6 / scenecut=40 / radl=0 / no-intra-refresh / ctu=64 / min-cu-size=8 / no-rect / no-amp / max-tu-size=32 / tu-inter-depth=1 / tu-intra-depth=1 / limit-tu=0 / rdoq-level=0 / dynamic-rd=0.00 / no-ssim-rd / signhide / no-tskip / nr-intra=0 / nr-inter=0 / no-constrained-intra / no-strong-intra-smoothing / max-merge=3 / limit-refs=3 / no-limit-modes / me=3 / subme=3 / merange=57 / temporal-mvp / weightp / no-weightb / no-analyze-src-pics / deblock=0:0 / sao / no-sao-non-deblock / rd=3 / no-early-skip / no-rskip / no-fast-intra / no-tskip-fast / no-cu-lossless / no-b-intra / no-splitrd-skip / rdpenalty=0 / psy-rd=2.00 / psy-rdoq=0.00 / no-rd-refine / no-lossless / cbqpoffs=0 / crqpoffs=0 / rc=crf / crf=20.0 / qcomp=0.60 / qpstep=4 / stats-write=0 / stats-read=0 / ipratio=1.40 / pbratio=1.30 / aq-mode=3 / aq-strength=0.80 / cutree / zone-count=0 / no-strict-cbr / qg-size=32 / no-rc-grain / qpmax=69 / qpmin=0 / no-const-vbv / sar=0 / overscan=0 / videoformat=5 / range=0 / colorprim=2 / transfer=2 / colormatrix=2 / chromaloc=0 / display-window=0 / max-cll=0,0 / min-luma=0 / max-luma=1023 / log2-max-poc-lsb=8 / vui-timing-info / vui-hrd-info / slices=1 / no-opt-qp-pps / no-opt-ref-list-length-pps / no-multi-pass-opt-rps / scenecut-bias=0.05 / no-opt-cu-delta-qp / no-aq-motion / no-hdr / no-hdr-opt / no-dhdr10-opt / no-idr-recovery-sei / analysis-reuse-level=5 / scale-factor=0 / refine-intra=0 / refine-inter=0 / refine-mv=0 / no-limit-sao / ctu-info=0 / no-lowpass-dct / refine-mv-type=0 / copy-pic=1 / max-ausize-factor=1.0 / no-dynamic-refine / no-single-sei
Default : Yes
Forced : No

Audio
ID : 2
Format : AAC
Format/Info : Advanced Audio Codec
Format profile : LC
Codec ID : A_AAC
Duration : 55 min 32 s
Bit rate : 449 kb/s
Channel(s) : 6 channels
Channel positions : Front: L C R, Side: L R, LFE
Sampling rate : 48.0 kHz
Frame rate : 46.875 FPS (1024 spf)
Compression mode : Lossy
Stream size : 178 MiB (23%)
Language : English
Default : Yes
Forced : Yes

Subtitle #1
ID : 3
Format : UTF-8
Codec ID : S_TEXT/UTF8
Codec ID/Info : UTF-8 Plain Text
Duration : 55 min 21 s
Bit rate : 87 b/s
Count of elements : 1223
Stream size : 35.5 KiB (0%)
Language : English
Default : No
Forced : No

Subtitle #2
ID : 4
Format : UTF-8
Codec ID : S_TEXT/UTF8
Codec ID/Info : UTF-8 Plain Text
Duration : 55 min 21 s
Bit rate : 91 b/s
Count of elements : 1276
Stream size : 36.9 KiB (0%)
Language : English
Default : No
Forced : No

Menu
00:00:00.000 : en:Studio Logo
00:00:04.000 : en:Previously On
00:01:21.000 : en:Title Sequence
00:01:37.000 : en:Bobby, Wendy and Wags attend the Spartan Ives event
00:03:16.000 : en:Taylor impresses Grigor
00:06:50.000 : en:Chuck and Alvin plan to destroy Jock
00:10:31.000 : en:Taylor and Bobby promote Axe Capital to investors
00:13:03.000 : en:Bobby throws a party
00:16:28.000 : en:Chuck Sr motivates his son to go behind Jock
00:18:07.000 : en:Bobby, Wendy and Wags learn about Taylor's plan
00:23:41.000 : en:Grigor calls Bobby to discuss about his business and control the pests
00:27:35.000 : en:Taylor confronts Bobby
00:31:27.000 : en:Jock asks favor from Chuck and he tells his conditions
00:34:23.000 : en:Bobby feels bad about the betrayal
00:35:42.000 : en:Chuck tells the plan to Jock
00:37:01.000 : en:Taylor offers a job to Wendy
00:40:05.000 : en:Grigor pulls out his funds
00:44:27.000 : en:Shocker for Chuck
00:49:31.000 : en:Bobby goes to Chuck's home
00:54:38.000 : en:End Credits

Screens

Download

Download: Google Drive

Season 4

Billions (2016) Season 4 S04 (1080p AMZN WEB-DL x265 HEVC 10bit AAC 5.1 Vyndros)

Files

  • Billions.S04E01.Chucky.Rhoades’s.Greatest.Game.1080p.10bit.AMZN.WEB-DL.AAC5.1.HEVC-Vyndros.mkv (920.4 MB)
  • Billions.S04E02.Arousal.Template.1080p.10bit.AMZN.WEB-DL.AAC5.1.HEVC-Vyndros.mkv (890.7 MB)
  • Billions.S04E03.Chickentown.1080p.10bit.AMZN.WEB-DL.AAC5.1.HEVC-Vyndros.mkv (933.4 MB)
  • Billions.S04E04.Overton.Window.1080p.10bit.AMZN.WEB-DL.AAC5.1.HEVC-Vyndros.mkv (1,005.8 MB)
  • Billions.S04E05.A.Proper.Sendoff.1080p.10bit.AMZN.WEB-DL.AAC5.1.HEVC-Vyndros.mkv (1,001.6 MB)
  • Billions.S04E06.Maximum.Recreational.Depth.1080p.10bit.AMZN.WEB-DL.AAC5.1.HEVC-Vyndros.mkv (972.9 MB)
  • Billions.S04E07.Infinite.Game.1080p.10bit.AMZN.WEB-DL.AAC5.1.HEVC-Vyndros.mkv (932.2 MB)
  • Billions.S04E08.Fight.Night.1080p.10bit.AMZN.WEB-DL.AAC5.1.HEVC-Vyndros.mkv (1.0 GB)
  • Billions.S04E09.American.Champion.1080p.10bit.AMZN.WEB-DL.AAC5.1.HEVC-Vyndros.mkv (1.0 GB)
  • Billions.S04E10.New.Year’s.Day.1080p.10bit.AMZN.WEB-DL.AAC5.1.HEVC-Vyndros.mkv (914.6 MB)
  • Billions.S04E11.Lamster.1080p.10bit.AMZN.WEB-DL.AAC5.1.HEVC-Vyndros.mkv (736.8 MB)
  • Billions.S04E12.Extreme.Sandbox.1080p.10bit.AMZN.WEB-DL.AAC5.1.HEVC-Vyndros.mkv (804.4 MB)

Mediainfo

General
Format : Matroska
Format version : Version 4 / Version 2
File size : 804 MiB
Duration : 59 min 32 s
Overall bit rate : 1 889 kb/s
Encoded date : UTC 2019-06-10 05:31:58
Writing application : mkvmerge v20.0.0 ('I Am The Sun') 64-bit
Writing library : libebml v1.3.5 + libmatroska v1.4.8
Writing frontend : StaxRip v1.7.0.6

Video
ID : 1
Format : HEVC
Format/Info : High Efficiency Video Coding
Format profile : Main [email protected]@Main
Codec ID : V_MPEGH/ISO/HEVC
Duration : 59 min 32 s
Bit rate : 1 438 kb/s
Width : 1 920 pixels
Height : 1 080 pixels
Display aspect ratio : 16:9
Frame rate mode : Constant
Frame rate : 23.976 (24000/1001) FPS
Color space : YUV
Chroma subsampling : 4:2:0
Bit depth : 10 bits
Bits/(Pixel*Frame) : 0.029
Stream size : 612 MiB (76%)
Writing library : x265 3.0_Au+24-4217e691387c:[Windows][GCC 9.1.1][64 bit] 10bit
Encoding settings : rc=crf / crf=20.0000 / qcomp=0.60 / qpstep=4 / stats-write=0 / stats-read=0 / qpmax=69 / qpmin=0 / no-lossless / no-cu-lossless / no-hevc-aq / no-aq-motion / aq-mode=3 / aq-strength=0.80 / cbqpoffs=0 / crqpoffs=0 / ipratio=1.40 / pbratio=1.30 / psy-rd=2.00 / psy-rdoq=0.00 / deblock=0:0 / ref=3 / limit-refs=3 / no-limit-modes / bframes=8 / b-adapt=2 / bframe-bias=0 / b-pyramid / no-b-intra / weightp / no-weightb / keyint=250 / min-keyint=23 / rc-lookahead=80 / gop-lookahead=0 / scenecut=40 / scenecut-bias=0.05 / ctu=64 / min-cu-size=8 / me=3 / subme=5 / merange=57 / rd=3 / no-rd-refine / no-ssim-rd / dynamic-rd=0.00 / rdoq-level=0 / rdpenalty=0 / cutree / sao / no-limit-sao / no-sao-non-deblock / no-rect / no-amp / open-gop / max-tu-size=32 / tu-inter-depth=1 / tu-intra-depth=1 / limit-tu=0 / qg-size=32 / wpp / no-pmode / no-pme / no-psnr / ssim / no-tskip / no-constrained-intra / no-strong-intra-smoothing / max-merge=3 / nr-intra=0 / nr-inter=0 / input-csp=1 / input-res=1920x1080 / interlace=0 / total-frames=85650 / level-idc=0 / high-tier=1cpuid=1111039 / frame-threads=3 / numa-pools=12 / log-level=2 / uhd-bd=0 / lookahead-slices=6 / radl=0 / no-splice / no-intra-refresh / signhide / temporal-mvp / no-analyze-src-pics / no-early-skip / no-rskip / no-fast-intra / no-tskip-fast / no-splitrd-skip / zone-count=0 / no-strict-cbr / no-rc-grain / no-const-vbv / no-allow-non-conformance / no-repeat-headers / annexb / no-aud / no-hrd / info / hash=0 / no-temporal-layers / sar=0 / overscan=0 / videoformat=5 / range=0 / colorprim=2 / transfer=2 / colormatrix=2 / chromaloc=0 / display-window=0 / max-cll=0,0 / min-luma=0 / max-luma=1023 / log2-max-poc-lsb=8 / vui-timing-info / vui-hrd-info / slices=1 / no-opt-qp-pps / no-opt-ref-list-length-pps / no-multi-pass-opt-rps / no-opt-cu-delta-qp / no-hdr / no-hdr-opt / no-dhdr10-opt / no-idr-recovery-sei / analysis-reuse-level=5 / scale-factor=0 / refine-intra=0 / refine-inter=0 / refine-mv=0 / refine-ctu-distortion=0 / ctu-info=0 / no-lowpass-dct / refine-analysis-type=0 / copy-pic=1 / max-ausize-factor=1.0 / no-dynamic-refine / no-single-sei / no-svt / qp-adaptation-range=1.00
Default : Yes
Forced : No

Audio
ID : 2
Format : AAC
Format/Info : Advanced Audio Codec
Format profile : LC
Codec ID : A_AAC
Duration : 59 min 32 s
Bit rate : 449 kb/s
Channel(s) : 6 channels
Channel positions : Front: L C R, Side: L R, LFE
Sampling rate : 48.0 kHz
Frame rate : 46.875 FPS (1024 spf)
Compression mode : Lossy
Delay relative to video : 18 ms
Stream size : 191 MiB (24%)
Language : English
Default : Yes
Forced : Yes

Subtitle
ID : 3
Format : UTF-8
Codec ID : S_TEXT/UTF8
Codec ID/Info : UTF-8 Plain Text
Duration : 59 min 21 s
Bit rate : 92 b/s
Count of elements : 1365
Stream size : 40.2 KiB (0%)
Language : English
Default : No
Forced : No

Screens

Download

Download: Google Drive

3 thoughts on “Billions (2016) Season 1-4 (1080p Mixed x265 HEVC 10bit AAC 5.1 Vyndros)

  1. Please upload Ozark.S01.Season.1.1080p.10bit.NF.WEBRip.5.1.x265.HEVC-MZABI 9.2GB

    and

    Ozark (2017) Season 02 S02 (1080p NF WEB-DL x265 HEVC 10bit AC3 5.1 Qman) [UTR] 9.8GB

    and

    Ozark (2017) Season 03 S03 (1080p NF WEB-DL x265 HEVC 10bit AC3 5.1 Qman) [UTR] 12.8GB..

    Or All 3 seasons by Qman.. Please reply so i can wait tension free

  2. Please upload Ozark.S01.Season.1.1080p.10bit.NF.WEBRip.5.1.x265.HEVC-MZABI 9.2GB

    and

    Ozark (2017) Season 02 S02 (1080p NF WEB-DL x265 HEVC 10bit AC3 5.1 Qman) [UTR] 9.8GB

    and

    Ozark (2017) Season 03 S03 (1080p NF WEB-DL x265 HEVC 10bit AC3 5.1 Qman) [UTR] 12.8GB..

    Or All 3 seasons by Qman

Leave a Reply