Better Call Saul (2015) Season 1-5 (1080p Mixed x265 HEVC 10bit AAC 5.1)

Plot: See the rise of Jimmy McGill, a small-time lawyer searching for his destiny, but hustling to make ends meet. Working alongside, and often against Jimmy, is ‘fixer’ Mike Erhmantraut. The series tracks Jimmy’s evolution into Saul Goodman, the man who puts the word ‘criminal’ in ‘criminal lawyer’.

Season 1

Better Call Saul (2015) Season 1 S01 + Extras (1080p BluRay x265 HEVC 10bit AAC 5.1 RZeroX)

Files

  • Better Call Saul (2015) – S01E01 – Uno (1080p BluRay x265 RZeroX).mkv (2.0 GB)
  • Better Call Saul (2015) – S01E02 – Mijo (1080p BluRay x265 RZeroX).mkv (1.7 GB)
  • Better Call Saul (2015) – S01E03 – Nacho (1080p BluRay x265 RZeroX).mkv (1.6 GB)
  • Better Call Saul (2015) – S01E04 – Hero (1080p BluRay x265 RZeroX).mkv (1.5 GB)
  • Better Call Saul (2015) – S01E05 – Alpine Shepherd Boy (1080p BluRay x265 RZeroX).mkv (1.6 GB)
  • Better Call Saul (2015) – S01E06 – Five-O (1080p BluRay x265 RZeroX).mkv (1.2 GB)
  • Better Call Saul (2015) – S01E07 – Bingo (1080p BluRay x265 RZeroX).mkv (1.7 GB)
  • Better Call Saul (2015) – S01E08 – RICO (1080p BluRay x265 RZeroX).mkv (1.4 GB)
  • Better Call Saul (2015) – S01E09 – Pimento (1080p BluRay x265 RZeroX).mkv (1.6 GB)
  • Better Call Saul (2015) – S01E10 – Marco (1080p BluRay x265 RZeroX).mkv (1.6 GB)
  • Featurettes
    • Better Call Saul – Day One – Featurette.mkv (188.3 MB)
    • Better Call Saul – Music Video.mkv (109.6 MB)
    • Creating the First Season – Featurette.mkv (508.8 MB)
    • Deleted Scene – I Just Need Five Minutes.mkv (68.9 MB)
    • Deleted Scene – I’ll Wait from Marco.mkv (10.1 MB)
    • Deleted Scene – This MoFo Is on Fire!.mkv (20.1 MB)
    • Deleted Scene – This Way.mkv (6.0 MB)
    • Deleted Scene – What Were You Thirsty For.mkv (57.2 MB)
    • Gag Reel.mkv (74.5 MB)
    • Good Cop, Bad Cop – Becoming Mike – Featurette.mkv (836.9 MB)
    • In Conversation – Bob Odenkirk & Michael McKean.mkv (921.5 MB)
    • In the Studio – Featurette.mkv (210.8 MB)
    • Jimmy in the Courtroom – Outake.mkv (154.9 MB)
    • Jimmy Kaleidoscope – Montage.mkv (54.6 MB)
    • Uno – Table Read.mkv (1.1 GB)

Mediainfo

General
Format : Matroska
Format version : Version 4 / Version 2
File size : 2.01 GiB
Duration : 53 min 5 s
Overall bit rate : 5 412 kb/s
Movie name : Better Call Saul - Season 01 - Disc 1
Encoded date : UTC 2018-08-07 15:54:02
Writing application : mkvmerge v25.0.0 ('Prog Noir') 64-bit
Writing library : libebml v1.3.6 + libmatroska v1.4.9

Video
ID : 1
Format : HEVC
Format/Info : High Efficiency Video Coding
Format profile : Main [email protected]@Main
Codec ID : V_MPEGH/ISO/HEVC
Duration : 53 min 5 s
Bit rate : 4 297 kb/s
Width : 1 920 pixels
Height : 1 080 pixels
Display aspect ratio : 16:9
Frame rate mode : Constant
Frame rate : 23.976 (24000/1001) FPS
Color space : YUV
Chroma subsampling : 4:2:0
Bit depth : 10 bits
Bits/(Pixel*Frame) : 0.086
Stream size : 1.59 GiB (79%)
Writing library : x265 2.8+57-eea92165b035:[Windows][GCC 8.2.0][64 bit] 10bit
Encoding settings : cpuid=1111039 / frame-threads=3 / numa-pools=12 / wpp / no-pmode / no-pme / no-psnr / no-ssim / log-level=2 / input-csp=1 / input-res=1920x1080 / interlace=0 / total-frames=76368 / level-idc=0 / high-tier=1 / uhd-bd=0 / ref=4 / no-allow-non-conformance / no-repeat-headers / annexb / no-aud / no-hrd / info / hash=0 / no-temporal-layers / open-gop / min-keyint=23 / keyint=250 / gop-lookahead=0 / bframes=8 / b-adapt=2 / b-pyramid / bframe-bias=0 / rc-lookahead=80 / lookahead-slices=4 / scenecut=40 / radl=0 / no-intra-refresh / ctu=64 / min-cu-size=8 / no-rect / no-amp / max-tu-size=32 / tu-inter-depth=1 / tu-intra-depth=1 / limit-tu=0 / rdoq-level=2 / dynamic-rd=0.00 / no-ssim-rd / signhide / no-tskip / nr-intra=0 / nr-inter=0 / no-constrained-intra / strong-intra-smoothing / max-merge=3 / limit-refs=3 / limit-modes / me=3 / subme=5 / merange=57 / temporal-mvp / weightp / weightb / no-analyze-src-pics / deblock=-1:-1 / sao / no-sao-non-deblock / rd=4 / no-early-skip / rskip / no-fast-intra / no-tskip-fast / no-cu-lossless / no-b-intra / no-splitrd-skip / rdpenalty=0 / psy-rd=1.65 / psy-rdoq=1.70 / no-rd-refine / no-lossless / cbqpoffs=0 / crqpoffs=0 / rc=crf / crf=19.0 / qcomp=0.60 / qpstep=4 / stats-write=0 / stats-read=0 / ipratio=1.40 / pbratio=1.30 / aq-mode=3 / aq-strength=1.00 / cutree / zone-count=0 / no-strict-cbr / qg-size=32 / no-rc-grain / qpmax=69 / qpmin=0 / no-const-vbv / sar=0 / overscan=0 / videoformat=5 / range=0 / colorprim=2 / transfer=2 / colormatrix=2 / chromaloc=0 / display-window=0 / max-cll=0,0 / min-luma=0 / max-luma=1023 / log2-max-poc-lsb=8 / vui-timing-info / vui-hrd-info / slices=1 / no-opt-qp-pps / no-opt-ref-list-length-pps / no-multi-pass-opt-rps / scenecut-bias=0.00 / no-opt-cu-delta-qp / aq-motion / no-hdr / no-hdr-opt / no-dhdr10-opt / no-idr-recovery-sei / analysis-reuse-level=5 / scale-factor=0 / refine-intra=0 / refine-inter=0 / refine-mv=0 / no-limit-sao / ctu-info=0 / no-lowpass-dct / refine-mv-type=0 / copy-pic=1 / max-ausize-factor=1.0 / no-dynamic-refine / no-single-sei
Default : Yes
Forced : No

Audio #1
ID : 2
Format : AAC
Format/Info : Advanced Audio Codec
Format profile : LC
Codec ID : A_AAC
Duration : 53 min 5 s
Bit rate : 403 kb/s
Channel(s) : 6 channels
Channel positions : Front: L C R, Side: L R, LFE
Sampling rate : 48.0 kHz
Frame rate : 46.875 FPS (1024 spf)
Compression mode : Lossy
Delay relative to video : 20 ms
Stream size : 153 MiB (7%)
Language : English
Default : No
Forced : No

Audio #2
ID : 3
Format : AAC
Format/Info : Advanced Audio Codec
Format profile : HE-AAC / LC
Codec ID : A_AAC
Duration : 53 min 5 s
Bit rate : 192 kb/s
Channel(s) : 6 channels
Channel positions : Front: L C R, Side: L R, LFE
Sampling rate : 48.0 kHz / 24.0 kHz
Frame rate : 23.438 FPS (1024 spf)
Compression mode : Lossy
Delay relative to video : 40 ms
Stream size : 72.9 MiB (4%)
Language : German
Default : No
Forced : No

Audio #3
ID : 4
Format : AAC
Format/Info : Advanced Audio Codec
Format profile : HE-AAC / LC
Codec ID : A_AAC
Duration : 53 min 5 s
Bit rate : 192 kb/s
Channel(s) : 6 channels
Channel positions : Front: L C R, Side: L R, LFE
Sampling rate : 48.0 kHz / 24.0 kHz
Frame rate : 23.438 FPS (1024 spf)
Compression mode : Lossy
Delay relative to video : 40 ms
Stream size : 72.9 MiB (4%)
Language : Spanish
Default : No
Forced : No

Audio #4
ID : 5
Format : AAC
Format/Info : Advanced Audio Codec
Format profile : HE-AAC / LC
Codec ID : A_AAC
Duration : 53 min 5 s
Bit rate : 80.0 kb/s
Channel(s) : 2 channels
Channel positions : Front: L R
Sampling rate : 48.0 kHz / 24.0 kHz
Frame rate : 23.438 FPS (1024 spf)
Compression mode : Lossy
Delay relative to video : 40 ms
Stream size : 30.4 MiB (1%)
Title : Commentary with Vince Gilligan, Peter Gould, Bob Odenkirk, Michael McKean, Stewart Lyons, Diane Mercer & Thomas Golubic
Language : English
Default : No
Forced : No

Subtitle #1
ID : 6
Format : PGS
Muxing mode : zlib
Codec ID : S_HDMV/PGS
Codec ID/Info : Picture based subtitle format used on BDs/HD-DVDs
Duration : 49 min 9 s
Bit rate : 40.3 kb/s
Count of elements : 1264
Stream size : 14.2 MiB (1%)
Language : English
Default : No
Forced : No

Subtitle #2
ID : 7
Format : PGS
Muxing mode : zlib
Codec ID : S_HDMV/PGS
Codec ID/Info : Picture based subtitle format used on BDs/HD-DVDs
Duration : 51 min 37 s
Bit rate : 22.4 kb/s
Count of elements : 1300
Stream size : 8.29 MiB (0%)
Language : Arabic
Default : No
Forced : No

Subtitle #3
ID : 8
Format : PGS
Muxing mode : zlib
Codec ID : S_HDMV/PGS
Codec ID/Info : Picture based subtitle format used on BDs/HD-DVDs
Duration : 51 min 37 s
Bit rate : 34.9 kb/s
Count of elements : 1264
Stream size : 12.9 MiB (1%)
Language : Danish
Default : No
Forced : No

Subtitle #4
ID : 9
Format : PGS
Muxing mode : zlib
Codec ID : S_HDMV/PGS
Codec ID/Info : Picture based subtitle format used on BDs/HD-DVDs
Duration : 51 min 37 s
Bit rate : 33.1 kb/s
Count of elements : 1140
Stream size : 12.2 MiB (1%)
Language : Finnish
Default : No
Forced : No

Subtitle #5
ID : 10
Format : PGS
Muxing mode : zlib
Codec ID : S_HDMV/PGS
Codec ID/Info : Picture based subtitle format used on BDs/HD-DVDs
Duration : 51 min 37 s
Bit rate : 38.7 kb/s
Count of elements : 1262
Stream size : 14.3 MiB (1%)
Language : German
Default : No
Forced : No

Subtitle #6
ID : 11
Format : PGS
Muxing mode : zlib
Codec ID : S_HDMV/PGS
Codec ID/Info : Picture based subtitle format used on BDs/HD-DVDs
Duration : 51 min 37 s
Bit rate : 30.6 kb/s
Count of elements : 1300
Stream size : 11.3 MiB (1%)
Language : Hindi
Default : No
Forced : No

Subtitle #7
ID : 12
Format : PGS
Muxing mode : zlib
Codec ID : S_HDMV/PGS
Codec ID/Info : Picture based subtitle format used on BDs/HD-DVDs
Duration : 51 min 37 s
Bit rate : 34.4 kb/s
Count of elements : 1248
Stream size : 12.7 MiB (1%)
Language : Norwegian Bokmal
Default : No
Forced : No

Subtitle #8
ID : 13
Format : PGS
Muxing mode : zlib
Codec ID : S_HDMV/PGS
Codec ID/Info : Picture based subtitle format used on BDs/HD-DVDs
Duration : 51 min 37 s
Bit rate : 32.1 kb/s
Count of elements : 1286
Stream size : 11.9 MiB (1%)
Language : Polish
Default : No
Forced : No

Subtitle #9
ID : 14
Format : PGS
Muxing mode : zlib
Codec ID : S_HDMV/PGS
Codec ID/Info : Picture based subtitle format used on BDs/HD-DVDs
Duration : 51 min 37 s
Bit rate : 34.8 kb/s
Count of elements : 1290
Stream size : 12.9 MiB (1%)
Language : Spanish
Default : No
Forced : No

Subtitle #10
ID : 15
Format : PGS
Muxing mode : zlib
Codec ID : S_HDMV/PGS
Codec ID/Info : Picture based subtitle format used on BDs/HD-DVDs
Duration : 52 min 35 s
Bit rate : 34.0 kb/s
Count of elements : 1180
Stream size : 12.8 MiB (1%)
Language : Swedish
Default : No
Forced : No

Subtitle #11
ID : 16
Format : PGS
Muxing mode : zlib
Codec ID : S_HDMV/PGS
Codec ID/Info : Picture based subtitle format used on BDs/HD-DVDs
Duration : 51 min 37 s
Bit rate : 36.4 kb/s
Count of elements : 1292
Stream size : 13.5 MiB (1%)
Language : Turkish
Default : No
Forced : No

Subtitle #12
ID : 17
Format : PGS
Muxing mode : zlib
Codec ID : S_HDMV/PGS
Codec ID/Info : Picture based subtitle format used on BDs/HD-DVDs
Duration : 52 min 53 s
Bit rate : 71.5 kb/s
Count of elements : 2060
Stream size : 27.0 MiB (1%)
Title : Commentary with Vince Gilligan, Peter Gould, Bob Odenkirk, Michael McKean, Stewart Lyons, Diane Mercer & Thomas Golubic
Language : English
Default : No
Forced : No

Subtitle #13
ID : 18
Format : PGS
Muxing mode : zlib
Codec ID : S_HDMV/PGS
Codec ID/Info : Picture based subtitle format used on BDs/HD-DVDs
Duration : 52 min 53 s
Bit rate : 64.5 kb/s
Count of elements : 2024
Stream size : 24.4 MiB (1%)
Title : Commentary with Vince Gilligan, Peter Gould, Bob Odenkirk, Michael McKean, Stewart Lyons, Diane Mercer & Thomas Golubic
Language : German
Default : No
Forced : No

Subtitle #14
ID : 19
Format : PGS
Muxing mode : zlib
Codec ID : S_HDMV/PGS
Codec ID/Info : Picture based subtitle format used on BDs/HD-DVDs
Duration : 52 min 53 s
Bit rate : 60.4 kb/s
Count of elements : 2060
Stream size : 22.8 MiB (1%)
Title : Commentary with Vince Gilligan, Peter Gould, Bob Odenkirk, Michael McKean, Stewart Lyons, Diane Mercer & Thomas Golubic
Language : Spanish
Default : No
Forced : No

Menu
00:00:00.000 : en:Chapter 01
00:06:17.085 : en:Chapter 02
00:23:38.625 : en:Chapter 03
00:30:35.375 : en:Chapter 04
00:39:22.902 : en:Chapter 05
00:45:32.020 : en:Chapter 06
00:52:20.387 : en:Chapter 07

Screens

Download

Download: Google Drive

Extras: Google Drive

Season 2

Better Call Saul (2015) Season 2 S02 + Extras (1080p BluRay x265 HEVC 10bit AAC 5.1 RZeroX)

Files

  • Better Call Saul (2015) – S02E01 – Switch (1080p BluRay x265 RZeroX).mkv (2.3 GB)
  • Better Call Saul (2015) – S02E02 – Cobbler (1080p BluRay x265 RZeroX).mkv (1.8 GB)
  • Better Call Saul (2015) – S02E03 – Amarillo (1080p BluRay x265 RZeroX).mkv (1.8 GB)
  • Better Call Saul (2015) – S02E04 – Gloves Off (1080p BluRay x265 RZeroX).mkv (1.8 GB)
  • Better Call Saul (2015) – S02E05 – Rebecca (1080p BluRay x265 RZeroX).mkv (1.6 GB)
  • Better Call Saul (2015) – S02E06 – Bali Ha’i (1080p BluRay x265 RZeroX).mkv (1.9 GB)
  • Better Call Saul (2015) – S02E07 – Inflatable (1080p BluRay x265 RZeroX).mkv (1.7 GB)
  • Better Call Saul (2015) – S02E08 – Fifi (1080p BluRay x265 RZeroX).mkv (2.1 GB)
  • Better Call Saul (2015) – S02E09 – Nailed (1080p BluRay x265 RZeroX).mkv (2.0 GB)
  • Better Call Saul (2015) – S02E10 – Klick (1080p BluRay x265 RZeroX).mkv (1.8 GB)
  • Featurettes
    • Building the Shot – Featurette.mkv (88.3 MB)
    • Constructing Davis & Main – Featurette.mkv (204.6 MB)
    • Davis & Main Mesothelioma – Commercial.mkv (11.2 MB)
    • Davis & Main Sandpiper – Commercial.mkv (7.3 MB)
    • Gag Reel.mkv (97.3 MB)
    • HSC – Beaches ‘n’ Peaches – Squat Cobbler.mkv (203.1 MB)
    • In Conversation – Jonathan Banks and Mark Margolis.mkv (566.5 MB)
    • Jimmy and Kim – A Complicated Relationship – Featurette.mkv (111.3 MB)
    • Landing Fifi – Featurette.mkv (90.7 MB)
    • Setting the Score – Original Music by Composer Dave Porter – Featurette.mkv (111.8 MB)
    • Switch – Table Read.mkv (663.0 MB)
    • The Takedown – Featurette.mkv (165.7 MB)
    • Who Stole My Nest Egg – Commercial.mkv (6.0 MB)
    • Your the Greatest – Commercial.mkv (8.9 MB)

Mediainfo

General
Format : Matroska
Format version : Version 4 / Version 2
File size : 2.33 GiB
Duration : 46 min 58 s
Overall bit rate : 7 088 kb/s
Movie name : Better Call Saul - Season 2 - Disc 1
Encoded date : UTC 2018-09-01 06:18:32
Writing application : mkvmerge v25.0.0 ('Prog Noir') 64-bit
Writing library : libebml v1.3.6 + libmatroska v1.4.9

Video
ID : 1
Format : HEVC
Format/Info : High Efficiency Video Coding
Format profile : Main [email protected]@Main
Codec ID : V_MPEGH/ISO/HEVC
Duration : 46 min 58 s
Bit rate : 5 723 kb/s
Width : 1 920 pixels
Height : 1 080 pixels
Display aspect ratio : 16:9
Frame rate mode : Constant
Frame rate : 23.976 (24000/1001) FPS
Color space : YUV
Chroma subsampling : 4:2:0
Bit depth : 10 bits
Bits/(Pixel*Frame) : 0.115
Stream size : 1.88 GiB (81%)
Writing library : x265 2.8+57-eea92165b035:[Windows][GCC 8.2.0][64 bit] 10bit
Encoding settings : cpuid=1111039 / frame-threads=3 / numa-pools=12 / wpp / no-pmode / no-pme / no-psnr / no-ssim / log-level=2 / input-csp=1 / input-res=1920x1080 / interlace=0 / total-frames=67584 / level-idc=0 / high-tier=1 / uhd-bd=0 / ref=4 / no-allow-non-conformance / no-repeat-headers / annexb / no-aud / no-hrd / info / hash=0 / no-temporal-layers / open-gop / min-keyint=23 / keyint=250 / gop-lookahead=0 / bframes=8 / b-adapt=2 / b-pyramid / bframe-bias=0 / rc-lookahead=80 / lookahead-slices=4 / scenecut=40 / radl=0 / no-intra-refresh / ctu=64 / min-cu-size=8 / no-rect / no-amp / max-tu-size=32 / tu-inter-depth=1 / tu-intra-depth=1 / limit-tu=0 / rdoq-level=2 / dynamic-rd=0.00 / no-ssim-rd / signhide / no-tskip / nr-intra=0 / nr-inter=0 / no-constrained-intra / strong-intra-smoothing / max-merge=3 / limit-refs=3 / limit-modes / me=3 / subme=5 / merange=57 / temporal-mvp / weightp / weightb / no-analyze-src-pics / deblock=-1:-1 / sao / no-sao-non-deblock / rd=4 / no-early-skip / rskip / no-fast-intra / no-tskip-fast / no-cu-lossless / no-b-intra / no-splitrd-skip / rdpenalty=0 / psy-rd=1.65 / psy-rdoq=2.00 / no-rd-refine / no-lossless / cbqpoffs=0 / crqpoffs=0 / rc=crf / crf=18.0 / qcomp=0.60 / qpstep=4 / stats-write=0 / stats-read=0 / ipratio=1.40 / pbratio=1.30 / aq-mode=3 / aq-strength=1.00 / cutree / zone-count=0 / no-strict-cbr / qg-size=32 / no-rc-grain / qpmax=69 / qpmin=0 / no-const-vbv / sar=0 / overscan=0 / videoformat=5 / range=0 / colorprim=2 / transfer=2 / colormatrix=2 / chromaloc=0 / display-window=0 / max-cll=0,0 / min-luma=0 / max-luma=1023 / log2-max-poc-lsb=8 / vui-timing-info / vui-hrd-info / slices=1 / no-opt-qp-pps / no-opt-ref-list-length-pps / no-multi-pass-opt-rps / scenecut-bias=0.00 / no-opt-cu-delta-qp / aq-motion / no-hdr / no-hdr-opt / no-dhdr10-opt / no-idr-recovery-sei / analysis-reuse-level=5 / scale-factor=0 / refine-intra=0 / refine-inter=0 / refine-mv=0 / no-limit-sao / ctu-info=0 / no-lowpass-dct / refine-mv-type=0 / copy-pic=1 / max-ausize-factor=1.0 / no-dynamic-refine / no-single-sei
Default : Yes
Forced : No

Audio #1
ID : 2
Format : AAC
Format/Info : Advanced Audio Codec
Format profile : LC
Codec ID : A_AAC
Duration : 46 min 58 s
Bit rate : 436 kb/s
Channel(s) : 6 channels
Channel positions : Front: L C R, Side: L R, LFE
Sampling rate : 48.0 kHz
Frame rate : 46.875 FPS (1024 spf)
Compression mode : Lossy
Delay relative to video : 20 ms
Stream size : 146 MiB (6%)
Language : English
Default : No
Forced : No

Audio #2
ID : 3
Format : AAC
Format/Info : Advanced Audio Codec
Format profile : HE-AAC / LC
Codec ID : A_AAC
Duration : 46 min 58 s
Bit rate : 192 kb/s
Channel(s) : 6 channels
Channel positions : Front: L C R, Side: L R, LFE
Sampling rate : 48.0 kHz / 24.0 kHz
Frame rate : 23.438 FPS (1024 spf)
Compression mode : Lossy
Delay relative to video : 40 ms
Stream size : 64.5 MiB (3%)
Language : German
Default : No
Forced : No

Audio #3
ID : 4
Format : AAC
Format/Info : Advanced Audio Codec
Format profile : HE-AAC / LC
Codec ID : A_AAC
Duration : 46 min 58 s
Bit rate : 192 kb/s
Channel(s) : 6 channels
Channel positions : Front: L C R, Side: L R, LFE
Sampling rate : 48.0 kHz / 24.0 kHz
Frame rate : 23.438 FPS (1024 spf)
Compression mode : Lossy
Delay relative to video : 40 ms
Stream size : 64.5 MiB (3%)
Language : Italian
Default : No
Forced : No

Audio #4
ID : 5
Format : AAC
Format/Info : Advanced Audio Codec
Format profile : HE-AAC / LC
Codec ID : A_AAC
Duration : 46 min 58 s
Bit rate : 192 kb/s
Channel(s) : 6 channels
Channel positions : Front: L C R, Side: L R, LFE
Sampling rate : 48.0 kHz / 24.0 kHz
Frame rate : 23.438 FPS (1024 spf)
Compression mode : Lossy
Delay relative to video : 40 ms
Stream size : 64.5 MiB (3%)
Language : Spanish
Default : No
Forced : No

Audio #5
ID : 6
Format : AAC
Format/Info : Advanced Audio Codec
Format profile : HE-AAC / LC
Codec ID : A_AAC
Duration : 46 min 58 s
Bit rate : 80.0 kb/s
Channel(s) : 2 channels
Channel positions : Front: L R
Sampling rate : 48.0 kHz / 24.0 kHz
Frame rate : 23.438 FPS (1024 spf)
Compression mode : Lossy
Delay relative to video : 40 ms
Stream size : 26.9 MiB (1%)
Title : Commentary with Vince Gilligan, Peter Gould, Thomas Schnauz & Bob Odenkirk
Language : English
Default : No
Forced : No

Subtitle #1
ID : 7
Format : PGS
Muxing mode : zlib
Codec ID : S_HDMV/PGS
Codec ID/Info : Picture based subtitle format used on BDs/HD-DVDs
Duration : 43 min 20 s
Bit rate : 37.0 kb/s
Count of elements : 1112
Stream size : 11.5 MiB (0%)
Language : English
Default : No
Forced : No

Subtitle #2
ID : 8
Format : PGS
Muxing mode : zlib
Codec ID : S_HDMV/PGS
Codec ID/Info : Picture based subtitle format used on BDs/HD-DVDs
Duration : 45 min 11 s
Bit rate : 34.3 kb/s
Count of elements : 1118
Stream size : 11.1 MiB (0%)
Language : Danish
Default : No
Forced : No

Subtitle #3
ID : 9
Format : PGS
Muxing mode : zlib
Codec ID : S_HDMV/PGS
Codec ID/Info : Picture based subtitle format used on BDs/HD-DVDs
Duration : 45 min 11 s
Bit rate : 29.7 kb/s
Count of elements : 940
Stream size : 9.60 MiB (0%)
Language : Finnish
Default : No
Forced : No

Subtitle #4
ID : 10
Format : PGS
Muxing mode : zlib
Codec ID : S_HDMV/PGS
Codec ID/Info : Picture based subtitle format used on BDs/HD-DVDs
Duration : 45 min 11 s
Bit rate : 40.1 kb/s
Count of elements : 1134
Stream size : 13.0 MiB (1%)
Language : German
Default : No
Forced : No

Subtitle #5
ID : 11
Format : PGS
Muxing mode : zlib
Codec ID : S_HDMV/PGS
Codec ID/Info : Picture based subtitle format used on BDs/HD-DVDs
Duration : 45 min 11 s
Bit rate : 27.3 kb/s
Count of elements : 1140
Stream size : 8.81 MiB (0%)
Language : Hindi
Default : No
Forced : No

Subtitle #6
ID : 12
Format : PGS
Muxing mode : zlib
Codec ID : S_HDMV/PGS
Codec ID/Info : Picture based subtitle format used on BDs/HD-DVDs
Duration : 45 min 11 s
Bit rate : 37.8 kb/s
Count of elements : 1130
Stream size : 12.2 MiB (1%)
Language : Italian
Default : No
Forced : No

Subtitle #7
ID : 13
Format : PGS
Muxing mode : zlib
Codec ID : S_HDMV/PGS
Codec ID/Info : Picture based subtitle format used on BDs/HD-DVDs
Duration : 45 min 11 s
Bit rate : 31.6 kb/s
Count of elements : 1090
Stream size : 10.2 MiB (0%)
Language : Norwegian Bokmal
Default : No
Forced : No

Subtitle #8
ID : 14
Format : PGS
Muxing mode : zlib
Codec ID : S_HDMV/PGS
Codec ID/Info : Picture based subtitle format used on BDs/HD-DVDs
Duration : 44 min 0 s
Bit rate : 29.5 kb/s
Count of elements : 1088
Stream size : 9.27 MiB (0%)
Language : Polish
Default : No
Forced : No

Subtitle #9
ID : 15
Format : PGS
Muxing mode : zlib
Codec ID : S_HDMV/PGS
Codec ID/Info : Picture based subtitle format used on BDs/HD-DVDs
Duration : 45 min 12 s
Bit rate : 35.1 kb/s
Count of elements : 1136
Stream size : 11.3 MiB (0%)
Language : Spanish
Default : No
Forced : No

Subtitle #10
ID : 16
Format : PGS
Muxing mode : zlib
Codec ID : S_HDMV/PGS
Codec ID/Info : Picture based subtitle format used on BDs/HD-DVDs
Duration : 46 min 45 s
Bit rate : 33.9 kb/s
Count of elements : 1130
Stream size : 11.3 MiB (0%)
Language : Swedish
Default : No
Forced : No

Subtitle #11
ID : 17
Format : PGS
Muxing mode : zlib
Codec ID : S_HDMV/PGS
Codec ID/Info : Picture based subtitle format used on BDs/HD-DVDs
Duration : 45 min 11 s
Bit rate : 35.7 kb/s
Count of elements : 1136
Stream size : 11.5 MiB (0%)
Language : Turkish
Default : No
Forced : No

Subtitle #12
ID : 18
Format : PGS
Muxing mode : zlib
Codec ID : S_HDMV/PGS
Codec ID/Info : Picture based subtitle format used on BDs/HD-DVDs
Duration : 46 min 45 s
Bit rate : 72.2 kb/s
Count of elements : 1891
Stream size : 24.1 MiB (1%)
Title : Commentary with Vince Gilligan, Peter Gould, Thomas Schnauz & Bob Odenkirk
Language : English
Default : No
Forced : No

Subtitle #13
ID : 19
Format : PGS
Muxing mode : zlib
Codec ID : S_HDMV/PGS
Codec ID/Info : Picture based subtitle format used on BDs/HD-DVDs
Duration : 46 min 45 s
Bit rate : 75.4 kb/s
Count of elements : 1967
Stream size : 25.2 MiB (1%)
Title : Commentary with Vince Gilligan, Peter Gould, Thomas Schnauz & Bob Odenkirk
Language : German
Default : No
Forced : No

Subtitle #14
ID : 20
Format : PGS
Muxing mode : zlib
Codec ID : S_HDMV/PGS
Codec ID/Info : Picture based subtitle format used on BDs/HD-DVDs
Duration : 46 min 45 s
Bit rate : 62.0 kb/s
Count of elements : 1893
Stream size : 20.7 MiB (1%)
Title : Commentary with Vince Gilligan, Peter Gould, Thomas Schnauz & Bob Odenkirk
Language : Italian
Default : No
Forced : No

Subtitle #15
ID : 21
Format : PGS
Muxing mode : zlib
Codec ID : S_HDMV/PGS
Codec ID/Info : Picture based subtitle format used on BDs/HD-DVDs
Duration : 46 min 45 s
Bit rate : 63.3 kb/s
Count of elements : 1895
Stream size : 21.2 MiB (1%)
Title : Commentary with Vince Gilligan, Peter Gould, Thomas Schnauz & Bob Odenkirk
Language : Spanish
Default : No
Forced : No

Menu
00:00:00.000 : en:Chapter 01
00:05:54.771 : en:Chapter 02
00:16:16.100 : en:Chapter 03
00:30:23.655 : en:Chapter 04
00:38:33.269 : en:Chapter 05
00:46:18.984 : en:Chapter 06

Screens

Download

Download: Google Drive

Extras: Google Drive

Season 3

Better Call Saul (2015) Season 3 S03 + Extras (1080p BluRay x265 HEVC 10bit AAC 5.1 RZeroX)

Files

  • Better Call Saul (2015) – S03E01 – Mabel (1080p BluRay x265 RZeroX).mkv (1.9 GB)
  • Better Call Saul (2015) – S03E02 – Witness (1080p BluRay x265 RZeroX).mkv (1.9 GB)
  • Better Call Saul (2015) – S03E03 – Sunk Costs (1080p BluRay x265 RZeroX).mkv (1.9 GB)
  • Better Call Saul (2015) – S03E04 – Sabrosito (1080p BluRay x265 RZeroX).mkv (1.5 GB)
  • Better Call Saul (2015) – S03E05 – Chicanery (1080p BluRay x265 RZeroX).mkv (1.5 GB)
  • Better Call Saul (2015) – S03E06 – Off Brand (1080p BluRay x265 RZeroX).mkv (1.7 GB)
  • Better Call Saul (2015) – S03E07 – Expenses (1080p BluRay x265 RZeroX).mkv (2.0 GB)
  • Better Call Saul (2015) – S03E08 – Slip (1080p BluRay x265 RZeroX).mkv (1.8 GB)
  • Better Call Saul (2015) – S03E09 – Fall (1080p BluRay x265 RZeroX).mkv (1.6 GB)
  • Better Call Saul (2015) – S03E10 – Lantern (1080p BluRay x265 RZeroX).mkv (1.8 GB)
  • Featurettes
    • Deleted & Extended Scenes – Hector Visits Los Pollos Hermanos.mkv (100.4 MB)
    • Deleted & Extended Scenes – Jimmy and Mike Meet for Breakfast.mkv (18.8 MB)
    • Deleted & Extended Scenes – Jimmy Calls His Clients.mkv (46.7 MB)
    • Deleted & Extended Scenes – Jimmy Goes to Sandpiper.mkv (13.8 MB)
    • Deleted & Extended Scenes – Jimmy Waits in Hospital.mkv (19.4 MB)
    • Deleted & Extended Scenes – Mike Returns to Work.mkv (6.2 MB)
    • Deleted & Extended Scenes – Saul Goodman Productions Commercia.mkv (19.5 MB)
    • Deleted & Extended Scenes – Victor Meets with Gus.mkv (11.0 MB)
    • Gag Reel.mkv (96.4 MB)
    • Gene of Omaha – Featurette.mkv (183.5 MB)
    • In Conversation – Bob Odenkirk, Jonathan Banks & Rhea Seehorn – Featurette.mkv (246.9 MB)
    • It’s a Bad, Bad World – Featurette.mkv (233.8 MB)
    • Los Pollos Hermanos – Brand Management.mkv (24.2 MB)
    • Los Pollos Hermanos – Cleanliness.mkv (19.5 MB)
    • Los Pollos Hermanos – Code of Conduct.mkv (26.0 MB)
    • Los Pollos Hermanos – Communication.mkv (27.4 MB)
    • Los Pollos Hermanos – Conflict Resolution.mkv (26.5 MB)
    • Los Pollos Hermanos – Customer Service.mkv (32.2 MB)
    • Los Pollos Hermanos – Emergency Situations.mkv (31.0 MB)
    • Los Pollos Hermanos – Loss Prevention.mkv (26.9 MB)
    • Los Pollos Hermanos – Shipping and Receiving.mkv (25.8 MB)
    • Los Pollos Hermanos – Sustainability.mkv (25.1 MB)
    • Signs of Saul – Featurette.mkv (128.4 MB)
    • The Return of Gus Fring – Featurette.mkv (130.1 MB)

Mediainfo

General
Format : Matroska
Format version : Version 4 / Version 2
File size : 1.90 GiB
Duration : 51 min 57 s
Overall bit rate : 5 224 kb/s
Movie name : Better Call Saul - Season 3 - Disc 1
Encoded date : UTC 2018-09-25 16:57:13
Writing application : mkvmerge v26.0.0 ('In The Game') 64-bit
Writing library : libebml v1.3.6 + libmatroska v1.4.9

Video
ID : 1
Format : HEVC
Format/Info : High Efficiency Video Coding
Format profile : Main [email protected]@Main
Codec ID : V_MPEGH/ISO/HEVC
Duration : 51 min 57 s
Bit rate : 3 952 kb/s
Width : 1 920 pixels
Height : 1 080 pixels
Display aspect ratio : 16:9
Frame rate mode : Constant
Frame rate : 23.976 (24000/1001) FPS
Color space : YUV
Chroma subsampling : 4:2:0
Bit depth : 10 bits
Bits/(Pixel*Frame) : 0.079
Stream size : 1.43 GiB (76%)
Writing library : x265 2.8+69-856f056d392e:[Windows][GCC 8.2.0][64 bit] 10bit
Encoding settings : cpuid=1111039 / frame-threads=3 / numa-pools=12 / wpp / no-pmode / no-pme / no-psnr / no-ssim / log-level=2 / input-csp=1 / input-res=1920x1080 / interlace=0 / total-frames=74746 / level-idc=0 / high-tier=1 / uhd-bd=0 / ref=4 / no-allow-non-conformance / no-repeat-headers / annexb / no-aud / no-hrd / info / hash=0 / no-temporal-layers / open-gop / min-keyint=23 / keyint=250 / gop-lookahead=0 / bframes=8 / b-adapt=2 / b-pyramid / bframe-bias=0 / rc-lookahead=80 / lookahead-slices=4 / scenecut=40 / radl=0 / no-intra-refresh / ctu=64 / min-cu-size=8 / no-rect / no-amp / max-tu-size=32 / tu-inter-depth=1 / tu-intra-depth=1 / limit-tu=0 / rdoq-level=2 / dynamic-rd=0.00 / no-ssim-rd / signhide / no-tskip / nr-intra=0 / nr-inter=0 / no-constrained-intra / strong-intra-smoothing / max-merge=3 / limit-refs=3 / limit-modes / me=3 / subme=5 / merange=57 / temporal-mvp / weightp / weightb / no-analyze-src-pics / deblock=-1:-1 / sao / no-sao-non-deblock / rd=4 / no-early-skip / rskip / no-fast-intra / no-tskip-fast / no-cu-lossless / no-b-intra / no-splitrd-skip / rdpenalty=0 / psy-rd=1.65 / psy-rdoq=2.00 / no-rd-refine / no-lossless / cbqpoffs=0 / crqpoffs=0 / rc=crf / crf=18.5 / qcomp=0.60 / qpstep=4 / stats-write=0 / stats-read=0 / ipratio=1.40 / pbratio=1.30 / aq-mode=3 / aq-strength=1.00 / cutree / zone-count=0 / no-strict-cbr / qg-size=32 / no-rc-grain / qpmax=69 / qpmin=0 / no-const-vbv / sar=0 / overscan=0 / videoformat=5 / range=0 / colorprim=2 / transfer=2 / colormatrix=2 / chromaloc=0 / display-window=0 / max-cll=0,0 / min-luma=0 / max-luma=1023 / log2-max-poc-lsb=8 / vui-timing-info / vui-hrd-info / slices=1 / no-opt-qp-pps / no-opt-ref-list-length-pps / no-multi-pass-opt-rps / scenecut-bias=0.00 / no-opt-cu-delta-qp / aq-motion / no-hdr / no-hdr-opt / no-dhdr10-opt / no-idr-recovery-sei / analysis-reuse-level=5 / scale-factor=0 / refine-intra=0 / refine-inter=0 / refine-mv=0 / no-limit-sao / ctu-info=0 / no-lowpass-dct / refine-mv-type=0 / copy-pic=1 / max-ausize-factor=1.0 / no-dynamic-refine / no-single-sei
Default : Yes
Forced : No

Audio #1
ID : 2
Format : AAC
Format/Info : Advanced Audio Codec
Format profile : LC
Codec ID : A_AAC
Duration : 51 min 57 s
Bit rate : 410 kb/s
Channel(s) : 6 channels
Channel positions : Front: L C R, Side: L R, LFE
Sampling rate : 48.0 kHz
Frame rate : 46.875 FPS (1024 spf)
Compression mode : Lossy
Delay relative to video : 20 ms
Stream size : 152 MiB (8%)
Language : English
Default : No
Forced : No

Audio #2
ID : 3
Format : AAC
Format/Info : Advanced Audio Codec
Format profile : HE-AAC / LC
Codec ID : A_AAC
Duration : 51 min 57 s
Bit rate : 192 kb/s
Channel(s) : 6 channels
Channel positions : Front: L C R, Side: L R, LFE
Sampling rate : 48.0 kHz / 24.0 kHz
Frame rate : 23.438 FPS (1024 spf)
Compression mode : Lossy
Delay relative to video : 40 ms
Stream size : 71.4 MiB (4%)
Language : German
Default : No
Forced : No

Audio #3
ID : 4
Format : AAC
Format/Info : Advanced Audio Codec
Format profile : HE-AAC / LC
Codec ID : A_AAC
Duration : 51 min 57 s
Bit rate : 192 kb/s
Channel(s) : 6 channels
Channel positions : Front: L C R, Side: L R, LFE
Sampling rate : 48.0 kHz / 24.0 kHz
Frame rate : 23.438 FPS (1024 spf)
Compression mode : Lossy
Delay relative to video : 40 ms
Stream size : 71.4 MiB (4%)
Language : Italian
Default : No
Forced : No

Audio #4
ID : 5
Format : AAC
Format/Info : Advanced Audio Codec
Format profile : HE-AAC / LC
Codec ID : A_AAC
Duration : 51 min 57 s
Bit rate : 192 kb/s
Channel(s) : 6 channels
Channel positions : Front: L C R, Side: L R, LFE
Sampling rate : 48.0 kHz / 24.0 kHz
Frame rate : 23.438 FPS (1024 spf)
Compression mode : Lossy
Delay relative to video : 40 ms
Stream size : 71.4 MiB (4%)
Language : Spanish
Default : No
Forced : No

Audio #5
ID : 6
Format : AAC
Format/Info : Advanced Audio Codec
Format profile : HE-AAC / LC
Codec ID : A_AAC
Duration : 51 min 57 s
Bit rate : 80.0 kb/s
Channel(s) : 2 channels
Channel positions : Front: L R
Sampling rate : 48.0 kHz / 24.0 kHz
Frame rate : 23.438 FPS (1024 spf)
Compression mode : Lossy
Delay relative to video : 40 ms
Stream size : 29.7 MiB (2%)
Title : Commentary with Peter Gould, Vince Gilligan, Bob Odenkirk, Jonathan Banks & Marshall Adams
Language : English
Default : No
Forced : No

Subtitle #1
ID : 7
Format : PGS
Muxing mode : zlib
Codec ID : S_HDMV/PGS
Codec ID/Info : Picture based subtitle format used on BDs/HD-DVDs
Duration : 43 min 23 s
Bit rate : 26.4 kb/s
Count of elements : 846
Stream size : 8.19 MiB (0%)
Language : English
Default : No
Forced : No

Subtitle #2
ID : 8
Format : PGS
Muxing mode : zlib
Codec ID : S_HDMV/PGS
Codec ID/Info : Picture based subtitle format used on BDs/HD-DVDs
Duration : 48 min 47 s
Bit rate : 19.9 kb/s
Count of elements : 862
Stream size : 6.95 MiB (0%)
Language : Danish
Default : No
Forced : No

Subtitle #3
ID : 9
Format : PGS
Muxing mode : zlib
Codec ID : S_HDMV/PGS
Codec ID/Info : Picture based subtitle format used on BDs/HD-DVDs
Duration : 48 min 47 s
Bit rate : 20.1 kb/s
Count of elements : 736
Stream size : 7.00 MiB (0%)
Language : Finnish
Default : No
Forced : No

Subtitle #4
ID : 10
Format : PGS
Muxing mode : zlib
Codec ID : S_HDMV/PGS
Codec ID/Info : Picture based subtitle format used on BDs/HD-DVDs
Duration : 51 min 27 s
Bit rate : 25.4 kb/s
Count of elements : 880
Stream size : 9.35 MiB (0%)
Language : German
Default : No
Forced : No

Subtitle #5
ID : 11
Format : PGS
Muxing mode : zlib
Codec ID : S_HDMV/PGS
Codec ID/Info : Picture based subtitle format used on BDs/HD-DVDs
Duration : 50 min 31 s
Bit rate : 25.1 kb/s
Count of elements : 896
Stream size : 9.08 MiB (0%)
Language : Italian
Default : No
Forced : No

Subtitle #6
ID : 12
Format : PGS
Muxing mode : zlib
Codec ID : S_HDMV/PGS
Codec ID/Info : Picture based subtitle format used on BDs/HD-DVDs
Duration : 48 min 47 s
Bit rate : 20.8 kb/s
Count of elements : 740
Stream size : 7.25 MiB (0%)
Language : Norwegian Bokmal
Default : No
Forced : No

Subtitle #7
ID : 13
Format : PGS
Muxing mode : zlib
Codec ID : S_HDMV/PGS
Codec ID/Info : Picture based subtitle format used on BDs/HD-DVDs
Duration : 48 min 36 s
Bit rate : 22.5 kb/s
Count of elements : 872
Stream size : 7.83 MiB (0%)
Language : Polish
Default : No
Forced : No

Subtitle #8
ID : 14
Format : PGS
Muxing mode : zlib
Codec ID : S_HDMV/PGS
Codec ID/Info : Picture based subtitle format used on BDs/HD-DVDs
Duration : 48 min 47 s
Bit rate : 23.6 kb/s
Count of elements : 864
Stream size : 8.25 MiB (0%)
Language : Spanish
Default : No
Forced : No

Subtitle #9
ID : 15
Format : PGS
Muxing mode : zlib
Codec ID : S_HDMV/PGS
Codec ID/Info : Picture based subtitle format used on BDs/HD-DVDs
Duration : 50 min 31 s
Bit rate : 22.3 kb/s
Count of elements : 864
Stream size : 8.06 MiB (0%)
Language : Swedish
Default : No
Forced : No

Subtitle #10
ID : 16
Format : PGS
Muxing mode : zlib
Codec ID : S_HDMV/PGS
Codec ID/Info : Picture based subtitle format used on BDs/HD-DVDs
Duration : 50 min 31 s
Bit rate : 23.2 kb/s
Count of elements : 870
Stream size : 8.37 MiB (0%)
Language : Turkish
Default : No
Forced : No

Subtitle #11
ID : 17
Format : PGS
Muxing mode : zlib
Codec ID : S_HDMV/PGS
Codec ID/Info : Picture based subtitle format used on BDs/HD-DVDs
Duration : 51 min 35 s
Bit rate : 69.0 kb/s
Count of elements : 2011
Stream size : 25.4 MiB (1%)
Title : Commentary with Peter Gould, Vince Gilligan, Bob Odenkirk, Jonathan Banks & Marshall Adams
Language : English
Default : No
Forced : No

Subtitle #12
ID : 18
Format : PGS
Muxing mode : zlib
Codec ID : S_HDMV/PGS
Codec ID/Info : Picture based subtitle format used on BDs/HD-DVDs
Duration : 51 min 35 s
Bit rate : 68.3 kb/s
Count of elements : 2089
Stream size : 25.2 MiB (1%)
Title : Commentary with Peter Gould, Vince Gilligan, Bob Odenkirk, Jonathan Banks & Marshall Adams
Language : German
Default : No
Forced : No

Subtitle #13
ID : 19
Format : PGS
Muxing mode : zlib
Codec ID : S_HDMV/PGS
Codec ID/Info : Picture based subtitle format used on BDs/HD-DVDs
Duration : 51 min 35 s
Bit rate : 60.1 kb/s
Count of elements : 1973
Stream size : 22.2 MiB (1%)
Title : Commentary with Peter Gould, Vince Gilligan, Bob Odenkirk, Jonathan Banks & Marshall Adams
Language : Italian
Default : No
Forced : No

Subtitle #14
ID : 20
Format : PGS
Muxing mode : zlib
Codec ID : S_HDMV/PGS
Codec ID/Info : Picture based subtitle format used on BDs/HD-DVDs
Duration : 51 min 35 s
Bit rate : 61.0 kb/s
Count of elements : 1973
Stream size : 22.5 MiB (1%)
Title : Commentary with Peter Gould, Vince Gilligan, Bob Odenkirk, Jonathan Banks & Marshall Adams
Language : Spanish
Default : No
Forced : No

Menu
00:00:00.000 : en:Chapter 01
00:05:58.191 : en:Chapter 02
00:17:11.780 : en:Chapter 03
00:26:49.774 : en:Chapter 04
00:32:37.413 : en:Chapter 05
00:39:32.161 : en:Chapter 06
00:51:18.075 : en:Chapter 07

Screens

Download

Download: Google Drive

Extras: Google Drive

Season 4

Better Call Saul (2015) Season 4 S04 (1080p BluRay x265 HEVC 10bit AAC 5.1 RZeroX)

Files

  • Better Call Saul (2015) – S04E01 – Smoke (1080p BluRay x265 RZeroX).mkv (1.8 GB)
  • Better Call Saul (2015) – S04E02 – Breathe (1080p BluRay x265 RZeroX).mkv (1.7 GB)
  • Better Call Saul (2015) – S04E03 – Something Beautiful (1080p BluRay x265 RZeroX).mkv (1.6 GB)
  • Better Call Saul (2015) – S04E04 – Talk (1080p BluRay x265 RZeroX).mkv (1.8 GB)
  • Better Call Saul (2015) – S04E05 – Quite a Ride (1080p BluRay x265 RZeroX).mkv (1.9 GB)
  • Better Call Saul (2015) – S04E06 – Piñata (1080p BluRay x265 RZeroX).mkv (1.8 GB)
  • Better Call Saul (2015) – S04E07 – Something Stupid (1080p BluRay x265 RZeroX).mkv (1.5 GB)
  • Better Call Saul (2015) – S04E08 – Coushatta (1080p BluRay x265 RZeroX).mkv (2.0 GB)
  • Better Call Saul (2015) – S04E09 – Wiedersehen (1080p BluRay x265 RZeroX).mkv (2.1 GB)
  • Better Call Saul (2015) – S04E10 – Winner (1080p BluRay x265 RZeroX).mkv (2.2 GB)
  • Featurettes
    • Camera Rehearsal – Something Stupid.mkv (94.8 MB)
    • Constructing the Superlab.mkv (144.8 MB)
    • Deleted Scene – Another Day, Another Euro.mkv (28.3 MB)
    • Deleted Scene – CC Mobile.mkv (15.9 MB)
    • Deleted Scene – Clean Up.mkv (5.5 MB)
    • Deleted Scene – Kim Saves the Day… Again.mkv (26.9 MB)
    • Deleted Scene – The Getaway.mkv (23.8 MB)
    • Deleted Scene – The Shells Taste Better.mkv (45.2 MB)
    • Deleted Scene – Winter.mkv (11.5 MB)
    • Flashing Forward, Looking Back.mkv (276.6 MB)
    • Gag Reel.mkv (127.2 MB)
    • Madrigal Security Training Videos.mkv (383.4 MB)
    • Short Film – No Picnic.mkv (98.1 MB)
    • Slippin’ Kimmy.mkv (165.4 MB)
    • Storyboard Comparison – Piñata.mkv (43.1 MB)
    • Storyboard Comparison – Something Beautiful.mkv (70.4 MB)
    • Storyboard Comparison – Winner.mkv (40.6 MB)

Mediainfo

General
Format : Matroska
File Size : 1.77 GiB
Duration : 48 min 18 s
Overall Bit Rate : 5258 kb/s

Video
Format : HEVC
Format Profile : Main [email protected]@Main
Bit Rate : 3999 kb/s
Dimensions : 1920 pixels x 1080 pixels
Display Aspect Ratio : 16:9
Frame Rate : 23.976 (24000/1001) FPS
Writing Library : x265 3.1+5-9c5c9cef2a86:[Windows][GCC 9.1.0][64 bit] 10bit
Encoding Settings : cpuid=1111039 / frame-threads=3 / numa-pools=12 / wpp / no-pmode / no-pme / no-psnr / no-ssim / log-level=2 / input-csp=1 / input-res=1920x1080 / interlace=0 / total-frames=69504 / level-idc=0 / high-tier=1 / uhd-bd=0 / ref=4 / no-allow-non-conformance / no-repeat-headers / annexb / no-aud / no-hrd / info / hash=0 / no-temporal-layers / open-gop / min-keyint=23 / keyint=250 / gop-lookahead=0 / bframes=8 / b-adapt=2 / b-pyramid / bframe-bias=0 / rc-lookahead=80 / lookahead-slices=4 / scenecut=40 / radl=0 / no-splice / no-intra-refresh / ctu=64 / min-cu-size=8 / no-rect / no-amp / max-tu-size=32 / tu-inter-depth=1 / tu-intra-depth=1 / limit-tu=0 / rdoq-level=2 / dynamic-rd=0.00 / no-ssim-rd / signhide / no-tskip / nr-intra=0 / nr-inter=0 / no-constrained-intra / no-strong-intra-smoothing / max-merge=3 / limit-refs=3 / limit-modes / me=3 / subme=5 / merange=57 / temporal-mvp / weightp / weightb / no-analyze-src-pics / deblock=-3:-3 / no-sao / no-sao-non-deblock / rd=4 / no-early-skip / rskip / no-fast-intra / no-tskip-fast / no-cu-lossless / no-b-intra / no-splitrd-skip / rdpenalty=0 / psy-rd=2.00 / psy-rdoq=3.00 / no-rd-refine / no-lossless / cbqpoffs=0 / crqpoffs=0 / rc=abr / bitrate=4000 / qcomp=0.60 / qpstep=4 / stats-write=0 / stats-read=2 / cplxblur=20.0 / qblur=0.5 / ipratio=1.40 / pbratio=1.30 / aq-mode=3 / aq-strength=1.00 / cutree / zone-count=0 / no-strict-cbr / qg-size=32 / no-rc-grain / qpmax=69 / qpmin=0 / no-const-vbv / sar=0 / overscan=0 / videoformat=5 / range=0 / colorprim=2 / transfer=2 / colormatrix=2 / chromaloc=0 / display-window=0cll=0,0 / min-luma=0 / max-luma=1023 / log2-max-poc-lsb=8 / vui-timing-info / vui-hrd-info / slices=1 / no-opt-qp-pps / no-opt-ref-list-length-pps / no-multi-pass-opt-rps / scenecut-bias=0.05 / no-opt-cu-delta-qp / no-aq-motion / no-hdr / no-hdr-opt / no-dhdr10-opt / no-idr-recovery-sei / analysis-reuse-level=5 / scale-factor=0 / refine-intra=0 / refine-inter=0 / refine-mv=0 / refine-ctu-distortion=0 / no-limit-sao / ctu-info=0 / no-lowpass-dct / refine-analysis-type=0 / copy-pic=1 / max-ausize-factor=1.0 / no-dynamic-refine / no-single-sei / no-hevc-aq / no-svt / no-field / qp-adaptation-range=1.00

Audio #1 : English / AAC / 6 channels / 400 kb/s
Audio #2 : German / AAC / 6 channels / 192 kb/s
Audio #3 : Italian / AAC / 6 channels / 192 kb/s
Audio #4 : Spanish / AAC / 6 channels / 192 kb/s
Audio #5 : English / AAC / 2 channels / 80.0 kb/s / Commentary with Peter Gould, Bob Odenkirk, Jonathan Banks & Minkie Spiro

Subtitle #1 : English / PGS / 27.9 kb/s / Forced
Subtitle #2 : English / PGS / 20.6 kb/s
Subtitle #3 : Danish / PGS / 17.5 kb/s
Subtitle #4 : Finnish / PGS / 17.6 kb/s
Subtitle #5 : German / PGS / 20.8 kb/s
Subtitle #6 : Italian / PGS / 20.7 kb/s
Subtitle #7 : Norwegian Bokmal / PGS / 18.2 kb/s
Subtitle #8 : Polish / PGS / 20.0 kb/s
Subtitle #9 : Spanish / PGS / 19.6 kb/s
Subtitle #10 : Swedish / PGS / 19.6 kb/s
Subtitle #11 : Turkish / PGS / 19.2 kb/s
Subtitle #12 : English / PGS / 59.1 kb/s / Commentary with Peter Gould, Bob Odenkirk, Jonathan Banks & Minkie Spiro
Subtitle #13 : German / PGS / 53.1 kb/s / Commentary with Peter Gould, Bob Odenkirk, Jonathan Banks & Minkie Spiro
Subtitle #14 : Italian / PGS / 57.8 kb/s / Commentary with Peter Gould, Bob Odenkirk, Jonathan Banks & Minkie Spiro
Subtitle #15 : Spanish / PGS / 54.7 kb/s / Commentary with Peter Gould, Bob Odenkirk, Jonathan Banks & Minkie Spiro

Chapters
00:00:00.000 : en:Chapter 01
00:08:34.347 : en:Chapter 02
00:16:10.010 : en:Chapter 03
00:26:03.603 : en:Chapter 04
00:32:49.968 : en:Chapter 05
00:47:34.226 : en:Chapter 06

Screens

Download

Download: Google Drive

Extras: Google Drive

Season 5

Better Call Saul (2015) Season 05 S05 (1080p NF WEBRip x265 HEVC 10bit AAC 5.1 Joy)

Files

  • Better Call Saul S05E05 Dedicado a Max [1080p x265 10bit S93 Joy].mkv (610.5 MB)
  • Better Call Saul S05E02 50% Off [1080p x265 10bit S88 Joy].mkv (452.4 MB)
  • Better Call Saul S05E03 The Guy for This [1080p x265 10bit S92 Joy].mkv (539.4 MB)
  • Better Call Saul S05E04 Namaste [1080p x265 10bit S96 Joy].mkv (459.9 MB)
  • Better Call Saul S05E01 Magic Man [1080p x265 10bit S89 Joy].mkv (574.4 MB)
  • Better Call Saul S05E06 Wexler v. Goodman [1080p x265 10bit S92 Joy].mkv (511.0 MB)
  • Better Call Saul S05E07 JMM [1080p x265 10bit S92 Joy].mkv (471.1 MB)
  • Better Call Saul S05E08 Bag Man [1080p x265 10bit S88 Joy].mkv (538.0 MB)
  • Better Call Saul S05E09 Bad Choice Road [1080p x265 10bit S91 Joy].mkv (586.6 MB)
  • Better Call Saul S05E10 Something Unforgivable [1080p x265 10bit S92 Joy].mkv (592.0 MB)

Mediainfo

General
Format : Matroska
Format version : Version 4 / Version 2
File size : 611 MiB
Duration : 50 min 47 s
Overall bit rate : 1 681 kb/s
Movie name : Better Call Saul S05E05 Dedicado a Max [1080p x265 10bit Joy][UTR]
Encoded date : UTC 2020-03-18 20:01:58
Writing application : mkvmerge v34.0.0 ('Sight and Seen') 64-bit
Writing library : libebml v1.3.7 + libmatroska v1.5.0
Writing frontend : StaxRip v2.0.2.0, Encoded by JoyBell

Video
ID : 1
Format : HEVC
Format/Info : High Efficiency Video Coding
Format profile : Main [email protected]@Main
Codec ID : V_MPEGH/ISO/HEVC
Duration : 50 min 47 s
Bit rate : 1 501 kb/s
Width : 1 920 pixels
Height : 1 080 pixels
Display aspect ratio : 16:9
Frame rate mode : Constant
Frame rate : 23.976 (24000/1001) FPS
Color space : YUV
Chroma subsampling : 4:2:0
Bit depth : 10 bits
Bits/(Pixel*Frame) : 0.030
Stream size : 545 MiB (89%)
Writing library : x265 3.2+9-971180b100f8:[Windows][MSVC 1923][64 bit] 10bit
Encoding settings : cpuid=1111039 / frame-threads=3 / numa-pools=12 / wpp / no-pmode / no-pme / no-psnr / ssim / log-level=2 / input-csp=1 / input-res=1920x1080 / interlace=0 / total-frames=73063 / level-idc=0 / high-tier=1 / uhd-bd=0 / ref=4 / no-allow-non-conformance / no-repeat-headers / annexb / no-aud / no-hrd / info / hash=0 / no-temporal-layers / open-gop / min-keyint=23 / keyint=250 / gop-lookahead=0 / bframes=8 / b-adapt=2 / b-pyramid / bframe-bias=40 / rc-lookahead=80 / lookahead-slices=4 / scenecut=40 / radl=0 / no-splice / no-intra-refresh / ctu=64 / min-cu-size=8 / rect / no-amp / max-tu-size=32 / tu-inter-depth=1 / tu-intra-depth=1 / limit-tu=0 / rdoq-level=2 / dynamic-rd=0.00 / ssim-rd / signhide / no-tskip / nr-intra=0 / nr-inter=0 / constrained-intra / strong-intra-smoothing / max-merge=5 / limit-refs=3 / limit-modes / me=4 / subme=7 / merange=57 / temporal-mvp / no-frame-dup / no-hme / weightp / no-weightb / no-analyze-src-pics / deblock=0:0 / sao / no-sao-non-deblock / rd=4 / selective-sao=4 / early-skip / rskip / no-fast-intra / no-tskip-fast / no-cu-lossless / no-b-intra / splitrd-skip / rdpenalty=0 / psy-rd=2.45 / psy-rdoq=1.50 / no-rd-refine / no-lossless / cbqpoffs=0 / crqpoffs=0 / rc=abr / bitrate=1500 / qcomp=0.60 / qpstep=4 / stats-write=0 / stats-read=2 / cplxblur=20.0 / qblur=0.5 / ipratio=1.40 / pbratio=1.30 / aq-mode=3 / aq-strength=0.40 / cutree / zone-count=0 / no-strict-cbr / qg-size=32 / no-rc-grain / qpmax=69 / qpmin=0 / no-const-vbv / sar=0 / overscan=0 / videoformat=5 / range=0 / colorprim=1 / transfer=1 / colormatrix=1 / chromaloc=0 / display-window=0 / cll=0,0 / min-luma=0 / max-luma=1023 / log2-max-poc-lsb=8 / vui-timing-info / vui-hrd-info / slices=1 / no-opt-qp-pps / no-opt-ref-list-length-pps / multi-pass-opt-rps / scenecut-bias=0.05 / no-opt-cu-delta-qp / no-aq-motion / no-hdr / no-hdr-opt / no-dhdr10-opt / no-idr-recovery-sei / analysis-load / analysis-reuse-level=10 / scale-factor=0 / refine-intra=0 / refine-inter=0 / refine-mv=1 / refine-ctu-distortion=0 / limit-sao / ctu-info=0 / no-lowpass-dct / refine-analysis-type=0 / copy-pic=1 / max-ausize-factor=1.0 / no-dynamic-refine / no-single-sei / no-hevc-aq / no-svt / no-field / qp-adaptation-range=1.00
Default : Yes
Forced : No
Color range : Limited
Color primaries : BT.709
Transfer characteristics : BT.709
Matrix coefficients : BT.709

Audio
ID : 2
Format : AAC
Format/Info : Advanced Audio Codec
Format profile : HE-AAC / LC
Codec ID : A_AAC
Duration : 50 min 47 s
Bit rate : 175 kb/s
Channel(s) : 6 channels
Channel positions : Front: L C R, Side: L R, LFE
Sampling rate : 48.0 kHz / 24.0 kHz
Frame rate : 23.438 FPS (1024 spf)
Compression mode : Lossy
Delay relative to video : 31 ms
Stream size : 63.6 MiB (10%)
Language : English
Default : No
Forced : No

Subtitle #1
ID : 3
Format : UTF-8
Codec ID : S_TEXT/UTF8
Codec ID/Info : UTF-8 Plain Text
Duration : 35 min 34 s
Bit rate : 1 b/s
Count of elements : 11
Stream size : 290 Bytes (0%)
Language : English
Default : No
Forced : Yes

Subtitle #2
ID : 4
Format : UTF-8
Codec ID : S_TEXT/UTF8
Codec ID/Info : UTF-8 Plain Text
Duration : 49 min 2 s
Bit rate : 55 b/s
Count of elements : 558
Stream size : 20.1 KiB (0%)
Language : English
Default : No
Forced : No

Subtitle #3
ID : 5
Format : UTF-8
Codec ID : S_TEXT/UTF8
Codec ID/Info : UTF-8 Plain Text
Duration : 49 min 39 s
Bit rate : 58 b/s
Count of elements : 630
Stream size : 21.3 KiB (0%)
Language : English
Default : No
Forced : No

Subtitle #4
ID : 6
Format : UTF-8
Codec ID : S_TEXT/UTF8
Codec ID/Info : UTF-8 Plain Text
Duration : 49 min 53 s
Bit rate : 89 b/s
Count of elements : 554
Stream size : 32.8 KiB (0%)
Language : Arabic
Default : No
Forced : No

Subtitle #5
ID : 7
Format : UTF-8
Codec ID : S_TEXT/UTF8
Codec ID/Info : UTF-8 Plain Text
Duration : 49 min 53 s
Bit rate : 46 b/s
Count of elements : 553
Stream size : 17.0 KiB (0%)
Language : Danish
Default : No
Forced : No

Subtitle #6
ID : 8
Format : UTF-8
Codec ID : S_TEXT/UTF8
Codec ID/Info : UTF-8 Plain Text
Duration : 49 min 53 s
Bit rate : 54 b/s
Count of elements : 555
Stream size : 19.9 KiB (0%)
Language : German
Default : No
Forced : No

Subtitle #7
ID : 9
Format : UTF-8
Codec ID : S_TEXT/UTF8
Codec ID/Info : UTF-8 Plain Text
Duration : 49 min 53 s
Bit rate : 53 b/s
Count of elements : 546
Stream size : 19.4 KiB (0%)
Language : Spanish
Default : No
Forced : No

Subtitle #8
ID : 10
Format : UTF-8
Codec ID : S_TEXT/UTF8
Codec ID/Info : UTF-8 Plain Text
Duration : 49 min 54 s
Bit rate : 49 b/s
Count of elements : 574
Stream size : 18.1 KiB (0%)
Language : Spanish
Default : No
Forced : No

Subtitle #9
ID : 11
Format : UTF-8
Codec ID : S_TEXT/UTF8
Codec ID/Info : UTF-8 Plain Text
Duration : 49 min 53 s
Bit rate : 50 b/s
Count of elements : 421
Stream size : 18.4 KiB (0%)
Language : Finnish
Default : No
Forced : No

Subtitle #10
ID : 12
Format : UTF-8
Codec ID : S_TEXT/UTF8
Codec ID/Info : UTF-8 Plain Text
Duration : 49 min 53 s
Bit rate : 46 b/s
Count of elements : 575
Stream size : 16.9 KiB (0%)
Language : French
Default : No
Forced : No

Subtitle #11
ID : 13
Format : UTF-8
Codec ID : S_TEXT/UTF8
Codec ID/Info : UTF-8 Plain Text
Duration : 49 min 53 s
Bit rate : 54 b/s
Count of elements : 540
Stream size : 19.8 KiB (0%)
Language : Icelandic
Default : No
Forced : No

Subtitle #12
ID : 14
Format : UTF-8
Codec ID : S_TEXT/UTF8
Codec ID/Info : UTF-8 Plain Text
Duration : 49 min 53 s
Bit rate : 54 b/s
Count of elements : 553
Stream size : 19.8 KiB (0%)
Language : Italian
Default : No
Forced : No

Subtitle #13
ID : 15
Format : UTF-8
Codec ID : S_TEXT/UTF8
Codec ID/Info : UTF-8 Plain Text
Duration : 49 min 44 s
Bit rate : 48 b/s
Count of elements : 573
Stream size : 17.8 KiB (0%)
Language : Japanese
Default : No
Forced : No

Subtitle #14
ID : 16
Format : UTF-8
Codec ID : S_TEXT/UTF8
Codec ID/Info : UTF-8 Plain Text
Duration : 49 min 53 s
Bit rate : 69 b/s
Count of elements : 554
Stream size : 25.5 KiB (0%)
Language : Korean
Default : No
Forced : No

Subtitle #15
ID : 17
Format : UTF-8
Codec ID : S_TEXT/UTF8
Codec ID/Info : UTF-8 Plain Text
Duration : 49 min 53 s
Bit rate : 43 b/s
Count of elements : 549
Stream size : 16.0 KiB (0%)
Language : Norwegian Bokmal
Default : No
Forced : No

Subtitle #16
ID : 18
Format : UTF-8
Codec ID : S_TEXT/UTF8
Codec ID/Info : UTF-8 Plain Text
Duration : 49 min 53 s
Bit rate : 50 b/s
Count of elements : 521
Stream size : 18.5 KiB (0%)
Language : Dutch
Default : No
Forced : No

Subtitle #17
ID : 19
Format : UTF-8
Codec ID : S_TEXT/UTF8
Codec ID/Info : UTF-8 Plain Text
Duration : 49 min 53 s
Bit rate : 54 b/s
Count of elements : 553
Stream size : 19.8 KiB (0%)
Language : Portuguese
Default : No
Forced : No

Subtitle #18
ID : 20
Format : UTF-8
Codec ID : S_TEXT/UTF8
Codec ID/Info : UTF-8 Plain Text
Duration : 49 min 53 s
Bit rate : 52 b/s
Count of elements : 554
Stream size : 19.1 KiB (0%)
Language : Portuguese
Default : No
Forced : No

Subtitle #19
ID : 21
Format : UTF-8
Codec ID : S_TEXT/UTF8
Codec ID/Info : UTF-8 Plain Text
Duration : 49 min 53 s
Bit rate : 48 b/s
Count of elements : 549
Stream size : 17.8 KiB (0%)
Language : Swedish
Default : No
Forced : No

Subtitle #20
ID : 22
Format : UTF-8
Codec ID : S_TEXT/UTF8
Codec ID/Info : UTF-8 Plain Text
Duration : 49 min 53 s
Bit rate : 56 b/s
Count of elements : 554
Stream size : 20.6 KiB (0%)
Language : Chinese
Default : No
Forced : No

Subtitle #21
ID : 23
Format : UTF-8
Codec ID : S_TEXT/UTF8
Codec ID/Info : UTF-8 Plain Text
Duration : 49 min 53 s
Bit rate : 51 b/s
Count of elements : 554
Stream size : 18.7 KiB (0%)
Language : Chinese
Default : No
Forced : No

Menu
00:03:35.277 : en:Credit start
00:03:54.463 : en:Credit end

Screens

Download

Download: Google Drive

5 thoughts on “Better Call Saul (2015) Season 1-5 (1080p Mixed x265 HEVC 10bit AAC 5.1)

Leave a Reply