Bates Motel (2013) Season 1-5 (1080p BluRay x265 HEVC 10bit AAC 5.1 RCVR)

Season 01

Plot: From Executive Producers Carlton Cuse (Lost) and Kerry Ehrin (Friday Night Lights and Parenthood), Bates Motel delves into the sadistic and twisted relationship between serial killer-to-be, Norman Bates, and his mother Norma. A prelude to the classic horror film Psycho, the series takes a contemporary glimpse into Norman’s formative years and reveals how he became one of the most infamous murderers of all time.

Files

Bates Motel (2013) Season 1 S01 + Extras (1080p BluRay x265 HEVC 10bit AAC 5.1 RCVR)

  • Bates Motel (2013) – S01E01 – First You Dream, Then You Die (1080p BluRay x265 RCVR).mkv (998.0 MB)
  • Bates Motel (2013) – S01E02 – Nice Town You Picked, Norma… (1080p BluRay x265 RCVR).mkv (1.1 GB)
  • Bates Motel (2013) – S01E03 – What’s Wrong with Norman (1080p BluRay x265 RCVR).mkv (1.1 GB)
  • Bates Motel (2013) – S01E04 – Trust Me (1080p BluRay x265 RCVR).mkv (824.1 MB)
  • Bates Motel (2013) – S01E05 – Ocean View (1080p BluRay x265 RCVR).mkv (1.2 GB)
  • Bates Motel (2013) – S01E06 – The Truth (1080p BluRay x265 RCVR).mkv (1.2 GB)
  • Bates Motel (2013) – S01E07 – The Man in Number 9 (1080p BluRay x265 RCVR).mkv (1.1 GB)
  • Bates Motel (2013) – S01E08 – A Boy and His Dog (1080p BluRay x265 RCVR).mkv (1.1 GB)
  • Bates Motel (2013) – S01E09 – Underwater (1080p BluRay x265 RCVR).mkv (993.6 MB)
  • Bates Motel (2013) – S01E10 – Midnight (1080p BluRay x265 RCVR).mkv (1.1 GB)

Featurettes

  • Paley Center Panel Discussion.mkv (251.9 MB)

Deleted Scenes

  • A Boy and His Dog.mkv (15.3 MB)
  • First You Dream, Then You Die.mkv (56.2 MB)
  • Midnight.mkv (40.8 MB)
  • Nice Town You Picked, Norma….mkv (29.2 MB)
  • Ocean View.mkv (24.0 MB)
  • The Man In Number 9.mkv (11.3 MB)
  • Trust Me.mkv (2.5 MB)
  • Underwater.mkv (37.1 MB)

Mediainfo

General 
Format : Matroska 
Format version : Version 4 / Version 2 
File size : 998 MiB 
Duration : 48 min 3 s 
Overall bit rate : 2 903 kb/s 
Movie name : Bates Motel: Season One (Disc 1) 
Encoded date : UTC 2018-02-09 18:45:41 
Writing application : mkvmerge v20.0.0 ('I Am The Sun') 64-bit 
Writing library : libebml v1.3.5 + libmatroska v1.4.8 
Cover : Yes 
Attachments : cover.jpg 
Writing frontend : StaxRip v1.7.0.5 

Video 
ID : 1 
Format : HEVC 
Format/Info : High Efficiency Video Coding 
Format profile : Main [email protected]@Main 
Codec ID : V_MPEGH/ISO/HEVC 
Duration : 48 min 3 s 
Bit rate : 2 418 kb/s 
Width : 1 920 pixels 
Height : 1 080 pixels 
Display aspect ratio : 16:9 
Frame rate mode : Constant 
Frame rate : 23.976 (24000/1001) FPS 
Color space : YUV 
Chroma subsampling : 4:2:0 
Bit depth : 10 bits 
Bits/(Pixel*Frame) : 0.049 
Stream size : 831 MiB (83%) 
Writing library : x265 2.6+37-1949157705ce:[Windows][GCC 7.3.0][64 bit] 10bit 
Encoding settings : cpuid=1173503 / frame-threads=3 / numa-pools=12 / wpp / no-pmode / no-pme / no-psnr / no-ssim / log-level=2 / input-csp=1 / input-res=1920x1080 / interlace=0 / total-frames=69144 / level-idc=0 / high-tier=1 / uhd-bd=0 / ref=5 / no-allow-non-conformance / no-repeat-headers / annexb / no-aud / no-hrd / info / hash=0 / no-temporal-layers / open-gop / min-keyint=23 / keyint=250 / gop-lookahead=0 / bframes=8 / b-adapt=2 / b-pyramid / bframe-bias=0 / rc-lookahead=80 / lookahead-slices=4 / scenecut=40 / radl=0 / no-intra-refresh / ctu=64 / min-cu-size=8 / rect / amp / max-tu-size=32 / tu-inter-depth=1 / tu-intra-depth=1 / limit-tu=0 / rdoq-level=2 / dynamic-rd=0.00 / no-ssim-rd / signhide / no-tskip / nr-intra=0 / nr-inter=0 / no-constrained-intra / no-strong-intra-smoothing / max-merge=4 / limit-refs=3 / limit-modes / me=3 / subme=5 / merange=57 / temporal-mvp / weightp / weightb / no-analyze-src-pics / deblock=-3:-3 / no-sao / no-sao-non-deblock / rd=5 / no-early-skip / no-rskip / no-fast-intra / no-tskip-fast / no-cu-lossless / no-b-intra / no-splitrd-skip / rdpenalty=0 / psy-rd=1.50 / psy-rdoq=2.50 / no-rd-refine / no-lossless / cbqpoffs=0 / crqpoffs=0 / rc=crf / crf=20.0 / qcomp=0.60 / qpstep=4 / stats-write=0 / stats-read=0 / ipratio=1.40 / pbratio=1.30 / aq-mode=3 / aq-strength=0.60 / cutree / zone-count=0 / no-strict-cbr / qg-size=32 / no-rc-grain / qpmax=69 / qpmin=0 / no-const-vbv / sar=0 / overscan=0 / videoformat=5 / range=0 / colorprim=2 / transfer=2 / colormatrix=2 / chromaloc=0 / display-window=0 / max-cll=0,0 / min-luma=0 / max-luma=1023 / log2-max-poc-lsb=8 / vui-timing-info / vui-hrd-info / slices=1 / no-opt-qp-pps / no-opt-ref-list-length-pps / no-multi-pass-opt-rps / scenecut-bias=0.05 / no-opt-cu-delta-qp / no-aq-motion / no-hdr / no-hdr-opt / no-dhdr10-opt / analysis-reuse-level=5 / scale-factor=0 / refine-intra=0 / refine-inter=0 / refine-mv=0 / no-limit-sao / ctu-info=0 / no-lowpass-dct / refine-mv-type=0 / copy-pic=1 
Default : Yes 
Forced : No 

Audio 
ID : 2 
Format : AAC 
Format/Info : Advanced Audio Codec 
Format profile : LC 
Codec ID : A_AAC 
Duration : 48 min 3 s 
Bit rate : 471 kb/s 
Channel(s) : 6 channels 
Channel positions : Front: L C R, Side: L R, LFE 
Sampling rate : 48.0 kHz 
Frame rate : 46.875 FPS (1024 spf) 
Compression mode : Lossy 
Delay relative to video : 20 ms 
Stream size : 162 MiB (16%) 
Language : English 
Default : No 
Forced : No 

Subtitle 
ID : 3 
Format : PGS 
Muxing mode : zlib 
Codec ID : S_HDMV/PGS 
Codec ID/Info : Picture based subtitle format used on BDs/HD-DVDs 
Duration : 46 min 58 s 
Bit rate : 36.6 kb/s 
Count of elements : 1256 
Stream size : 12.3 MiB (1%) 
Language : English 
Default : No 
Forced : No 

Menu 
00:00:00.000 : en:Chapter 01 
00:06:54.580 : en:Chapter 02 
00:16:06.924 : en:Chapter 03 
00:33:55.366 : en:Chapter 04

Screencaps

Download

Season: Google Drive

Extras: Google Drive

Season 02

Plot: Season 2 of “Bates Motel” digs deeper into the twisted world of the Bates family. Picking up from last season, Norman (Freddie Highmore) is fixating on Miss Watson’s death while Norma’s mysterious past starts to haunt the family with the introduction of her brother.

Files

Bates Motel (2013) Season 2 S02 + Extras REPACK (1080p BluRay x265 HEVC 10bit AAC 5.1 RCVR)

  • Bates Motel (2013) – S02E01 – Gone But Not Forgotten (1080p BluRay x265 RCVR).mkv (1.6 GB)
  • Bates Motel (2013) – S02E02 – Shadow of a Doubt (1080p BluRay x265 RCVR).mkv (1.4 GB)
  • Bates Motel (2013) – S02E03 – Caleb (1080p BluRay x265 RCVR).mkv (1.3 GB)
  • Bates Motel (2013) – S02E04 – Check-Out (1080p BluRay x265 RCVR).mkv (1.4 GB)
  • Bates Motel (2013) – S02E05 – The Escape Artist (1080p BluRay x265 RCVR).mkv (1.6 GB)
  • Bates Motel (2013) – S02E06 – Plunge (1080p BluRay x265 RCVR).mkv (1.7 GB)
  • Bates Motel (2013) – S02E07 – Presumed Innocent (1080p BluRay x265 RCVR).mkv (1.3 GB)
  • Bates Motel (2013) – S02E08 – Meltdown (1080p BluRay x265 RCVR).mkv (1.3 GB)
  • Bates Motel (2013) – S02E09 – The Box (1080p BluRay x265 RCVR).mkv (1.4 GB)
  • Bates Motel (2013) – S02E10 – The Immutable Truth (1080p BluRay x265 RCVR).mkv (1.4 GB)

Featurettes

  • Bates Motel After Hours – Season 2 Finale.mkv (841.3 MB)
  • Bates Motel After Hours – Season 2 Premiere.mkv (619.9 MB)
  • Origins of a Psycho Inside Bates Motel.mkv (322.8 MB)

Deleted Scenes

  • Check-Out.mkv (14.9 MB)
  • Gone But Not Forgotten.mkv (19.7 MB)
  • Plunge.mkv (3.8 MB)
  • Presumed Innocent.mkv (11.4 MB)
  • Shadow of a Doubt.mkv (16.2 MB)
  • The Box.mkv (52.1 MB)
  • The Immutable Truth.mkv (34.1 MB)

Mediainfo

General 
Format : Matroska 
Format version : Version 4 / Version 2 
File size : 1.58 GiB 
Duration : 42 min 59 s 
Overall bit rate : 5 271 kb/s 
Movie name : Bates Motel: Season Two (Disc 1) 
Encoded date : UTC 2018-02-22 22:58:30 
Writing application : mkvmerge v20.0.0 ('I Am The Sun') 64-bit 
Writing library : libebml v1.3.5 + libmatroska v1.4.8 
Cover : Yes 
Attachments : cover.jpg 
Writing frontend : StaxRip v1.7.0.6 

Video 
ID : 1 
Format : HEVC 
Format/Info : High Efficiency Video Coding 
Format profile : Main [email protected]@Main 
Codec ID : V_MPEGH/ISO/HEVC 
Duration : 42 min 59 s 
Bit rate : 4 540 kb/s 
Width : 1 920 pixels 
Height : 1 080 pixels 
Display aspect ratio : 16:9 
Frame rate mode : Constant 
Frame rate : 23.976 (24000/1001) FPS 
Color space : YUV 
Chroma subsampling : 4:2:0 
Bit depth : 10 bits 
Bits/(Pixel*Frame) : 0.091 
Stream size : 1.36 GiB (86%) 
Writing library : x265 2.6+42-52782aeb2081:[Windows][GCC 8.0.1][64 bit] 10bit 
Encoding settings : cpuid=1173503 / frame-threads=3 / numa-pools=12 / wpp / no-pmode / no-pme / no-psnr / no-ssim / log-level=2 / input-csp=1 / input-res=1920x1080 / interlace=0 / total-frames=61848 / level-idc=0 / high-tier=1 / uhd-bd=0 / ref=5 / no-allow-non-conformance / no-repeat-headers / annexb / no-aud / no-hrd / info / hash=0 / no-temporal-layers / open-gop / min-keyint=23 / keyint=250 / gop-lookahead=0 / bframes=8 / b-adapt=2 / b-pyramid / bframe-bias=0 / rc-lookahead=80 / lookahead-slices=4 / scenecut=40 / radl=0 / no-intra-refresh / ctu=64 / min-cu-size=8 / rect / amp / max-tu-size=32 / tu-inter-depth=1 / tu-intra-depth=1 / limit-tu=0 / rdoq-level=2 / dynamic-rd=0.00 / no-ssim-rd / signhide / no-tskip / nr-intra=0 / nr-inter=0 / no-constrained-intra / no-strong-intra-smoothing / max-merge=4 / limit-refs=3 / limit-modes / me=3 / subme=5 / merange=57 / temporal-mvp / weightp / weightb / no-analyze-src-pics / deblock=-3:-3 / no-sao / no-sao-non-deblock / rd=5 / no-early-skip / no-rskip / no-fast-intra / no-tskip-fast / no-cu-lossless / no-b-intra / no-splitrd-skip / rdpenalty=0 / psy-rd=1.50 / psy-rdoq=2.50 / no-rd-refine / no-lossless / cbqpoffs=0 / crqpoffs=0 / rc=crf / crf=20.0 / qcomp=0.60 / qpstep=4 / stats-write=0 / stats-read=0 / ipratio=1.40 / pbratio=1.30 / aq-mode=3 / aq-strength=0.60 / cutree / zone-count=0 / no-strict-cbr / qg-size=32 / no-rc-grain / qpmax=69 / qpmin=0 / no-const-vbv / sar=0 / overscan=0 / videoformat=5 / range=0 / colorprim=2 / transfer=2 / colormatrix=2 / chromaloc=0 / display-window=0 / max-cll=0,0 / min-luma=0 / max-luma=1023 / log2-max-poc-lsb=8 / vui-timing-info / vui-hrd-info / slices=1 / no-opt-qp-pps / no-opt-ref-list-length-pps / no-multi-pass-opt-rps / scenecut-bias=0.05 / no-opt-cu-delta-qp / no-aq-motion / no-hdr / no-hdr-opt / no-dhdr10-opt / analysis-reuse-level=5 / scale-factor=0 / refine-intra=0 / refine-inter=0 / refine-mv=0 / no-limit-sao / ctu-info=0 / no-lowpass-dct / refine-mv-type=0 / copy-pic=1 
Default : Yes 
Forced : No 

Audio #1 
ID : 2 
Format : AAC 
Format/Info : Advanced Audio Codec 
Format profile : LC 
Codec ID : A_AAC 
Duration : 42 min 59 s 
Bit rate : 460 kb/s 
Channel(s) : 6 channels 
Channel positions : Front: L C R, Side: L R, LFE 
Sampling rate : 48.0 kHz 
Frame rate : 46.875 FPS (1024 spf) 
Compression mode : Lossy 
Delay relative to video : 20 ms 
Stream size : 141 MiB (9%) 
Language : English 
Default : No 
Forced : No 

Audio #2 
ID : 3 
Format : AAC 
Format/Info : Advanced Audio Codec 
Format profile : HE-AAC / LC 
Codec ID : A_AAC 
Duration : 42 min 59 s 
Bit rate : 192 kb/s 
Channel(s) : 6 channels 
Channel positions : Front: L C R, Side: L R, LFE 
Sampling rate : 48.0 kHz / 24.0 kHz 
Frame rate : 23.438 FPS (1024 spf) 
Compression mode : Lossy 
Delay relative to video : 40 ms 
Stream size : 59.0 MiB (4%) 
Language : French 
Default : No 
Forced : No 

Subtitle #1 
ID : 4 
Format : PGS 
Muxing mode : zlib 
Codec ID : S_HDMV/PGS 
Codec ID/Info : Picture based subtitle format used on BDs/HD-DVDs 
Duration : 42 min 20 s 
Bit rate : 46.8 kb/s 
Count of elements : 1368 
Stream size : 14.2 MiB (1%) 
Language : English 
Default : No 
Forced : No 

Subtitle #2 
ID : 5 
Format : PGS 
Muxing mode : zlib 
Codec ID : S_HDMV/PGS 
Codec ID/Info : Picture based subtitle format used on BDs/HD-DVDs 
Duration : 42 min 58 s 
Bit rate : 37.3 kb/s 
Count of elements : 1150 
Stream size : 11.5 MiB (1%) 
Language : French 
Default : No 
Forced : No 

Subtitle #3 
ID : 6 
Format : PGS 
Muxing mode : zlib 
Codec ID : S_HDMV/PGS 
Codec ID/Info : Picture based subtitle format used on BDs/HD-DVDs 
Duration : 42 min 58 s 
Bit rate : 33.5 kb/s 
Count of elements : 660 
Stream size : 10.3 MiB (1%) 
Language : Dutch 
Default : No 
Forced : No 

Subtitle #4 
ID : 7 
Format : PGS 
Muxing mode : zlib 
Codec ID : S_HDMV/PGS 
Codec ID/Info : Picture based subtitle format used on BDs/HD-DVDs 
Duration : 42 min 58 s 
Bit rate : 36.8 kb/s 
Count of elements : 1150 
Stream size : 11.3 MiB (1%) 
Language : Danish 
Default : No 
Forced : No 

Subtitle #5 
ID : 8 
Format : PGS 
Muxing mode : zlib 
Codec ID : S_HDMV/PGS 
Codec ID/Info : Picture based subtitle format used on BDs/HD-DVDs 
Duration : 42 min 58 s 
Bit rate : 37.5 kb/s 
Count of elements : 1148 
Stream size : 11.5 MiB (1%) 
Language : Finnish 
Default : No 
Forced : No 

Subtitle #6 
ID : 9 
Format : PGS 
Muxing mode : zlib 
Codec ID : S_HDMV/PGS 
Codec ID/Info : Picture based subtitle format used on BDs/HD-DVDs 
Duration : 42 min 58 s 
Bit rate : 36.5 kb/s 
Count of elements : 1150 
Stream size : 11.2 MiB (1%) 
Language : Norwegian Bokmal 
Default : No 
Forced : No 

Subtitle #7 
ID : 10 
Format : PGS 
Muxing mode : zlib 
Codec ID : S_HDMV/PGS 
Codec ID/Info : Picture based subtitle format used on BDs/HD-DVDs 
Duration : 42 min 58 s 
Bit rate : 37.4 kb/s 
Count of elements : 1148 
Stream size : 11.5 MiB (1%) 
Language : Swedish 
Default : No 
Forced : No 

Menu 
00:00:00.000 : en:Chapter 01 
00:00:46.463 : en:Chapter 02 
00:06:25.802 : en:Chapter 03 
00:15:47.696 : en:Chapter 04 
00:31:14.205 : en:Chapter 05 
00:42:28.337 : en:Chapter 06

Screencaps

Download

Season: Google Drive

Extras: Google Drive

Season 03

Plot: Bates Motel S3 focuses on the evolution of the Bates family. Norma finds strength to really look at the truth about her son for the first time. And Norman is determined to gain some kind of control over his own mind.

Files

Bates Motel (2013) Season 3 S03 + Extras REPACK (1080p BluRay x265 HEVC 10bit AAC 5.1 RCVR)

  • Bates Motel (2013) – S03E01 – A Death in the Family (1080p BluRay x265 RCVR).mkv (1.2 GB)
  • Bates Motel (2013) – S03E02 – The Arcanum Club (1080p BluRay x265 RCVR).mkv (1.2 GB)
  • Bates Motel (2013) – S03E03 – Persuasion (1080p BluRay x265 RCVR).mkv (1.4 GB)
  • Bates Motel (2013) – S03E04 – Unbreak-Able (1080p BluRay x265 RCVR).mkv (1.2 GB)
  • Bates Motel (2013) – S03E05 – The Deal (1080p BluRay x265 RCVR).mkv (1.2 GB)
  • Bates Motel (2013) – S03E06 – Norma Louise (1080p BluRay x265 RCVR).mkv (1.1 GB)
  • Bates Motel (2013) – S03E07 – The Last Supper (1080p BluRay x265 RCVR).mkv (1.3 GB)
  • Bates Motel (2013) – S03E08 – The Pit (1080p BluRay x265 RCVR).mkv (1.2 GB)
  • Bates Motel (2013) – S03E09 – Crazy (1080p BluRay x265 RCVR).mkv (952.3 MB)
  • Bates Motel (2013) – S03E10 – Unconscious (1080p BluRay x265 RCVR).mkv (1.1 GB)

Featurettes

  • A Broken Psyche – Creating Norma-n.mkv (113.1 MB)

Deleted Scenes

  • A Death In the Family.mkv (30.8 MB)
  • Crazy.mkv (53.1 MB)
  • Norma Louise.mkv (40.9 MB)
  • The Arcanum Club.mkv (20.6 MB)
  • The Deal.mkv (91.3 MB)
  • The Last Supper.mkv (18.4 MB)
  • The Pit.mkv (20.6 MB)
  • Unbreak-Able.mkv (29.6 MB)
  • Unconscious.mkv (21.3 MB)

Mediainfo

General 
Format : Matroska 
Format version : Version 4 / Version 2 
File size : 1.20 GiB 
Duration : 42 min 58 s 
Overall bit rate : 3 982 kb/s 
Movie name : Bates Motel: Season Three (Disc 1) 
Encoded date : UTC 2018-05-21 16:49:03 
Writing application : mkvmerge v23.0.0 ('The Bride Said No') 64-bit 
Writing library : libebml v1.3.6 + libmatroska v1.4.9 
Cover : Yes 
Attachments : cover.jpg 
Writing frontend : StaxRip v1.7.0.6 

Video 
ID : 1 
Format : HEVC 
Format/Info : High Efficiency Video Coding 
Format profile : Main [email protected]@Main 
Codec ID : V_MPEGH/ISO/HEVC 
Duration : 42 min 58 s 
Bit rate : 2 875 kb/s 
Width : 1 920 pixels 
Height : 1 080 pixels 
Display aspect ratio : 16:9 
Frame rate mode : Constant 
Frame rate : 23.976 (24000/1001) FPS 
Color space : YUV 
Chroma subsampling : 4:2:0 
Bit depth : 10 bits 
Bits/(Pixel*Frame) : 0.058 
Stream size : 884 MiB (72%) 
Writing library : x265 2.7+348-0968a46d6ba4:[Windows][GCC 8.1.0][64 bit] 10bit 
Encoding settings : cpuid=1111039 / frame-threads=3 / numa-pools=12 / wpp / no-pmode / no-pme / no-psnr / no-ssim / log-level=2 / input-csp=1 / input-res=1920x1080 / interlace=0 / total-frames=61820 / level-idc=0 / high-tier=1 / uhd-bd=0 / ref=5 / no-allow-non-conformance / no-repeat-headers / annexb / no-aud / no-hrd / info / hash=0 / no-temporal-layers / open-gop / min-keyint=23 / keyint=250 / gop-lookahead=0 / bframes=8 / b-adapt=2 / b-pyramid / bframe-bias=0 / rc-lookahead=80 / lookahead-slices=4 / scenecut=40 / radl=0 / no-intra-refresh / ctu=64 / min-cu-size=8 / rect / amp / max-tu-size=32 / tu-inter-depth=1 / tu-intra-depth=1 / limit-tu=0 / rdoq-level=2 / dynamic-rd=0.00 / no-ssim-rd / signhide / no-tskip / nr-intra=0 / nr-inter=0 / no-constrained-intra / no-strong-intra-smoothing / max-merge=4 / limit-refs=3 / limit-modes / me=3 / subme=5 / merange=57 / temporal-mvp / weightp / weightb / no-analyze-src-pics / deblock=-3:-3 / no-sao / no-sao-non-deblock / rd=5 / no-early-skip / no-rskip / no-fast-intra / no-tskip-fast / no-cu-lossless / no-b-intra / no-splitrd-skip / rdpenalty=0 / psy-rd=1.50 / psy-rdoq=2.50 / no-rd-refine / no-lossless / cbqpoffs=0 / crqpoffs=0 / rc=crf / crf=20.0 / qcomp=0.60 / qpstep=4 / stats-write=0 / stats-read=0 / ipratio=1.40 / pbratio=1.30 / aq-mode=3 / aq-strength=0.60 / cutree / zone-count=0 / no-strict-cbr / qg-size=32 / no-rc-grain / qpmax=69 / qpmin=0 / no-const-vbv / sar=0 / overscan=0 / videoformat=5 / range=0 / colorprim=2 / transfer=2 / colormatrix=2 / chromaloc=0 / display-window=0 / max-cll=0,0 / min-luma=0 / max-luma=1023 / log2-max-poc-lsb=8 / vui-timing-info / vui-hrd-info / slices=1 / no-opt-qp-pps / no-opt-ref-list-length-pps / no-multi-pass-opt-rps / scenecut-bias=0.05 / no-opt-cu-delta-qp / no-aq-motion / no-hdr / no-hdr-opt / no-dhdr10-opt / no-idr-recovery-sei / analysis-reuse-level=5 / scale-factor=0 / refine-intra=0 / refine-inter=0 / refine-mv=0 / no-limit-sao / ctu-info=0 / no-lowpass-dct / refine-mv-type=0 / copy-pic=1 / max-ausize-factor=1.0 / no-dynamic-refine / no-single-sei 
Default : Yes 
Forced : No 

Audio #1 
ID : 2 
Format : AAC 
Format/Info : Advanced Audio Codec 
Format profile : LC 
Codec ID : A_AAC 
Duration : 42 min 58 s 
Bit rate : 447 kb/s 
Channel(s) : 6 channels 
Channel positions : Front: L C R, Side: L R, LFE 
Sampling rate : 48.0 kHz 
Frame rate : 46.875 FPS (1024 spf) 
Compression mode : Lossy 
Delay relative to video : 20 ms 
Stream size : 137 MiB (11%) 
Language : English 
Default : No 
Forced : No 

Audio #2 
ID : 3 
Format : AAC 
Format/Info : Advanced Audio Codec 
Format profile : HE-AAC / LC 
Codec ID : A_AAC 
Duration : 42 min 58 s 
Bit rate : 192 kb/s 
Channel(s) : 6 channels 
Channel positions : Front: L C R, Side: L R, LFE 
Sampling rate : 48.0 kHz / 24.0 kHz 
Frame rate : 23.438 FPS (1024 spf) 
Compression mode : Lossy 
Delay relative to video : 40 ms 
Stream size : 59.0 MiB (5%) 
Language : French 
Default : No 
Forced : No 

Audio #3 
ID : 4 
Format : AAC 
Format/Info : Advanced Audio Codec 
Format profile : HE-AAC / LC 
Codec ID : A_AAC 
Duration : 42 min 58 s 
Bit rate : 192 kb/s 
Channel(s) : 6 channels 
Channel positions : Front: L C R, Side: L R, LFE 
Sampling rate : 48.0 kHz / 24.0 kHz 
Frame rate : 23.438 FPS (1024 spf) 
Compression mode : Lossy 
Delay relative to video : 40 ms 
Stream size : 59.0 MiB (5%) 
Language : Portuguese 
Default : No 
Forced : No 

Audio #4 
ID : 5 
Format : AAC 
Format/Info : Advanced Audio Codec 
Format profile : HE-AAC / LC 
Codec ID : A_AAC 
Duration : 42 min 58 s 
Bit rate : 192 kb/s 
Channel(s) : 6 channels 
Channel positions : Front: L C R, Side: L R, LFE 
Sampling rate : 48.0 kHz / 24.0 kHz 
Frame rate : 23.438 FPS (1024 spf) 
Compression mode : Lossy 
Delay relative to video : 40 ms 
Stream size : 59.0 MiB (5%) 
Language : Spanish 
Default : No 
Forced : No 

Subtitle #1 
ID : 6 
Format : PGS 
Muxing mode : zlib 
Codec ID : S_HDMV/PGS 
Codec ID/Info : Picture based subtitle format used on BDs/HD-DVDs 
Duration : 41 min 52 s 
Bit rate : 36.2 kb/s 
Count of elements : 1143 
Stream size : 10.8 MiB (1%) 
Language : English 
Default : No 
Forced : No 

Subtitle #2 
ID : 7 
Format : PGS 
Muxing mode : zlib 
Codec ID : S_HDMV/PGS 
Codec ID/Info : Picture based subtitle format used on BDs/HD-DVDs 
Duration : 42 min 27 s 
Bit rate : 29.5 kb/s 
Count of elements : 1006 
Stream size : 8.96 MiB (1%) 
Language : Spanish 
Default : No 
Forced : No 

Subtitle #3 
ID : 8 
Format : PGS 
Muxing mode : zlib 
Codec ID : S_HDMV/PGS 
Codec ID/Info : Picture based subtitle format used on BDs/HD-DVDs 
Duration : 42 min 27 s 
Bit rate : 29.6 kb/s 
Count of elements : 1008 
Stream size : 9.00 MiB (1%) 
Language : Portuguese 
Default : No 
Forced : No 

Subtitle #4 
ID : 9 
Format : PGS 
Muxing mode : zlib 
Codec ID : S_HDMV/PGS 
Codec ID/Info : Picture based subtitle format used on BDs/HD-DVDs 
Duration : 42 min 27 s 
Bit rate : 30.5 kb/s 
Count of elements : 1006 
Stream size : 9.28 MiB (1%) 
Language : Danish 
Default : No 
Forced : No 

Subtitle #5 
ID : 10 
Format : PGS 
Muxing mode : zlib 
Codec ID : S_HDMV/PGS 
Codec ID/Info : Picture based subtitle format used on BDs/HD-DVDs 
Duration : 42 min 27 s 
Bit rate : 29.1 kb/s 
Count of elements : 1002 
Stream size : 8.85 MiB (1%) 
Language : Dutch 
Default : No 
Forced : No 

Subtitle #6 
ID : 11 
Format : PGS 
Muxing mode : zlib 
Codec ID : S_HDMV/PGS 
Codec ID/Info : Picture based subtitle format used on BDs/HD-DVDs 
Duration : 42 min 27 s 
Bit rate : 29.1 kb/s 
Count of elements : 1008 
Stream size : 8.83 MiB (1%) 
Language : Finnish 
Default : No 
Forced : No 

Subtitle #7 
ID : 12 
Format : PGS 
Muxing mode : zlib 
Codec ID : S_HDMV/PGS 
Codec ID/Info : Picture based subtitle format used on BDs/HD-DVDs 
Duration : 42 min 27 s 
Bit rate : 28.9 kb/s 
Count of elements : 954 
Stream size : 8.76 MiB (1%) 
Language : French 
Default : No 
Forced : No 

Subtitle #8 
ID : 13 
Format : PGS 
Muxing mode : zlib 
Codec ID : S_HDMV/PGS 
Codec ID/Info : Picture based subtitle format used on BDs/HD-DVDs 
Duration : 42 min 27 s 
Bit rate : 28.3 kb/s 
Count of elements : 1006 
Stream size : 8.58 MiB (1%) 
Language : Norwegian Bokmal 
Default : No 
Forced : No 

Subtitle #9 
ID : 14 
Format : PGS 
Muxing mode : zlib 
Codec ID : S_HDMV/PGS 
Codec ID/Info : Picture based subtitle format used on BDs/HD-DVDs 
Duration : 42 min 27 s 
Bit rate : 26.3 kb/s 
Count of elements : 1008 
Stream size : 7.99 MiB (1%) 
Language : Swedish 
Default : No 
Forced : No 

Menu 
00:00:00.000 : en:Chapter 01 
00:07:15.685 : en:Chapter 02 
00:19:17.364 : en:Chapter 03 
00:36:05.872 : en:Chapter 04

Screencaps

Download

Season: Google Drive

Extras: Google Drive

Season 04

Plot: “Bates Motel,” a contemporary prequel to the genre-defining film Psycho, will return with Norman’s continued downward spiral and the effect it has on the family. This season Norma becomes increasingly fearful and desperate, going to great lengths to find Norman the professional help he needs.

Files

Bates Motel (2013) Season 4 S04 + Extras (1080p BluRay x265 HEVC 10bit AAC 5.1 RCVR)

  • Bates Motel (2013) – S04E01 – A Danger to Himself and Others (1080p BluRay x265 RCVR).mkv (1.4 GB)
  • Bates Motel (2013) – S04E02 – Goodnight, Mother (1080p BluRay x265 RCVR).mkv (1.2 GB)
  • Bates Motel (2013) – S04E03 – ‘Til Death Do You Part (1080p BluRay x265 RCVR).mkv (1.2 GB)
  • Bates Motel (2013) – S04E04 – Lights of Winter (1080p BluRay x265 RCVR).mkv (1.2 GB)
  • Bates Motel (2013) – S04E05 – Refraction (1080p BluRay x265 RCVR).mkv (1.2 GB)
  • Bates Motel (2013) – S04E06 – The Vault (1080p BluRay x265 RCVR).mkv (1.4 GB)
  • Bates Motel (2013) – S04E07 – There’s No Place Like Home (1080p BluRay x265 RCVR).mkv (1.0 GB)
  • Bates Motel (2013) – S04E08 – Unfaithful (1080p BluRay x265 RCVR).mkv (1,007.3 MB)
  • Bates Motel (2013) – S04E09 – Forever (1080p BluRay x265 RCVR).mkv (1,023.7 MB)
  • Bates Motel (2013) – S04E10 – Norman (1080p BluRay x265 RCVR).mkv (1.0 GB)

Featurettes

  • Menu Art.mkv (3.3 MB)

Deleted Scenes

  • A Danger to Himself and Others.mkv (35.6 MB)
  • Forever.mkv (27.3 MB)
  • Goodnight Mother.mkv (44.4 MB)
  • Lights of Winter.mkv (102.6 MB)
  • Norman.mkv (137.0 MB)
  • Refraction.mkv (43.6 MB)
  • The Vault.mkv (73.6 MB)
  • Til Death Do You Part.mkv (21.3 MB)

Mediainfo

General 
Format : Matroska 
Format version : Version 4 / Version 2 
File size : 1.42 GiB 
Duration : 42 min 37 s 
Overall bit rate : 4 774 kb/s 
Encoded date : UTC 2018-06-30 17:01:35 
Writing application : mkvmerge v12.0.0 ('Trust / Lust') 64bit 
Writing library : libebml v1.3.4 + libmatroska v1.4.5 

Video 
ID : 1 
Format : HEVC 
Format/Info : High Efficiency Video Coding 
Format profile : Main [email protected]@Main 
Codec ID : V_MPEGH/ISO/HEVC 
Duration : 42 min 37 s 
Width : 1 920 pixels 
Height : 1 080 pixels 
Display aspect ratio : 16:9 
Frame rate mode : Constant 
Frame rate : 23.976 (24000/1001) FPS 
Color space : YUV 
Chroma subsampling : 4:2:0 
Bit depth : 10 bits 
Writing library : x265 2.8+24-289b8a3730ae:[Windows][MSVC 1914][64 bit] 10bit 
Encoding settings : cpuid=1111039 / frame-threads=3 / numa-pools=8 / wpp / no-pmode / no-pme / no-psnr / no-ssim / log-level=2 / input-csp=1 / input-res=1920x1080 / interlace=0 / total-frames=61316 / level-idc=0 / high-tier=1 / uhd-bd=0 / ref=5 / no-allow-non-conformance / no-repeat-headers / annexb / no-aud / no-hrd / info / hash=0 / no-temporal-layers / open-gop / min-keyint=23 / keyint=250 / gop-lookahead=0 / bframes=8 / b-adapt=2 / b-pyramid / bframe-bias=0 / rc-lookahead=80 / lookahead-slices=4 / scenecut=40 / radl=0 / no-intra-refresh / ctu=64 / min-cu-size=8 / rect / amp / max-tu-size=32 / tu-inter-depth=1 / tu-intra-depth=1 / limit-tu=0 / rdoq-level=2 / dynamic-rd=0.00 / no-ssim-rd / signhide / no-tskip / nr-intra=0 / nr-inter=0 / no-constrained-intra / no-strong-intra-smoothing / max-merge=4 / limit-refs=3 / limit-modes / me=3 / subme=5 / merange=57 / temporal-mvp / weightp / weightb / no-analyze-src-pics / deblock=-3:-3 / no-sao / no-sao-non-deblock / rd=5 / no-early-skip / no-rskip / no-fast-intra / no-tskip-fast / no-cu-lossless / no-b-intra / no-splitrd-skip / rdpenalty=0 / psy-rd=1.60 / psy-rdoq=2.50 / no-rd-refine / no-lossless / cbqpoffs=0 / crqpoffs=0 / rc=crf / crf=20.0 / qcomp=0.60 / qpstep=4 / stats-write=0 / stats-read=0 / ipratio=1.40 / pbratio=1.30 / aq-mode=3 / aq-strength=0.80 / cutree / zone-count=0 / no-strict-cbr / qg-size=32 / no-rc-grain / qpmax=69 / qpmin=0 / no-const-vbv / sar=0 / overscan=0 / videoformat=5 / range=0 / colorprim=2 / transfer=2 / colormatrix=2 / chromaloc=0 / display-window=0 / max-cll=0,0 / min-luma=0 / max-luma=1023 / log2-max-poc-lsb=8 / vui-timing-info / vui-hrd-info / slices=1 / no-opt-qp-pps / no-opt-ref-list-length-pps / no-multi-pass-opt-rps / scenecut-bias=0.05 / no-opt-cu-delta-qp / no-aq-motion / no-hdr / no-hdr-opt / no-dhdr10-opt / no-idr-recovery-sei / analysis-reuse-level=5 / scale-factor=0 / refine-intra=0 / refine-inter=0 / refine-mv=0 / no-limit-sao / ctu-info=0 / no-lowpass-dct / refine-mv-type=0 / copy-pic=1 / max-ausize-factor=1.0 / no-dynamic-refine / no-single-sei 
Default : Yes 
Forced : No 

Audio #1 
ID : 2 
Format : AAC 
Format/Info : Advanced Audio Codec 
Format profile : LC 
Codec ID : A_AAC 
Duration : 42 min 37 s 
Channel(s) : 6 channels 
Channel positions : Front: L C R, Side: L R, LFE 
Sampling rate : 48.0 kHz 
Frame rate : 46.875 FPS (1024 spf) 
Compression mode : Lossy 
Delay relative to video : 20 ms 
Language : English 
Default : Yes 
Forced : No 

Audio #2 
ID : 3 
Format : AAC 
Format/Info : Advanced Audio Codec 
Format profile : HE-AAC / LC 
Codec ID : A_AAC 
Duration : 42 min 37 s 
Channel(s) : 6 channels 
Channel positions : Front: L C R, Side: L R, LFE 
Sampling rate : 48.0 kHz / 24.0 kHz 
Frame rate : 23.438 FPS (1024 spf) 
Compression mode : Lossy 
Delay relative to video : 40 ms 
Language : French 
Default : No 
Forced : No 

Subtitle #1 
ID : 4 
Format : PGS 
Muxing mode : zlib 
Codec ID : S_HDMV/PGS 
Codec ID/Info : Picture based subtitle format used on BDs/HD-DVDs 
Language : English 
Default : No 
Forced : No 

Subtitle #2 
ID : 5 
Format : PGS 
Muxing mode : zlib 
Codec ID : S_HDMV/PGS 
Codec ID/Info : Picture based subtitle format used on BDs/HD-DVDs 
Language : French 
Default : No 
Forced : No 

Subtitle #3 
ID : 6 
Format : PGS 
Muxing mode : zlib 
Codec ID : S_HDMV/PGS 
Codec ID/Info : Picture based subtitle format used on BDs/HD-DVDs 
Language : Dutch 
Default : No 
Forced : No 

Subtitle #4 
ID : 7 
Format : PGS 
Muxing mode : zlib 
Codec ID : S_HDMV/PGS 
Codec ID/Info : Picture based subtitle format used on BDs/HD-DVDs 
Language : Danish 
Default : No 
Forced : No 

Subtitle #5 
ID : 8 
Format : PGS 
Muxing mode : zlib 
Codec ID : S_HDMV/PGS 
Codec ID/Info : Picture based subtitle format used on BDs/HD-DVDs 
Language : Finnish 
Default : No 
Forced : No 

Subtitle #6 
ID : 9 
Format : PGS 
Muxing mode : zlib 
Codec ID : S_HDMV/PGS 
Codec ID/Info : Picture based subtitle format used on BDs/HD-DVDs 
Language : Norwegian Bokmal 
Default : No 
Forced : No 

Subtitle #7 
ID : 10 
Format : PGS 
Muxing mode : zlib 
Codec ID : S_HDMV/PGS 
Codec ID/Info : Picture based subtitle format used on BDs/HD-DVDs 
Language : Swedish 
Default : No 
Forced : No 

Subtitle #8 
ID : 11 
Format : PGS 
Muxing mode : zlib 
Codec ID : S_HDMV/PGS 
Codec ID/Info : Picture based subtitle format used on BDs/HD-DVDs 
Language : French 
Default : No 
Forced : No 

Menu 
00:00:00.000 : en:Chapter 01 
00:04:49.622 : en:Chapter 02 
00:15:10.326 : en:Chapter 03 
00:28:52.522 : en:Chapter 04

Screencaps

Download

Season: Google Drive

Extras: Google Drive

Season 05

Plot: Emmy-nominated actress Vera Farmiga returns for double duty as executive producer while also reprising her role as ‘Mother’ who is very much alive and well but only in the twisted, complicated mind of ‘Norman Bates’ played by Freddie Highmore. Grammy Award winner and series super fan Rihanna checks in to play the role of ‘Marion Crane,’ putting a newly reimagined spin on the iconic character.

Files

Bates Motel (2013) Season 5 S05 + Extras (1080p BluRay x265 HEVC 10bit AAC 5.1 RCVR)

  • Bates Motel (2013) – S05E01 – Dark Paradise (1080p BluRay x265 RCVR).mkv (971.5 MB)
  • Bates Motel (2013) – S05E02 – The Convergence of the Twain (1080p BluRay x265 RCVR).mkv (953.4 MB)
  • Bates Motel (2013) – S05E03 – Bad Blood (1080p BluRay x265 RCVR).mkv (959.4 MB)
  • Bates Motel (2013) – S05E04 – Hidden (1080p BluRay x265 RCVR).mkv (1.1 GB)
  • Bates Motel (2013) – S05E05 – Dreams Die First (1080p BluRay x265 RCVR).mkv (1.0 GB)
  • Bates Motel (2013) – S05E06 – Marion (1080p BluRay x265 RCVR).mkv (867.8 MB)
  • Bates Motel (2013) – S05E07 – Inseparable (1080p BluRay x265 RCVR).mkv (925.7 MB)
  • Bates Motel (2013) – S05E08 – The Body (1080p BluRay x265 RCVR).mkv (879.7 MB)
  • Bates Motel (2013) – S05E09 – Visiting Hours (1080p BluRay x265 RCVR).mkv (916.2 MB)
  • Bates Motel (2013) – S05E10 – The Cord (1080p BluRay x265 RCVR).mkv (1.0 GB)

Featurettes

  • Closed for Business.mkv (158.5 MB)
  • Gag Reel.mkv (52.1 MB)
  • Menu Art.mkv (3.4 MB)
  • The Checkout.mkv (422.8 MB)

Deleted scenes

  • Bad Blood.mkv (10.9 MB)
  • Dark Paradise.mkv (41.7 MB)
  • Dreams Die First.mkv (32.7 MB)
  • Hidden.mkv (69.2 MB)
  • Inseparable.mkv (73.7 MB)
  • Marion.mkv (26.9 MB)
  • The Body.mkv (54.8 MB)
  • The Convergence of the Twain.mkv (2.9 MB)
  • The Cord.mkv (33.4 MB)
  • Visiting Hours.mkv (4.9 MB)

Mediainfo

General 
Format : Matroska 
Format version : Version 4 / Version 2 
File size : 972 MiB 
Duration : 44 min 1 s 
Overall bit rate : 3 085 kb/s 
Encoded date : UTC 2018-05-24 15:00:55 
Writing application : mkvmerge v12.0.0 ('Trust / Lust') 64bit 
Writing library : libebml v1.3.4 + libmatroska v1.4.5 

Video 
ID : 1 
Format : HEVC 
Format/Info : High Efficiency Video Coding 
Format profile : Main [email protected]@Main 
Codec ID : V_MPEGH/ISO/HEVC 
Duration : 44 min 1 s 
Width : 1 920 pixels 
Height : 1 080 pixels 
Display aspect ratio : 16:9 
Frame rate mode : Constant 
Frame rate : 23.976 (24000/1001) FPS 
Color space : YUV 
Chroma subsampling : 4:2:0 
Bit depth : 10 bits 
Writing library : x265 2.7+348-0968a46d6ba4:[Windows][MSVC 1900][64 bit] 10bit 
Encoding settings : cpuid=1111039 / frame-threads=3 / numa-pools=8 / wpp / no-pmode / no-pme / no-psnr / no-ssim / log-level=2 / input-csp=1 / input-res=1920x1080 / interlace=0 / total-frames=63342 / level-idc=0 / high-tier=1 / uhd-bd=0 / ref=5 / no-allow-non-conformance / no-repeat-headers / annexb / no-aud / no-hrd / info / hash=0 / no-temporal-layers / open-gop / min-keyint=23 / keyint=250 / gop-lookahead=0 / bframes=8 / b-adapt=2 / b-pyramid / bframe-bias=0 / rc-lookahead=80 / lookahead-slices=4 / scenecut=40 / radl=0 / no-intra-refresh / ctu=64 / min-cu-size=8 / rect / amp / max-tu-size=32 / tu-inter-depth=1 / tu-intra-depth=1 / limit-tu=0 / rdoq-level=2 / dynamic-rd=0.00 / no-ssim-rd / signhide / no-tskip / nr-intra=0 / nr-inter=0 / no-constrained-intra / no-strong-intra-smoothing / max-merge=4 / limit-refs=3 / limit-modes / me=3 / subme=5 / merange=57 / temporal-mvp / weightp / weightb / no-analyze-src-pics / deblock=-3:-3 / no-sao / no-sao-non-deblock / rd=5 / no-early-skip / no-rskip / no-fast-intra / no-tskip-fast / no-cu-lossless / no-b-intra / no-splitrd-skip / rdpenalty=0 / psy-rd=1.60 / psy-rdoq=2.50 / no-rd-refine / no-lossless / cbqpoffs=0 / crqpoffs=0 / rc=crf / crf=20.0 / qcomp=0.60 / qpstep=4 / stats-write=0 / stats-read=0 / ipratio=1.40 / pbratio=1.30 / aq-mode=3 / aq-strength=0.70 / cutree / zone-count=0 / no-strict-cbr / qg-size=32 / no-rc-grain / qpmax=69 / qpmin=0 / no-const-vbv / sar=0 / overscan=0 / videoformat=5 / range=0 / colorprim=2 / transfer=2 / colormatrix=2 / chromaloc=0 / display-window=0 / max-cll=0,0 / min-luma=0 / max-luma=1023 / log2-max-poc-lsb=8 / vui-timing-info / vui-hrd-info / slices=1 / no-opt-qp-pps / no-opt-ref-list-length-pps / no-multi-pass-opt-rps / scenecut-bias=0.05 / no-opt-cu-delta-qp / no-aq-motion / no-hdr / no-hdr-opt / no-dhdr10-opt / no-idr-recovery-sei / analysis-reuse-level=5 / scale-factor=0 / refine-intra=0 / refine-inter=0 / refine-mv=0 / no-limit-sao / ctu-info=0 / no-lowpass-dct / refine-mv-type=0 / copy-pic=1 / max-ausize-factor=1.0 / no-dynamic-refine / no-single-sei 
Default : Yes 
Forced : No 

Audio #1 
ID : 2 
Format : AAC 
Format/Info : Advanced Audio Codec 
Format profile : LC 
Codec ID : A_AAC 
Duration : 44 min 1 s 
Channel(s) : 6 channels 
Channel positions : Front: L C R, Side: L R, LFE 
Sampling rate : 48.0 kHz 
Frame rate : 46.875 FPS (1024 spf) 
Compression mode : Lossy 
Delay relative to video : 20 ms 
Language : English 
Default : Yes 
Forced : No 

Audio #2 
ID : 3 
Format : AAC 
Format/Info : Advanced Audio Codec 
Format profile : HE-AAC / LC 
Codec ID : A_AAC 
Duration : 44 min 1 s 
Channel(s) : 6 channels 
Channel positions : Front: L C R, Side: L R, LFE 
Sampling rate : 48.0 kHz / 24.0 kHz 
Frame rate : 23.438 FPS (1024 spf) 
Compression mode : Lossy 
Delay relative to video : 40 ms 
Language : French 
Default : No 
Forced : No 

Subtitle #1 
ID : 4 
Format : PGS 
Muxing mode : zlib 
Codec ID : S_HDMV/PGS 
Codec ID/Info : Picture based subtitle format used on BDs/HD-DVDs 
Language : English 
Default : No 
Forced : No 

Subtitle #2 
ID : 5 
Format : PGS 
Muxing mode : zlib 
Codec ID : S_HDMV/PGS 
Codec ID/Info : Picture based subtitle format used on BDs/HD-DVDs 
Language : French 
Default : No 
Forced : No 

Subtitle #3 
ID : 6 
Format : PGS 
Muxing mode : zlib 
Codec ID : S_HDMV/PGS 
Codec ID/Info : Picture based subtitle format used on BDs/HD-DVDs 
Language : Dutch 
Default : No 
Forced : No 

Subtitle #4 
ID : 7 
Format : PGS 
Muxing mode : zlib 
Codec ID : S_HDMV/PGS 
Codec ID/Info : Picture based subtitle format used on BDs/HD-DVDs 
Language : Danish 
Default : No 
Forced : No 

Subtitle #5 
ID : 8 
Format : PGS 
Muxing mode : zlib 
Codec ID : S_HDMV/PGS 
Codec ID/Info : Picture based subtitle format used on BDs/HD-DVDs 
Language : Finnish 
Default : No 
Forced : No 

Subtitle #6 
ID : 9 
Format : PGS 
Muxing mode : zlib 
Codec ID : S_HDMV/PGS 
Codec ID/Info : Picture based subtitle format used on BDs/HD-DVDs 
Language : Norwegian Bokmal 
Default : No 
Forced : No 

Subtitle #7 
ID : 10 
Format : PGS 
Muxing mode : zlib 
Codec ID : S_HDMV/PGS 
Codec ID/Info : Picture based subtitle format used on BDs/HD-DVDs 
Language : Swedish 
Default : No 
Forced : No 

Menu 
00:00:00.000 : en:Chapter 01 
00:04:40.989 : en:Chapter 02 
00:21:01.468 : en:Chapter 03 
00:35:16.989 : en:Chapter 04

Screencaps

Download

Season: Google Drive

Extras: Google Drive

8 thoughts on “Bates Motel (2013) Season 1-5 (1080p BluRay x265 HEVC 10bit AAC 5.1 RCVR)

Leave a Reply