Banshee (2013) Season 1-4 (1080p BDRip x265 HEVC 10bit AAC 5.1 UTR)

Summary: An unnamed ex-convict assumes the identity of Lucas Hood the sheriff of Banshee, Pennsylvania, where he, behind a badge, continues his criminal activities, even as he’s hunted by the shadowy gangsters he betrayed years earlier.

Season 1

Banshee (2013) Season 1 S01 + Extras (1080p BDRip x265 HEVC 10bit AAC 5.1 RCVR) ENG FRE GER [UTR]

Files

  • Banshee – S01E01 – Pilot (1080p BDRip x265 HEVC 10bit AAC 5.1 RCVR) [UTR].mkv [1.57 GB]
  • Banshee – S01E02 – The Rave (1080p BDRip x265 HEVC 10bit AAC 5.1 RCVR) [UTR].mkv [1.65 GB]
  • Banshee – S01E03 – Meet the New Boss (1080p BDRip x265 HEVC 10bit AAC 5.1 RCVR) [UTR].mkv [1.14 GB]
  • Banshee – S01E04 – Half Deaf is Better Than All Dead (1080p BDRip x265 HEVC 10bit AAC 5.1 RCVR) [UTR].mkv [1.68 GB]
  • Banshee – S01E05 – The Kindred (1080p BDRip x265 HEVC 10bit AAC 5.1 RCVR) [UTR].mkv [1.47 GB]
  • Banshee – S01E06 – Wicks (1080p BDRip x265 HEVC 10bit AAC 5.1 RCVR) [UTR].mkv [1.36 GB]
  • Banshee – S01E07 – Behold a Pale Rider (1080p BDRip x265 HEVC 10bit AAC 5.1 RCVR) [UTR].mkv [1.25 GB]
  • Banshee – S01E08 – We Shall Live Forever (1080p BDRip x265 HEVC 10bit AAC 5.1 RCVR) [UTR].mkv [1.35 GB]
  • Banshee – S01E09 – Always The Cowboy (1080p BDRip x265 HEVC 10bit AAC 5.1 RCVR) [UTR].mkv [1.04 GB]
  • Banshee – S01E10 – A Mixture of Madness (1080p BDRip x265 HEVC 10bit AAC 5.1 RCVR) [UTR].mkv [1.37 GB]
  • Extras
    • Banshee Origins
      • Banshee Origins – (S01E01) – Olek Drops a Dime.mkv [32.99 MB]
      • Banshee Origins – (S01E02) – A Thief, Not a Killer.mkv [37.96 MB]
      • Banshee Origins – (S01E03) – Carrie at the Gate.mkv [51.48 MB]
      • Banshee Origins – (S01E04) – Looking for My Exit.mkv [49.16 MB]
      • Banshee Origins – (S01E05) – Sugar’s Release.mkv [86.40 MB]
      • Banshee Origins – (S01E06) – The Forge.mkv [78.78 MB]
      • Banshee Origins – (S01E07) – Siobhan Interrupted.mkv [92.49 MB]
      • Banshee Origins – (S01E08) – Kings and Pawns.mkv [37.15 MB]
      • Banshee Origins – (S01E09) – Checking In.mkv [58.61 MB]
      • Banshee Origins – (S01E10) – The Women.mkv [44.57 MB]
      • Banshee Origins – (S01E11) – Carrie and Deva.mkv [60.40 MB]
      • Banshee Origins – (S01E12) – Passed Over.mkv [49.70 MB]
      • Banshee Origins – (S01E13) – The Real Lucas Hood.mkv [64.67 MB]
    • Comic Book.mkv [9.13 MB]
    • Deleted Scenes
      • Episode 106 Scene 51.mkv [63.09 MB]
      • Episode 106 Scene A48.mkv [71.46 MB]
      • Episode 109 Scene 18.mkv [15.08 MB]
      • Episode 110 Scene 20.mkv [23.78 MB]
    • Menu Art.mkv [27.29 MB]
    • NYC Bus Crash.mkv [89.30 MB]
    • Reveal the Code.mkv [40.53 MB]
    • Season 2 Teaser Trailer.mkv [21.03 MB]
    • Town of Secrets.mkv [72.30 MB]
    • Zoomed In Episode 7.mkv [77.04 MB]
    • Zoomed In Episode 8.mkv [38.98 MB]

Mediainfo

General
Format                                   : Matroska
Format version                           : Version 4 / Version 2
File size                                : 1.57 GiB
Duration                                 : 59 min 34 s
Overall bit rate                         : 3 767 kb/s
Movie name                               : Banshee Season 1 Disc 1
Encoded date                             : UTC 2017-08-21 02:42:34
Writing application                      : mkvmerge v13.0.0 ('The Juggler') 64bit
Writing library                          : libebml v1.3.4 + libmatroska v1.4.5
Cover                                    : Yes
Attachments                              : cover.jpg



Video

ID                                       : 1
Format                                   : HEVC
Format/Info                              : High Efficiency Video Coding
Format profile                           : Main [email protected]@Main
Codec ID                                 : V_MPEGH/ISO/HEVC
Duration                                 : 59 min 33 s
Bit rate                                 : 2 860 kb/s
Width                                    : 1 920 pixels
Height                                   : 1 080 pixels
Display aspect ratio                     : 16:9
Frame rate mode                          : Constant
Frame rate                               : 23.976 (24000/1001) FPS
Color space                              : YUV
Chroma subsampling                       : 4:2:0
Bit depth                                : 10 bits
Bits/(Pixel*Frame)                       : 0.058
Stream size                              : 1.19 GiB (76%)
Writing library                          : x265 2.4+28-f850cdbe381c:[Windows][MSVC 1910][64 bit] 10bit
Encoding settings                        : cpuid=1173503 / frame-threads=3 / numa-pools=8 / wpp / no-pmode / no-pme / no-psnr / no-ssim / log-level=2 / input-csp=1 / input-res=1920x1080 / interlace=0 / total-frames=85681 / level-idc=0 / high-tier=1 / uhd-bd=0 / ref=5 / no-allow-non-conformance / no-repeat-headers / annexb / no-aud / no-hrd / info / hash=0 / no-temporal-layers / open-gop / min-keyint=23 / keyint=250 / bframes=8 / b-adapt=2 / b-pyramid / bframe-bias=0 / rc-lookahead=80 / lookahead-slices=4 / scenecut=40 / no-intra-refresh / ctu=64 / min-cu-size=8 / rect / no-amp / max-tu-size=32 / tu-inter-depth=1 / tu-intra-depth=1 / limit-tu=0 / rdoq-level=2 / dynamic-rd=0.00 / no-ssim-rd / signhide / no-tskip / nr-intra=0 / nr-inter=0 / no-constrained-intra / strong-intra-smoothing / max-merge=3 / limit-refs=3 / limit-modes / me=3 / subme=5 / merange=57 / temporal-mvp / weightp / weightb / no-analyze-src-pics / deblock=-3:-3 / no-sao / no-sao-non-deblock / rd=4 / no-early-skip / no-rskip / no-fast-intra / no-tskip-fast / no-cu-lossless / no-b-intra / rdpenalty=0 / psy-rd=1.50 / psy-rdoq=1.80 / no-rd-refine / analysis-mode=0 / no-lossless / cbqpoffs=0 / crqpoffs=0 / rc=crf / crf=20.0 / qcomp=0.60 / qpstep=4 / stats-write=0 / stats-read=0 / ipratio=1.40 / pbratio=1.30 / aq-mode=3 / aq-strength=1.00 / cutree / zone-count=0 / no-strict-cbr / qg-size=32 / no-rc-grain / qpmax=69 / qpmin=0 / sar=0 / overscan=0 / videoformat=5 / range=0 / colorprim=2 / transfer=2 / colormatrix=2 / chromaloc=0 / display-window=0 / max-cll=0,0 / min-luma=0 / max-luma=1023 / log2-max-poc-lsb=8 / vui-timing-info / vui-hrd-info / slices=1 / opt-qp-pps / opt-ref-list-length-pps / no-multi-pass-opt-rps / scenecut-bias=0.05 / no-opt-cu-delta-qp / no-aq-motion / no-hdr / no-hdr-opt / no-dhdr10-opt / refine-level=5 / no-limit-sao / ctu-info=0
Language                                 : English
Default                                  : Yes
Forced                                   : No


Audio #1

ID                                       : 2
Format                                   : AAC
Format/Info                              : Advanced Audio Codec
Format profile                           : LC
Codec ID                                 : A_AAC
Duration                                 : 59 min 34 s
Bit rate                                 : 410 kb/s
Channel(s)                               : 6 channels
Channel positions                        : Front: L C R, Side: L R, LFE
Sampling rate                            : 48.0 kHz
Frame rate                               : 46.875 FPS (1024 spf)
Compression mode                         : Lossy
Delay relative to video                  : 20 ms
Stream size                              : 175 MiB (11%)
Language                                 : English
Default                                  : Yes
Forced                                   : No


Audio #2

ID                                       : 3
Format                                   : AAC
Format/Info                              : Advanced Audio Codec
Format profile                           : HE-AAC / LC
Codec ID                                 : A_AAC
Duration                                 : 59 min 33 s
Bit rate                                 : 192 kb/s
Channel(s)                               : 6 channels
Channel positions                        : Front: L C R, Side: L R, LFE
Sampling rate                            : 48.0 kHz / 24.0 kHz
Frame rate                               : 23.438 FPS (1024 spf)
Compression mode                         : Lossy
Delay relative to video                  : 40 ms
Stream size                              : 81.8 MiB (5%)
Language                                 : French
Default                                  : No
Forced                                   : No


Audio #3

ID                                       : 4
Format                                   : AAC
Format/Info                              : Advanced Audio Codec
Format profile                           : HE-AAC / LC
Codec ID                                 : A_AAC
Duration                                 : 59 min 33 s
Bit rate                                 : 192 kb/s
Channel(s)                               : 6 channels
Channel positions                        : Front: L C R, Side: L R, LFE
Sampling rate                            : 48.0 kHz / 24.0 kHz
Frame rate                               : 23.438 FPS (1024 spf)
Compression mode                         : Lossy
Delay relative to video                  : 40 ms
Stream size                              : 81.8 MiB (5%)
Language                                 : German
Default                                  : No
Forced                                   : No


Audio #4

ID                                       : 5
Format                                   : AAC
Format/Info                              : Advanced Audio Codec
Format profile                           : HE-AAC / LC
Codec ID                                 : A_AAC
Duration                                 : 59 min 33 s
Bit rate                                 : 80.0 kb/s
Channel(s)                               : 2 channels
Channel positions                        : Front: L R
Sampling rate                            : 48.0 kHz / 24.0 kHz
Frame rate                               : 23.438 FPS (1024 spf)
Compression mode                         : Lossy
Delay relative to video                  : 40 ms
Stream size                              : 34.1 MiB (2%)
Title                                    : Commentary
Language                                 : English
Default                                  : No
Forced                                   : No


Text

ID                                       : 6
Format                                   : PGS
Muxing mode                              : zlib
Codec ID                                 : S_HDMV/PGS
Codec ID/Info                            : Picture based subtitle format used on BDs/HD-DVDs
Duration                                 : 57 min 48 s
Bit rate                                 : 26.5 kb/s
Count of elements                        : 1302
Stream size                              : 11.0 MiB (1%)
Language                                 : English
Default                                  : No
Forced                                   : No

Download

Download: Google Drive (15.14 GB)

Season 2

Banshee (2013) Season 2 S02 + Extras (1080p BDRip x265 HEVC 10bit AAC 5 1 FreetheFish) ENG FRE SPA GER [UTR]

Files

  • Banshee – S02E01 – Little Fish (1080p BDRip x265 HEVC 10bit AAC 5.1 FreetheFish) [UTR].mkv [1.41 GB]
  • Banshee – S02E02 – The Thunder Man (1080p BDRip x265 HEVC 10bit AAC 5.1 FreetheFish) [UTR].mkv [1.59 GB]
  • Banshee – S02E03 – The Warrior Class (1080p BDRip x265 HEVC 10bit AAC 5.1 FreetheFish) [UTR].mkv [1.75 GB]
  • Banshee – S02E04 – Bloodlines (1080p BDRip x265 HEVC 10bit AAC 5.1 FreetheFish) [UTR].mkv [1.53 GB]
  • Banshee – S02E05 – The Truth About Unicorns (1080p BDRip x265 HEVC 10bit AAC 5.1 FreetheFish) [UTR].mkv [2.11 GB]
  • Banshee – S02E06 – Armies of One (1080p BDRip x265 HEVC 10bit AAC 5.1 FreetheFish) [UTR].mkv [1.28 GB]
  • Banshee – S02E07 – Ways to Bury a Man (1080p BDRip x265 HEVC 10bit AAC 5.1 FreetheFish) [UTR].mkv [1.40 GB]
  • Banshee – S02E08 – Evil for Evil (1080p BDRip x265 HEVC 10bit AAC 5.1 FreetheFish) [UTR].mkv [1.23 GB]
  • Banshee – S02E09 – Homecoming (1080p BDRip x265 HEVC 10bit AAC 5.1 FreetheFish) [UTR].mkv [1.02 GB]
  • Banshee – S02E10 – Bullets and Tears (1080p BDRip x265 HEVC 10bit AAC 5.1 FreetheFish) [UTR].mkv [1.86 GB]
  • Extras
    • Banshee Origins
      • Banshee Origins – (S02E01) – Hotwire.mkv [159.77 MB]
      • Banshee Origins – (S02E02) – Allenwood, Part 1.mkv [79.96 MB]
      • Banshee Origins – (S02E03) – Interrogation, Part 1.mkv [152.27 MB]
      • Banshee Origins – (S02E04) – Interrogation, Part 2.mkv [152.50 MB]
      • Banshee Origins – (S02E05) – Interrogation, Part 3.mkv [128.66 MB]
      • Banshee Origins – (S02E06) – The Phone Call.mkv [39.61 MB]
      • Banshee Origins – (S02E07) – The Diner.mkv [84.44 MB]
      • Banshee Origins – (S02E08) – The Person You Were Meant to Be.mkv [102.01 MB]
      • Banshee Origins – (S02E09) – Allenwood, Part 2.mkv [84.04 MB]
      • Banshee Origins – (S02E10) – Brothers.mkv [132.04 MB]
      • Banshee Origins – (S02E11) – The Priest.mkv [156.99 MB]
      • Banshee Origins – (S02E12) – The Field.mkv [187.66 MB]
    • Conversation Between Olek and the Albino.mkv [40.30 MB]
    • Deleted Scenes
      • Deleted Scenes 1.mkv [39.19 MB]
      • Deleted Scenes 2.mkv [93.40 MB]
      • Deleted Scenes 3.mkv [41.95 MB]
    • Trailers.mkv [161.10 MB]
    • Zoomed In Episode 1.mkv [117.98 MB]
    • Zoomed In Episode 2.mkv [72.12 MB]
    • Zoomed In Episode 3.mkv [67.44 MB]
    • Zoomed In Episode 4.mkv [72.84 MB]
    • Zoomed In Episode 6.mkv [61.83 MB]
    • Zoomed In Episode 7.mkv [90.15 MB]
    • Zoomed In Episode 8.mkv [70.12 MB]

Mediainfo

General

Format                                   : Matroska
Format version                           : Version 4 / Version 2
File size                                : 1.41 GiB
Duration                                 : 50 min 4 s
Overall bit rate                         : 4 018 kb/s
Encoded date                             : UTC 2017-08-20 13:08:34
Writing application                      : mkvmerge v14.0.0 ('Flow') 64bit
Writing library                          : libebml v1.3.4 + libmatroska v1.4.5
Cover                                    : Yes
Attachments                              : cover.jpg


Video

ID                                       : 1
Format                                   : HEVC
Format/Info                              : High Efficiency Video Coding
Format profile                           : Main [email protected]@Main
Codec ID                                 : V_MPEGH/ISO/HEVC
Duration                                 : 49 min 48 s
Bit rate                                 : 2 909 kb/s
Width                                    : 1 920 pixels
Height                                   : 1 080 pixels
Display aspect ratio                     : 16:9
Frame rate mode                          : Constant
Frame rate                               : 23.976 (24000/1001) FPS
Color space                              : YUV
Chroma subsampling                       : 4:2:0
Bit depth                                : 10 bits
Bits/(Pixel*Frame)                       : 0.059
Stream size                              : 1.01 GiB (72%)
Writing library                          : x265 2.5+9-fdf39a97ecb8:[Windows][MSVC 1910][64 bit] 10bit
Encoding settings                        : cpuid=1173503 / frame-threads=3 / numa-pools=8 / wpp / no-pmode / no-pme / no-psnr / no-ssim / log-level=2 / input-csp=1 / input-res=1920x1080 / interlace=0 / total-frames=71661 / level-idc=0 / high-tier=1 / uhd-bd=0 / ref=5 / no-allow-non-conformance / no-repeat-headers / annexb / no-aud / no-hrd / info / hash=0 / no-temporal-layers / open-gop / min-keyint=23 / keyint=250 / bframes=8 / b-adapt=2 / b-pyramid / bframe-bias=0 / rc-lookahead=80 / lookahead-slices=4 / scenecut=40 / no-intra-refresh / ctu=64 / min-cu-size=8 / rect / no-amp / max-tu-size=32 / tu-inter-depth=1 / tu-intra-depth=1 / limit-tu=0 / rdoq-level=2 / dynamic-rd=0.00 / no-ssim-rd / signhide / no-tskip / nr-intra=0 / nr-inter=0 / no-constrained-intra / strong-intra-smoothing / max-merge=3 / limit-refs=3 / limit-modes / me=3 / subme=5 / merange=57 / temporal-mvp / weightp / weightb / no-analyze-src-pics / deblock=-3:-3 / no-sao / no-sao-non-deblock / rd=4 / no-early-skip / no-rskip / no-fast-intra / no-tskip-fast / no-cu-lossless / no-b-intra / rdpenalty=0 / psy-rd=1.50 / psy-rdoq=1.80 / no-rd-refine / analysis-reuse-mode=0 / no-lossless / cbqpoffs=0 / crqpoffs=0 / rc=crf / crf=20.0 / qcomp=0.60 / qpstep=4 / stats-write=0 / stats-read=0 / ipratio=1.40 / pbratio=1.30 / aq-mode=3 / aq-strength=1.00 / cutree / zone-count=0 / no-strict-cbr / qg-size=32 / no-rc-grain / qpmax=69 / qpmin=0 / no-const-vbv / sar=0 / overscan=0 / videoformat=5 / range=0 / colorprim=2 / transfer=2 / colormatrix=2 / chromaloc=0 / display-window=0 / max-cll=0,0 / min-luma=0 / max-luma=1023 / log2-max-poc-lsb=8 / vui-timing-info / vui-hrd-info / slices=1 / opt-qp-pps / opt-ref-list-length-pps / no-multi-pass-opt-rps / scenecut-bias=0.05 / no-opt-cu-delta-qp / no-aq-motion / no-hdr / no-hdr-opt / no-dhdr10-opt / analysis-reuse-level=5 / scale-factor=0 / refine-intra=0 / refine-inter=0 / refine-mv=0 / no-limit-sao / ctu-info=0
Language                                 : English
Default                                  : Yes
Forced                                   : No


Audio #1

ID                                       : 2
Format                                   : AAC
Format/Info                              : Advanced Audio Codec
Format profile                           : LC
Codec ID                                 : A_AAC
Duration                                 : 50 min 4 s
Bit rate                                 : 418 kb/s
Channel(s)                               : 6 channels
Channel positions                        : Front: L C R, Side: L R, LFE
Sampling rate                            : 48.0 kHz
Frame rate                               : 46.875 FPS (1024 spf)
Compression mode                         : Lossy
Delay relative to video                  : 20 ms
Stream size                              : 150 MiB (10%)
Language                                 : English
Default                                  : Yes
Forced                                   : No


Audio #2

ID                                       : 3
Format                                   : AAC
Format/Info                              : Advanced Audio Codec
Format profile                           : HE-AAC / LC
Codec ID                                 : A_AAC
Duration                                 : 49 min 48 s
Bit rate                                 : 192 kb/s
Channel(s)                               : 6 channels
Channel positions                        : Front: L C R, Side: L R, LFE
Sampling rate                            : 48.0 kHz / 24.0 kHz
Frame rate                               : 23.438 FPS (1024 spf)
Compression mode                         : Lossy
Delay relative to video                  : 40 ms
Stream size                              : 68.4 MiB (5%)
Language                                 : French
Default                                  : No
Forced                                   : No


Audio #3

ID                                       : 4
Format                                   : AAC
Format/Info                              : Advanced Audio Codec
Format profile                           : HE-AAC / LC
Codec ID                                 : A_AAC
Duration                                 : 49 min 48 s
Bit rate                                 : 80.0 kb/s
Channel(s)                               : 2 channels
Channel positions                        : Front: L R
Sampling rate                            : 48.0 kHz / 24.0 kHz
Frame rate                               : 23.438 FPS (1024 spf)
Compression mode                         : Lossy
Delay relative to video                  : 40 ms
Stream size                              : 28.5 MiB (2%)
Language                                 : Spanish
Default                                  : No
Forced                                   : No


Audio #4

ID                                       : 5
Format                                   : AAC
Format/Info                              : Advanced Audio Codec
Format profile                           : HE-AAC / LC
Codec ID                                 : A_AAC
Duration                                 : 50 min 4 s
Bit rate                                 : 192 kb/s
Channel(s)                               : 6 channels
Channel positions                        : Front: L C R, Side: L R, LFE
Sampling rate                            : 48.0 kHz / 24.0 kHz
Frame rate                               : 23.438 FPS (1024 spf)
Compression mode                         : Lossy
Delay relative to video                  : 40 ms
Stream size                              : 68.8 MiB (5%)
Language                                 : German
Default                                  : No
Forced                                   : No


Text

ID                                       : 6
Format                                   : PGS
Muxing mode                              : zlib
Codec ID                                 : S_HDMV/PGS
Codec ID/Info                            : Picture based subtitle format used on BDs/HD-DVDs
Duration                                 : 49 min 3 s
Bit rate                                 : 73.8 kb/s
Count of elements                        : 1526
Stream size                              : 25.9 MiB (2%)
Language                                 : English
Default                                  : No
Forced                                   : No

Download

Download: Google Drive (17.52 GB)

Season 3

Banshee (2013) Season 3 S03 + Extras (1080p BDRip x265 HEVC 10bit AAC 5 1 RCVR) ENG FRE SPA GER [UTR]

Files

  • Banshee – S03E01 – The Fire Trials (1080p BDRip x265 HEVC 10bit AAC 5.1 RCVR) [UTR].mkv [1.42 GB]
  • Banshee – S03E02 – Snakes and Whatnot (1080p BDRip x265 HEVC 10bit AAC 5.1 RCVR) [UTR].mkv [1.48 GB]
  • Banshee – S03E03 – A Fixer of Sorts (1080p BDRip x265 HEVC 10bit AAC 5.1 RCVR) [UTR].mkv [2.13 GB]
  • Banshee – S03E04 – Real Life is the Nightmare (1080p BDRip x265 HEVC 10bit AAC 5.1 RCVR) [UTR].mkv [1.72 GB]
  • Banshee – S03E05 – Tribal (1080p BDRip x265 HEVC 10bit AAC 5.1 RCVR) [UTR].mkv [1.27 GB]
  • Banshee – S03E06 – We Were All Someone Else Yesterday (1080p BDRip x265 HEVC 10bit AAC 5.1 RCVR) [UTR].mkv [1.65 GB]
  • Banshee – S03E07 – You Can’t Hide from the Dead (1080p BDRip x265 HEVC 10bit AAC 5.1 RCVR) [UTR].mkv [2.16 GB]
  • Banshee – S03E08 – All the Wisdom I Got Left (1080p BDRip x265 HEVC 10bit AAC 5.1 RCVR) [UTR].mkv [1.98 GB]
  • Banshee – S03E09 – Even God Doesn’t Know What to Make of You (1080p BDRip x265 HEVC 10bit AAC 5.1 RCVR) [UTR].mkv [1.36 GB]
  • Banshee – S03E10 – We All Pay Eventually (1080p BDRip x265 HEVC 10bit AAC 5.1 RCVR) [UTR].mkv [1.82 GB]
  • Extras
    • Banshee Origins
      • Banshee Origins – S03E01 – Getting to Know You.mkv [76.96 MB]
      • Banshee Origins – S03E02 – Takeover.mkv [31.33 MB]
      • Banshee Origins – S03E03 – Always Be Prepared.mkv [36.38 MB]
      • Banshee Origins – S03E04 – Busy Night.mkv [23.22 MB]
      • Banshee Origins – S03E05 – Bugs and Thugs.mkv [76.60 MB]
      • Banshee Origins – S03E06 – Already Dead.mkv [97.18 MB]
      • Banshee Origins – S03E07 – Off Duty.mkv [21.95 MB]
      • Banshee Origins – S03E08 – Birthday.mkv [73.67 MB]
    • Banshee Origins Saga.mkv [1.22 GB]
    • Burton vs. Nola Camera Movement.mkv [13.66 MB]
    • Burton vs. Nola Stunts.mkv [120.06 MB]
    • Deleted Scenes
      • 302-SC A49.mkv [3.56 MB]
      • 307-SC 10 Rebecca takes Mercedes.mkv [133.10 MB]
      • 307-SC 12 Deva and Charlie.mkv [63.72 MB]
      • 308-SC C1 Chayton Prepares for Battle.mkv [11.46 MB]
      • 308-SC K1 Bones Stuffed in Trunk.mkv [21.32 MB]
      • 309-SC 36 Deva and Lucas.mkv [16.60 MB]
    • Genoa Rehearsal.mkv [427.14 MB]
    • Inside the Title Sequence.mkv [43.47 MB]
    • Menu Art.mkv [27.02 MB]
    • Sins Promo.mkv [40.52 MB]
    • The Heist.mkv [580.22 MB]
    • Zoomed In
      • Zoomed In Season 3 Episode 1.mkv [68.96 MB]
      • Zoomed In Season 3 Episode 10.mkv [56.14 MB]
      • Zoomed In Season 3 Episode 2.mkv [55.05 MB]
      • Zoomed In Season 3 Episode 3.mkv.mkv [80.89 MB]
      • Zoomed In Season 3 Episode 4.mkv.mkv [52.72 MB]
      • Zoomed In Season 3 Episode 5.mkv.mkv [61.35 MB]
      • Zoomed In Season 3 Episode 6.mkv [57.11 MB]
      • Zoomed In Season 3 Episode 7.mkv [58.94 MB]
      • Zoomed In Season 3 Episode 8.mkv [52.22 MB]

Mediainfo

General

Format                                   : Matroska
Format version                           : Version 4 / Version 2
File size                                : 1.42 GiB
Duration                                 : 50 min 22 s
Overall bit rate                         : 4 049 kb/s
Movie name                               : Banshee Season 3 Disc 1
Encoded date                             : UTC 2017-09-09 05:29:38
Writing application                      : mkvmerge v13.0.0 ('The Juggler') 64bit
Writing library                          : libebml v1.3.4 + libmatroska v1.4.5
Cover                                    : Yes
Attachments                              : cover.jpg


Video

ID                                       : 1
Format                                   : HEVC
Format/Info                              : High Efficiency Video Coding
Format profile                           : Main [email protected]@Main
Codec ID                                 : V_MPEGH/ISO/HEVC
Duration                                 : 50 min 22 s
Bit rate                                 : 2 895 kb/s
Width                                    : 1 920 pixels
Height                                   : 1 080 pixels
Display aspect ratio                     : 16:9
Frame rate mode                          : Constant
Frame rate                               : 23.976 (24000/1001) FPS
Color space                              : YUV
Chroma subsampling                       : 4:2:0
Bit depth                                : 10 bits
Bits/(Pixel*Frame)                       : 0.058
Stream size                              : 1.02 GiB (71%)
Writing library                          : x265 2.5+12-fcd9154fa4e2:[Windows][MSVC 1911][64 bit] 10bit
Encoding settings                        : cpuid=1173503 / frame-threads=3 / numa-pools=8 / wpp / no-pmode / no-pme / no-psnr / no-ssim / log-level=2 / input-csp=1 / input-res=1920x1080 / interlace=0 / total-frames=72468 / level-idc=0 / high-tier=1 / uhd-bd=0 / ref=5 / no-allow-non-conformance / no-repeat-headers / annexb / no-aud / no-hrd / info / hash=0 / no-temporal-layers / open-gop / min-keyint=23 / keyint=250 / bframes=8 / b-adapt=2 / b-pyramid / bframe-bias=0 / rc-lookahead=80 / lookahead-slices=4 / scenecut=40 / no-intra-refresh / ctu=64 / min-cu-size=8 / rect / no-amp / max-tu-size=32 / tu-inter-depth=1 / tu-intra-depth=1 / limit-tu=0 / rdoq-level=2 / dynamic-rd=0.00 / no-ssim-rd / signhide / no-tskip / nr-intra=0 / nr-inter=0 / no-constrained-intra / strong-intra-smoothing / max-merge=3 / limit-refs=3 / limit-modes / me=3 / subme=5 / merange=57 / temporal-mvp / weightp / weightb / no-analyze-src-pics / deblock=-3:-3 / no-sao / no-sao-non-deblock / rd=4 / no-early-skip / no-rskip / no-fast-intra / no-tskip-fast / no-cu-lossless / no-b-intra / no-splitrd-skip / rdpenalty=0 / psy-rd=1.50 / psy-rdoq=1.80 / no-rd-refine / analysis-reuse-mode=0 / no-lossless / cbqpoffs=0 / crqpoffs=0 / rc=crf / crf=20.0 / qcomp=0.60 / qpstep=4 / stats-write=0 / stats-read=0 / ipratio=1.40 / pbratio=1.30 / aq-mode=3 / aq-strength=1.00 / cutree / zone-count=0 / no-strict-cbr / qg-size=32 / no-rc-grain / qpmax=69 / qpmin=0 / no-const-vbv / sar=0 / overscan=0 / videoformat=5 / range=0 / colorprim=2 / transfer=2 / colormatrix=2 / chromaloc=0 / display-window=0 / max-cll=0,0 / min-luma=0 / max-luma=1023 / log2-max-poc-lsb=8 / vui-timing-info / vui-hrd-info / slices=1 / opt-qp-pps / opt-ref-list-length-pps / no-multi-pass-opt-rps / scenecut-bias=0.05 / no-opt-cu-delta-qp / no-aq-motion / no-hdr / no-hdr-opt / no-dhdr10-opt / analysis-reuse-level=5 / scale-factor=0 / refine-intra=0 / refine-inter=0 / refine-mv=0 / no-limit-sao / ctu-info=0
Language                                 : English
Default                                  : Yes
Forced                                   : No


Audio #1

ID                                       : 2
Format                                   : AAC
Format/Info                              : Advanced Audio Codec
Format profile                           : LC
Codec ID                                 : A_AAC
Duration                                 : 50 min 22 s
Bit rate                                 : 412 kb/s
Channel(s)                               : 6 channels
Channel positions                        : Front: L C R, Side: L R, LFE
Sampling rate                            : 48.0 kHz
Frame rate                               : 46.875 FPS (1024 spf)
Compression mode                         : Lossy
Delay relative to video                  : 20 ms
Stream size                              : 149 MiB (10%)
Language                                 : English
Default                                  : Yes
Forced                                   : No


Audio #2

ID                                       : 3
Format                                   : AAC
Format/Info                              : Advanced Audio Codec
Format profile                           : HE-AAC / LC
Codec ID                                 : A_AAC
Duration                                 : 50 min 22 s
Bit rate                                 : 192 kb/s
Channel(s)                               : 6 channels
Channel positions                        : Front: L C R, Side: L R, LFE
Sampling rate                            : 48.0 kHz / 24.0 kHz
Frame rate                               : 23.438 FPS (1024 spf)
Compression mode                         : Lossy
Delay relative to video                  : 40 ms
Stream size                              : 69.2 MiB (5%)
Language                                 : French
Default                                  : No
Forced                                   : No


Audio #3

ID                                       : 4
Format                                   : AAC
Format/Info                              : Advanced Audio Codec
Format profile                           : HE-AAC / LC
Codec ID                                 : A_AAC
Duration                                 : 50 min 22 s
Bit rate                                 : 80.0 kb/s
Channel(s)                               : 2 channels
Channel positions                        : Front: L R
Sampling rate                            : 48.0 kHz / 24.0 kHz
Frame rate                               : 23.438 FPS (1024 spf)
Compression mode                         : Lossy
Delay relative to video                  : 40 ms
Stream size                              : 28.8 MiB (2%)
Language                                 : Spanish
Default                                  : No
Forced                                   : No


Audio #4

ID                                       : 5
Format                                   : AAC
Format/Info                              : Advanced Audio Codec
Format profile                           : HE-AAC / LC
Codec ID                                 : A_AAC
Duration                                 : 50 min 21 s
Bit rate                                 : 192 kb/s
Channel(s)                               : 6 channels
Channel positions                        : Front: L C R, Side: L R, LFE
Sampling rate                            : 48.0 kHz / 24.0 kHz
Frame rate                               : 23.438 FPS (1024 spf)
Compression mode                         : Lossy
Delay relative to video                  : 40 ms
Stream size                              : 69.2 MiB (5%)
Language                                 : German
Default                                  : No
Forced                                   : No


Audio #5

ID                                       : 6
Format                                   : AAC
Format/Info                              : Advanced Audio Codec
Format profile                           : HE-AAC / LC
Codec ID                                 : A_AAC
Duration                                 : 50 min 21 s
Bit rate                                 : 80.0 kb/s
Channel(s)                               : 2 channels
Channel positions                        : Front: L R
Sampling rate                            : 48.0 kHz / 24.0 kHz
Frame rate                               : 23.438 FPS (1024 spf)
Compression mode                         : Lossy
Delay relative to video                  : 40 ms
Stream size                              : 28.8 MiB (2%)
Title                                    : Commentry
Language                                 : English
Default                                  : No
Forced                                   : No


Text

ID                                       : 7
Format                                   : PGS
Muxing mode                              : zlib
Codec ID                                 : S_HDMV/PGS
Codec ID/Info                            : Picture based subtitle format used on BDs/HD-DVDs
Duration                                 : 49 min 59 s
Bit rate                                 : 62.3 kb/s
Count of elements                        : 1368
Stream size                              : 22.3 MiB (2%)
Language                                 : English
Default                                  : No
Forced                                   : No

Download

Download: Google Drive (20.64 GB)

Season 4

Banshee (2013) Season 4 S04 + Extras (1080p BDRip x265 HEVC 10bit AAC 5 1 FreetheFish) ENG FRE SPA GER [UTR]

Files

  • Banshee – S04E01 – Something Out of the Bible (1080p BDRip x265 HEVC 10bit AAC 5.1 FreetheFish) [UTR].mkv [2.12 GB]
  • Banshee – S04E02 – The Burden of Beauty (1080p BDRip x265 HEVC 10bit AAC 5.1 FreetheFish) [UTR].mkv [1.74 GB]
  • Banshee – S04E03 – The Book of Job (1080p BDRip x265 HEVC 10bit AAC 5.1 FreetheFish) [UTR].mkv [1.99 GB]
  • Banshee – S04E04 – Bloodletting (1080p BDRip x265 HEVC 10bit AAC 5.1 FreetheFish) [UTR].mkv [1.49 GB]
  • Banshee – S04E05 – A Little Late to Grow a Pair (1080p BDRip x265 HEVC 10bit AAC 5.1 FreetheFish) [UTR].mkv [1.44 GB]
  • Banshee – S04E06 – Only One Way a Dogfight Ends (1080p BDRip x265 HEVC 10bit AAC 5.1 FreetheFish) [UTR].mkv [1.28 GB]
  • Banshee – S04E07 – Truths Other Than the Ones You Tell Yourself (1080p BDRip x265 HEVC 10bit AAC 5.1 FreetheFish) [UTR].mkv [1.11 GB]
  • Banshee – S04E08 – Requiem (1080p BDRip x265 HEVC 10bit AAC 5.1 FreetheFish) [UTR].mkv [2.40 GB]
  • Extras
    • Banshee Origins
      • Banshee Origins – (S04E01) – Epilogue.mkv [32.66 MB]
      • Banshee Origins – (S04E02) – Aeschylus.mkv [39.54 MB]
      • Banshee Origins – (S04E03) – Promise.mkv [44.71 MB]
      • Banshee Origins – (S04E04) – Cronus.mkv [53.44 MB]
      • Banshee Origins – (S04E05) – Hope.mkv [50.06 MB]
      • Banshee Origins – (S04E06) – Escape.mkv [48.68 MB]
      • Banshee Origins – (S04E07) – Drown.mkv [49.95 MB]
      • Banshee Origins – (S04E08) – Comfort.mkv [72.68 MB]
    • Cast Retrospectives
      • Favorite Fights.mkv [94.57 MB]
      • Job’s Best Outfits.mkv [44.42 MB]
    • Deleted Scenes
      • Deleted Scenes 1.mkv [15.77 MB]
      • Deleted Scenes 2.mkv [100.56 MB]
      • Deleted Scenes 3.mkv [28.77 MB]
    • Season 3 Recap.mkv [62.07 MB]
    • Zoomed In Episode 1.mkv [50.13 MB]
    • Zoomed In Episode 2.mkv [20.43 MB]
    • Zoomed In Episode 3.mkv [34.52 MB]
    • Zoomed In Episode 4.mkv [32.27 MB]
    • Zoomed In Episode 5.mkv [43.03 MB]
    • Zoomed In Episode 6.mkv [30.80 MB]
    • Zoomed In Episode 7.mkv [25.30 MB]
    • Zoomed In Episode 8.mkv [59.14 MB]

Mediainfo

General

Format                                   : Matroska
Format version                           : Version 4 / Version 2
File size                                : 2.12 GiB
Duration                                 : 57 min 38 s
Overall bit rate                         : 5 267 kb/s
Encoded date                             : UTC 2017-09-19 01:47:53
Writing application                      : mkvmerge v14.0.0 ('Flow') 64bit
Writing library                          : libebml v1.3.4 + libmatroska v1.4.5
Cover                                    : Yes
Attachments                              : cover.jpg


Video

ID                                       : 1
Format                                   : HEVC
Format/Info                              : High Efficiency Video Coding
Format profile                           : Main [email protected]@Main
Codec ID                                 : V_MPEGH/ISO/HEVC
Duration                                 : 57 min 38 s
Bit rate                                 : 4 358 kb/s
Width                                    : 1 920 pixels
Height                                   : 1 080 pixels
Display aspect ratio                     : 16:9
Frame rate mode                          : Constant
Frame rate                               : 23.976 (24000/1001) FPS
Color space                              : YUV
Chroma subsampling                       : 4:2:0
Bit depth                                : 10 bits
Bits/(Pixel*Frame)                       : 0.088
Stream size                              : 1.75 GiB (83%)
Writing library                          : x265 2.5+9-fdf39a97ecb8:[Windows][MSVC 1910][64 bit] 10bit
Encoding settings                        : cpuid=1173503 / frame-threads=3 / numa-pools=8 / wpp / no-pmode / no-pme / no-psnr / no-ssim / log-level=2 / input-csp=1 / input-res=1920x1080 / interlace=0 / total-frames=82931 / level-idc=0 / high-tier=1 / uhd-bd=0 / ref=5 / no-allow-non-conformance / no-repeat-headers / annexb / no-aud / no-hrd / info / hash=0 / no-temporal-layers / open-gop / min-keyint=23 / keyint=250 / bframes=8 / b-adapt=2 / b-pyramid / bframe-bias=0 / rc-lookahead=80 / lookahead-slices=4 / scenecut=40 / no-intra-refresh / ctu=64 / min-cu-size=8 / rect / no-amp / max-tu-size=32 / tu-inter-depth=1 / tu-intra-depth=1 / limit-tu=0 / rdoq-level=2 / dynamic-rd=0.00 / no-ssim-rd / signhide / no-tskip / nr-intra=0 / nr-inter=0 / no-constrained-intra / strong-intra-smoothing / max-merge=3 / limit-refs=3 / limit-modes / me=3 / subme=5 / merange=57 / temporal-mvp / weightp / weightb / no-analyze-src-pics / deblock=-3:-3 / no-sao / no-sao-non-deblock / rd=4 / no-early-skip / no-rskip / no-fast-intra / no-tskip-fast / no-cu-lossless / no-b-intra / rdpenalty=0 / psy-rd=1.50 / psy-rdoq=1.80 / no-rd-refine / analysis-reuse-mode=0 / no-lossless / cbqpoffs=0 / crqpoffs=0 / rc=crf / crf=20.0 / qcomp=0.60 / qpstep=4 / stats-write=0 / stats-read=0 / ipratio=1.40 / pbratio=1.30 / aq-mode=3 / aq-strength=1.00 / cutree / zone-count=0 / no-strict-cbr / qg-size=32 / no-rc-grain / qpmax=69 / qpmin=0 / no-const-vbv / sar=0 / overscan=0 / videoformat=5 / range=0 / colorprim=2 / transfer=2 / colormatrix=2 / chromaloc=0 / display-window=0 / max-cll=0,0 / min-luma=0 / max-luma=1023 / log2-max-poc-lsb=8 / vui-timing-info / vui-hrd-info / slices=1 / opt-qp-pps / opt-ref-list-length-pps / no-multi-pass-opt-rps / scenecut-bias=0.05 / no-opt-cu-delta-qp / no-aq-motion / no-hdr / no-hdr-opt / no-dhdr10-opt / analysis-reuse-level=5 / scale-factor=0 / refine-intra=0 / refine-inter=0 / refine-mv=0 / no-limit-sao / ctu-info=0
Language                                 : English
Default                                  : Yes
Forced                                   : No


Audio #1

ID                                       : 2
Format                                   : AAC
Format/Info                              : Advanced Audio Codec
Format profile                           : LC
Codec ID                                 : A_AAC
Duration                                 : 57 min 38 s
Bit rate                                 : 384 kb/s
Channel(s)                               : 6 channels
Channel positions                        : Front: L C R, Side: L R, LFE
Sampling rate                            : 48.0 kHz
Frame rate                               : 46.875 FPS (1024 spf)
Compression mode                         : Lossy
Delay relative to video                  : 20 ms
Stream size                              : 156 MiB (7%)
Language                                 : English
Default                                  : Yes
Forced                                   : No


Audio #2

ID                                       : 3
Format                                   : AAC
Format/Info                              : Advanced Audio Codec
Format profile                           : HE-AAC / LC
Codec ID                                 : A_AAC
Duration                                 : 57 min 38 s
Bit rate                                 : 192 kb/s
Channel(s)                               : 6 channels
Channel positions                        : Front: L C R, Side: L R, LFE
Sampling rate                            : 48.0 kHz / 24.0 kHz
Frame rate                               : 23.438 FPS (1024 spf)
Compression mode                         : Lossy
Delay relative to video                  : 40 ms
Stream size                              : 79.2 MiB (4%)
Language                                 : French
Default                                  : No
Forced                                   : No


Audio #3

ID                                       : 4
Format                                   : AAC
Format/Info                              : Advanced Audio Codec
Format profile                           : HE-AAC / LC
Codec ID                                 : A_AAC
Duration                                 : 57 min 38 s
Bit rate                                 : 80.0 kb/s
Channel(s)                               : 2 channels
Channel positions                        : Front: L R
Sampling rate                            : 48.0 kHz / 24.0 kHz
Frame rate                               : 23.438 FPS (1024 spf)
Compression mode                         : Lossy
Delay relative to video                  : 40 ms
Stream size                              : 33.0 MiB (2%)
Language                                 : Spanish
Default                                  : No
Forced                                   : No


Audio #4

ID                                       : 5
Format                                   : AAC
Format/Info                              : Advanced Audio Codec
Format profile                           : HE-AAC / LC
Codec ID                                 : A_AAC
Duration                                 : 57 min 38 s
Bit rate                                 : 192 kb/s
Channel(s)                               : 6 channels
Channel positions                        : Front: L C R, Side: L R, LFE
Sampling rate                            : 48.0 kHz / 24.0 kHz
Frame rate                               : 23.438 FPS (1024 spf)
Compression mode                         : Lossy
Delay relative to video                  : 40 ms
Stream size                              : 79.2 MiB (4%)
Language                                 : German
Default                                  : No
Forced                                   : No


Text

ID                                       : 6
Format                                   : PGS
Muxing mode                              : zlib
Codec ID                                 : S_HDMV/PGS
Codec ID/Info                            : Picture based subtitle format used on BDs/HD-DVDs
Duration                                 : 56 min 17 s
Bit rate                                 : 32.1 kb/s
Count of elements                        : 1388
Stream size                              : 12.9 MiB (1%)
Language                                 : English
Default                                  : No
Forced                                   : No

Download

Download: Google Drive (14.58 GB)

7 thoughts on “Banshee (2013) Season 1-4 (1080p BDRip x265 HEVC 10bit AAC 5.1 UTR)

  1. What’s wrong with the links. I have tried to download everyday for over a week but it always says “Sorry, you can’t view or download this file at this time. Too many users have viewed or downloaded this file recently. Please try accessing the file again later.” Please fix the links.

  2. Idont know how to download I tried bunsh of methods none of them is working
    please tell me how to download via IDM

Leave a Reply