Band of Brothers (2001) Season 1 + Extras (1080p BluRay x265 HEVC 10bit AAC 5.1 afm72)

Plot: The series dramatizes the history of “Easy” Company, 2nd Battalion, 506th Parachute Infantry Regiment, of the 101st Airborne Division, from jump training in the United States through its participation in major actions in Europe, up until Japan’s capitulation and the end of World War II. The events are based on Ambrose’s research and recorded interviews with Easy Company veterans. The series took some literary license, adapting history for dramatic effect and series structure. The characters portrayed are based on members of Easy Company. Some of the men were recorded in contemporary interviews, which viewers see as preludes to several episodes, with the men’s real identities revealed in the finale.

Season 1

Band of Brothers (2001) + Extras Season 1 S01 (1080p BluRay x265 HEVC 10bit AAC 5.1 afm72)

Files

  • Band of Brothers (2001) – S01E01 – Currahee (1080p BluRay x265 afm72).mkv (4.2 GB)
  • Band of Brothers (2001) – S01E02 – Day of Days (1080p BluRay x265 afm72).mkv (3.3 GB)
  • Band of Brothers (2001) – S01E03 – Carentan (1080p BluRay x265 afm72).mkv (4.1 GB)
  • Band of Brothers (2001) – S01E04 – Replacements (1080p BluRay x265 afm72).mkv (3.3 GB)
  • Band of Brothers (2001) – S01E05 – Crossroads (1080p BluRay x265 afm72).mkv (3.6 GB)
  • Band of Brothers (2001) – S01E06 – Bastogne (1080p BluRay x265 afm72).mkv (3.8 GB)
  • Band of Brothers (2001) – S01E07 – The Breaking Point (1080p BluRay x265 afm72).mkv (5.6 GB)
  • Band of Brothers (2001) – S01E08 – The Last Patrol (1080p BluRay x265 afm72).mkv (3.7 GB)
  • Band of Brothers (2001) – S01E09 – Why We Fight (1080p BluRay x265 afm72).mkv (3.3 GB)
  • Band of Brothers (2001) – S01E10 – Points (1080p BluRay x265 afm72).mkv (3.8 GB)
  • Featurettes
    • 10 TV spots.mkv (308.3 MB)
    • Behind the Scenes – The Making of Band of Brothers.mkv (478.0 MB)
    • Disk 01 – Episode Summaries.mkv (59.3 MB)
    • Disk 02 – Episode Summaries.mkv (51.5 MB)
    • Disk 03 – Episode Summaries.mkv (55.5 MB)
    • Disk 04 – Episode Summaries.mkv (87.0 MB)
    • Disk 05 – Episode Summaries.mkv (79.8 MB)
    • Disk 06 – Episode Summaries.mkv (36.2 MB)
    • Premiere in Normandy.mkv (44.2 MB)
    • Ron Livingston’s Video Diaries.mkv (864.2 MB)
    • We Stand Alone Together – The Men of Easy Company.mkv (2.9 GB)

Mediainfo

General
Format : Matroska
Format version : Version 4 / Version 2
File size : 4.24 GiB
Duration : 1 h 13 min
Overall bit rate : 8 298 kb/s
Encoded date : UTC 2018-11-26 23:25:52
Writing application : mkvmerge v28.2.0 ('The Awakening') 64-bit
Writing library : libebml v1.3.6 + libmatroska v1.4.9
Writing frontend : StaxRip v1.9.0.0

Video
ID : 1
Format : HEVC
Format/Info : High Efficiency Video Coding
Format profile : Main [email protected]@Main
Codec ID : V_MPEGH/ISO/HEVC
Duration : 1 h 13 min
Bit rate : 7 682 kb/s
Width : 1 920 pixels
Height : 1 080 pixels
Display aspect ratio : 16:9
Frame rate mode : Constant
Frame rate : 23.976 (24000/1001) FPS
Color space : YUV
Chroma subsampling : 4:2:0
Bit depth : 10 bits
Bits/(Pixel*Frame) : 0.155
Stream size : 3.93 GiB (93%)
Writing library : x265 2.9+8-27d8424c799d:[Windows][GCC 8.2.0][64 bit] 10bit
Encoding settings : cpuid=1111039 / frame-threads=3 / numa-pools=8 / wpp / no-pmode / no-pme / no-psnr / no-ssim / log-level=2 / input-csp=1 / input-res=1920x1080 / interlace=0 / total-frames=105336 / level-idc=0 / high-tier=1 / uhd-bd=0 / ref=4 / no-allow-non-conformance / no-repeat-headers / annexb / no-aud / no-hrd / info / hash=0 / no-temporal-layers / open-gop / min-keyint=23 / keyint=250 / gop-lookahead=0 / bframes=8 / b-adapt=2 / b-pyramid / bframe-bias=0 / rc-lookahead=80 / lookahead-slices=4 / scenecut=40 / radl=0 / no-intra-refresh / ctu=64 / min-cu-size=8 / no-rect / no-amp / max-tu-size=32 / tu-inter-depth=1 / tu-intra-depth=1 / limit-tu=0 / rdoq-level=2 / dynamic-rd=0.00 / no-ssim-rd / signhide / no-tskip / nr-intra=0 / nr-inter=0 / no-constrained-intra / no-strong-intra-smoothing / max-merge=3 / limit-refs=3 / limit-modes / me=3 / subme=5 / merange=57 / temporal-mvp / weightp / no-weightb / no-analyze-src-pics / deblock=-3:-3 / no-sao / no-sao-non-deblock / rd=4 / no-early-skip / rskip / no-fast-intra / no-tskip-fast / no-cu-lossless / no-b-intra / no-splitrd-skip / rdpenalty=0 / psy-rd=2.00 / psy-rdoq=1.50 / no-rd-refine / no-lossless / cbqpoffs=0 / crqpoffs=0 / rc=crf / crf=21.0 / qcomp=0.60 / qpstep=4 / stats-write=0 / stats-read=0 / ipratio=1.40 / pbratio=1.30 / aq-mode=3 / aq-strength=1.00 / cutree / zone-count=0 / no-strict-cbr / qg-size=32 / no-rc-grain / qpmax=69 / qpmin=0 / no-const-vbv / sar=0 / overscan=0 / videoformat=5 / range=0 / colorprim=2 / transfer=2 / colormatrix=2 / chromaloc=0 / display-window=0 / max-cll=0,0 / min-luma=0 / max-luma=1023 / log2-max-poc-lsb=8 / vui-timing-info / vui-hrd-info / slices=1 / no-opt-qp-pps / no-opt-ref-list-length-pps / no-multi-pass-opt-rps / scenecut-bias=0.05 / no-opt-cu-delta-qp / no-aq-motion / no-hdr / no-hdr-opt / no-dhdr10-opt / no-idr-recovery-sei / analysis-reuse-level=5 / scale-factor=0 / refine-intra=0 / refine-inter=0 / refine-mv=0 / no-limit-sao / ctu-info=0 / no-lowpass-dct / refine-mv-type=0 / copy-pic=1 / max-ausize-factor=1.0 / no-dynamic-refine / no-single-sei
Default : Yes
Forced : No

Audio #1
ID : 2
Format : AAC
Format/Info : Advanced Audio Codec
Format profile : LC
Codec ID : A_AAC
Duration : 1 h 13 min
Bit rate : 482 kb/s
Channel(s) : 6 channels
Channel positions : Front: L C R, Side: L R, LFE
Sampling rate : 48.0 kHz
Frame rate : 46.875 FPS (1024 spf)
Compression mode : Lossy
Delay relative to video : 20 ms
Stream size : 252 MiB (6%)
Language : English
Default : Yes
Forced : No

Audio #2
ID : 3
Format : AAC
Format/Info : Advanced Audio Codec
Format profile : LC
Codec ID : A_AAC
Duration : 1 h 13 min
Bit rate : 92.0 kb/s
Channel(s) : 1 channel
Channel positions : Front: C
Sampling rate : 48.0 kHz
Frame rate : 46.875 FPS (1024 spf)
Compression mode : Lossy
Delay relative to video : 20 ms
Stream size : 48.2 MiB (1%)
Title : Audio commentary by the Easy Company veterans
Language : English
Default : No
Forced : No

Subtitle #1
ID : 4
Format : PGS
Muxing mode : zlib
Codec ID : S_HDMV/PGS
Codec ID/Info : Picture based subtitle format used on BDs/HD-DVDs
Duration : 1 h 5 min
Bit rate : 24.8 kb/s
Count of elements : 1834
Stream size : 11.6 MiB (0%)
Language : English
Default : No
Forced : No

Subtitle #2
ID : 5
Format : PGS
Muxing mode : zlib
Codec ID : S_HDMV/PGS
Codec ID/Info : Picture based subtitle format used on BDs/HD-DVDs
Duration : 1 h 13 min
Bit rate : 30.4 kb/s
Count of elements : 1518
Stream size : 15.9 MiB (0%)
Language : English
Default : No
Forced : No

Subtitle #3
ID : 6
Format : PGS
Muxing mode : zlib
Codec ID : S_HDMV/PGS
Codec ID/Info : Picture based subtitle format used on BDs/HD-DVDs
Duration : 1 h 13 min
Bit rate : 36.6 kb/s
Count of elements : 1700
Stream size : 19.1 MiB (0%)
Title : for audio commentary by the Easy Company veterans
Language : English
Default : No
Forced : No

Menu
00:00:00.000 : en:00:00:00.000
00:01:40.100 : en:00:01:40.100
00:04:03.743 : en:00:04:03.743
00:08:25.505 : en:00:08:25.505
00:23:43.631 : en:00:23:43.631
00:28:11.106 : en:00:28:11.106
00:33:34.846 : en:00:33:34.846
00:36:21.805 : en:00:36:21.805
00:52:15.132 : en:00:52:15.132
01:01:58.214 : en:01:01:58.214
01:10:06.202 : en:01:10:06.202

Screens

Download

Download: Google Drive (38.76 GB)

Extras: Google Drive

13 thoughts on “Band of Brothers (2001) Season 1 + Extras (1080p BluRay x265 HEVC 10bit AAC 5.1 afm72)

  1. The size is too big bro.. Can you post another Release?? Do you post HazMatt’s Releases??? I haven’t seen his releases here but would you be willing to post Band Of Brothers by HazMatt??? Along with Its Sequel Show ‘The Pacific’???

        1. Come on man.. Not this one…. Hey @Admin do whatever he wants but don’t post The Pacific in low Quality…..

          I WANT THE PACIFIC IN HQ QUALITY… THE ONE RELEASED BY afm72

    1. Eh, true. It’s all about bitrates however, might as well consider it close to a BluRay remux.
      Will see about different encodes later.

      1. Hi, this a great series that I couldn’t find anywhere else in this high quality and this site posting it here gives me hope that such marvels can be find at a later date but alas size is really too big. This is just a suggestion and you can do these encodes however you want but compromise with bitrates for size will be preferable to many rather than not being able to download at all with low data restriction and low disk space. This site feels like too high class for a middle class man. There are sites that gives almost same quality at low sizes but do not provide old content or serve request and if you follow the low size high quality rule you will definitely gain more popularity and downloads. I downloaded Marvel and DC movies from here and has clogged half my disk space. Please consider the suggestion and apologies if feels offended.
        Thanks again

        1. Understandable. I should probably upload lower size Joy/UTR releases more which have lesser size.
          However it’s already much uploading single version of a movie or tv show, atm it’s not possible to release multiple ones for same thing.

          1. that would be great..try uploading lesser size first for new content for a while to check if download frequency increases. There is this site which does it’s own encodes I think and does 4k hevc 10bit within 5gb and fhd hevc 10bit under 2gb and does multiple releases for single movies but less variety of content and no requests served. You both have unique qualities and bookmarked in my browsers. I will share you the link via mail. I think this site is still young comparatively with potential of its own community and You can get some tips there I guess.

Leave a Reply