Avatar The Last Airbender (2005) Season 1-3 (1080p AMZN WEB-DL x265 HEVC 10bit EAC3 2.0 RCVR)

Summary:  The world is divided into four elemental nations: The Northern and Southern Water Tribes, the Earth Kingdom, the Fire Nation, and the Air Nomads. The Avatar upholds the balance between the nations, but everything changed when the Fire Nation invaded. Only the Avatar, master of all four elements, can stop them. But when the world needs him most, he vanishes. A hundred years later Katara and Sokka discover the new Avatar, an airbender named Aang. Together they must help Aang master the elements and save the world.

S01

Season 1
Avatar The Last Airbender (2005) - S01E01 - The Boy in the Iceberg (1080p WEB-DL x265 RCVR).mkv (229.9 MB)
Avatar The Last Airbender (2005) - S01E02 - The Avatar Returns (1080p WEB-DL x265 RCVR).mkv (231.7 MB)
Avatar The Last Airbender (2005) - S01E03 - The Southern Air Temple (1080p WEB-DL x265 RCVR).mkv (233.7 MB)
Avatar The Last Airbender (2005) - S01E04 - The Warriors of Kyoshi (1080p WEB-DL x265 RCVR).mkv (231.7 MB)
Avatar The Last Airbender (2005) - S01E05 - The King of Omashu (1080p WEB-DL x265 RCVR).mkv (235.0 MB)
Avatar The Last Airbender (2005) - S01E06 - Imprisoned (1080p WEB-DL x265 RCVR).mkv (238.1 MB)
Avatar The Last Airbender (2005) - S01E07 - The Spirit World Winter Solstice (1) (1080p WEB-DL x265 RCVR).mkv (238.5 MB)
Avatar The Last Airbender (2005) - S01E08 - Avatar Roku Winter Solstice (2) (1080p WEB-DL x265 RCVR).mkv (230.5 MB)
Avatar The Last Airbender (2005) - S01E09 - The Waterbending Scroll (1080p WEB-DL x265 RCVR).mkv (238.7 MB)
Avatar The Last Airbender (2005) - S01E10 - Jet (1080p WEB-DL x265 RCVR).mkv (236.7 MB)
Avatar The Last Airbender (2005) - S01E11 - The Great Divide (1080p WEB-DL x265 RCVR).mkv (238.8 MB)
Avatar The Last Airbender (2005) - S01E12 - The Storm (1080p WEB-DL x265 RCVR).mkv (238.3 MB)
Avatar The Last Airbender (2005) - S01E13 - The Blue Spirit (1080p WEB-DL x265 RCVR).mkv (237.0 MB)
Avatar The Last Airbender (2005) - S01E14 - The Fortuneteller (1080p WEB-DL x265 RCVR).mkv (238.0 MB)
Avatar The Last Airbender (2005) - S01E15 - Bato of the Water Tribe (1080p WEB-DL x265 RCVR).mkv (237.7 MB)
Avatar The Last Airbender (2005) - S01E16 - The Deserter (1080p WEB-DL x265 RCVR).mkv (237.6 MB)
Avatar The Last Airbender (2005) - S01E17 - The Northern Air Temple (1080p WEB-DL x265 RCVR).mkv (236.5 MB)
Avatar The Last Airbender (2005) - S01E18 - The Waterbending Master (1080p WEB-DL x265 RCVR).mkv (238.2 MB)
Avatar The Last Airbender (2005) - S01E19 - The Siege of the North (1) (1080p WEB-DL x265 RCVR).mkv (237.5 MB)
Avatar The Last Airbender (2005) - S01E20 - The Siege of the North (2) (1080p WEB-DL x265 RCVR).mkv (242.5 MB)

S02

Season 2
Avatar The Last Airbender (2005) - S02E01 - The Avatar State (1080p WEB-DL x265 RCVR).mkv (238.3 MB)
Avatar The Last Airbender (2005) - S02E02 - The Cave of Two Lovers (1080p WEB-DL x265 RCVR).mkv (238.4 MB)
Avatar The Last Airbender (2005) - S02E03 - Return to Omashu (1080p WEB-DL x265 RCVR).mkv (237.7 MB)
Avatar The Last Airbender (2005) - S02E04 - The Swamp (1080p WEB-DL x265 RCVR).mkv (238.1 MB)
Avatar The Last Airbender (2005) - S02E05 - Avatar Day (1080p WEB-DL x265 RCVR).mkv (238.2 MB)
Avatar The Last Airbender (2005) - S02E06 - The Blind Bandit (1080p WEB-DL x265 RCVR).mkv (238.3 MB)
Avatar The Last Airbender (2005) - S02E07 - Zuko Alone (1080p WEB-DL x265 RCVR).mkv (238.3 MB)
Avatar The Last Airbender (2005) - S02E08 - The Chase (1080p WEB-DL x265 RCVR).mkv (238.7 MB)
Avatar The Last Airbender (2005) - S02E09 - Bitter Work (1080p WEB-DL x265 RCVR).mkv (238.1 MB)
Avatar The Last Airbender (2005) - S02E10 - The Library (1080p WEB-DL x265 RCVR).mkv (238.4 MB)
Avatar The Last Airbender (2005) - S02E11 - The Desert (1080p WEB-DL x265 RCVR).mkv (238.5 MB)
Avatar The Last Airbender (2005) - S02E12-E13 - The Serpent's Pass & The Drill (1080p WEB-DL x265 RCVR).mkv (458.4 MB)
Avatar The Last Airbender (2005) - S02E14 - City of Walls and Secrets (1080p WEB-DL x265 RCVR).mkv (238.7 MB)
Avatar The Last Airbender (2005) - S02E15 - The Tales of Ba Sing Se (1080p WEB-DL x265 RCVR).mkv (238.7 MB)
Avatar The Last Airbender (2005) - S02E16 - Appa's Lost Days (1080p WEB-DL x265 RCVR).mkv (238.0 MB)
Avatar The Last Airbender (2005) - S02E17 - Lake Laogai (1080p WEB-DL x265 RCVR).mkv (238.9 MB)
Avatar The Last Airbender (2005) - S02E18 - The Earth King (1080p WEB-DL x265 RCVR).mkv (238.6 MB)
Avatar The Last Airbender (2005) - S02E19-E20 - The Guru & The Crossroads of Destiny (1080p WEB-DL x265 RCVR).mkv (459.6 MB)

S03

Season 3
Avatar The Last Airbender (2005) - S03E01 - The Awakening (1080p WEB-DL x265 RCVR).mkv (238.6 MB)
Avatar The Last Airbender (2005) - S03E02 - The Headband (1080p WEB-DL x265 RCVR).mkv (238.6 MB)
Avatar The Last Airbender (2005) - S03E03 - The Painted Lady (1080p WEB-DL x265 RCVR).mkv (238.5 MB)
Avatar The Last Airbender (2005) - S03E04 - Sokka's Master (1080p WEB-DL x265 RCVR).mkv (238.4 MB)
Avatar The Last Airbender (2005) - S03E05 - The Beach (1080p WEB-DL x265 RCVR).mkv (238.3 MB)
Avatar The Last Airbender (2005) - S03E06 - The Avatar and the Firelord (1080p WEB-DL x265 RCVR).mkv (238.3 MB)
Avatar The Last Airbender (2005) - S03E07 - The Runaway (1080p WEB-DL x265 RCVR).mkv (238.0 MB)
Avatar The Last Airbender (2005) - S03E08 - The Puppetmaster (1080p WEB-DL x265 RCVR).mkv (237.7 MB)
Avatar The Last Airbender (2005) - S03E09 - Nightmares and Daydreams (1080p WEB-DL x265 RCVR).mkv (238.1 MB)
Avatar The Last Airbender (2005) - S03E10-E11 - The Day of Black Sun & The Day of Black Sun (1080p WEB-DL x265 RCVR).mkv (460.1 MB)
Avatar The Last Airbender (2005) - S03E12 - The Western Air Temple (1080p WEB-DL x265 RCVR).mkv (237.5 MB)
Avatar The Last Airbender (2005) - S03E13 - The Firebending Masters (1080p WEB-DL x265 RCVR).mkv (237.9 MB)
Avatar The Last Airbender (2005) - S03E14-E15 - The Boiling Rock (1080p WEB-DL x265 RCVR).mkv (444.9 MB)
Avatar The Last Airbender (2005) - S03E16 - The Southern Raiders (1080p WEB-DL x265 RCVR).mkv (235.7 MB)
Avatar The Last Airbender (2005) - S03E17 - The Ember Island Players (1080p WEB-DL x265 RCVR).mkv (238.3 MB)
Avatar The Last Airbender (2005) - S03E18-E21 - Sozin's Comet The Phoenix King - Sozin's Comet Avatar Aang (1080p WEB-DL x265 RCVR).mkv (895.4 MB)

Mediainfo

General 
Format : Matroska 
Format version : Version 4 / Version 2 
File size : 230 MiB 
Duration : 23 min 48 s 
Overall bit rate : 1 350 kb/s 
Encoded date : UTC 2018-01-27 04:32:03 
Writing application : mkvmerge v12.0.0 ('Trust / Lust') 64bit 
Writing library : libebml v1.3.4 + libmatroska v1.4.5 
Cover : Yes 
Attachments : cover.jpg 

Video 
ID : 1 
Format : HEVC 
Format/Info : High Efficiency Video Coding 
Format profile : Main [email protected]@Main 
Codec ID : V_MPEGH/ISO/HEVC 
Duration : 23 min 48 s 
Bit rate : 1 124 kb/s 
Width : 1 440 pixels 
Height : 1 080 pixels 
Display aspect ratio : 4:3 
Frame rate mode : Constant 
Frame rate : 23.976 (24000/1001) FPS 
Color space : YUV 
Chroma subsampling : 4:2:0 
Bit depth : 10 bits 
Bits/(Pixel*Frame) : 0.030 
Stream size : 191 MiB (83%) 
Writing library : x265 2.6+32-b763c22920f6:[Windows][MSVC 1900][64 bit] 10bit 
Encoding settings : cpuid=1173503 / frame-threads=3 / numa-pools=8 / wpp / no-pmode / no-pme / no-psnr / no-ssim / log-level=2 / input-csp=1 / input-res=1440x1080 / interlace=0 / total-frames=34238 / level-idc=0 / high-tier=1 / uhd-bd=0 / ref=4 / no-allow-non-conformance / no-repeat-headers / annexb / no-aud / no-hrd / info / hash=0 / no-temporal-layers / open-gop / min-keyint=23 / keyint=250 / gop-lookahead=0 / bframes=4 / b-adapt=2 / b-pyramid / bframe-bias=0 / rc-lookahead=80 / lookahead-slices=4 / scenecut=40 / radl=0 / no-intra-refresh / ctu=64 / min-cu-size=8 / rect / no-amp / max-tu-size=32 / tu-inter-depth=1 / tu-intra-depth=1 / limit-tu=0 / rdoq-level=1 / dynamic-rd=0.00 / no-ssim-rd / signhide / no-tskip / nr-intra=0 / nr-inter=0 / no-constrained-intra / no-strong-intra-smoothing / max-merge=3 / limit-refs=3 / limit-modes / me=3 / subme=3 / merange=57 / temporal-mvp / weightp / no-weightb / no-analyze-src-pics / deblock=-1:-1 / no-sao / no-sao-non-deblock / rd=4 / no-early-skip / rskip / no-fast-intra / no-tskip-fast / no-cu-lossless / no-b-intra / no-splitrd-skip / rdpenalty=0 / psy-rd=0.70 / psy-rdoq=1.00 / no-rd-refine / no-lossless / cbqpoffs=0 / crqpoffs=0 / rc=abr / bitrate=1125 / qcomp=0.60 / qpstep=4 / stats-write=0 / stats-read=2 / cplxblur=20.0 / qblur=0.5 / ipratio=1.40 / pbratio=1.30 / aq-mode=2 / aq-strength=0.55 / cutree / zone-count=0 / no-strict-cbr / qg-size=32 / no-rc-grain / qpmax=69 / qpmin=0 / no-const-vbv / sar=0 / overscan=0 / videoformat=5 / range=0 / colorprim=2 / transfer=2 / colormatrix=2 / chromaloc=0 / display-window=0 / max-cll=0,0 / min-luma=0 / max-luma=1023 / log2-max-poc-lsb=8 / vui-timing-info / vui-hrd-info / slices=1 / no-opt-qp-pps / no-opt-ref-list-length-pps / no-multi-pass-opt-rps / scenecut-bias=0.05 / no-opt-cu-delta-qp / no-aq-motion / no-hdr / no-hdr-opt / no-dhdr10-opt / analysis-reuse-level=5 / scale-factor=0 / refine-intra=0 / refine-inter=0 / refine-mv=0 / no-limit-sao / ctu-info=0 / no-lowpass-dct / refine-mv-type=0 / copy-pic=1 
Default : Yes 
Forced : No 

Audio 
ID : 2 
Format : E-AC-3 
Format/Info : Enhanced Audio Coding 3 
Format settings, Endianness : Big 
Codec ID : A_EAC3 
Duration : 23 min 47 s 
Bit rate mode : Constant 
Bit rate : 224 kb/s 
Channel(s) : 2 channels 
Channel positions : Front: L R 
Sampling rate : 48.0 kHz 
Frame rate : 187.500 FPS (256 spf) 
Compression mode : Lossy 
Stream size : 38.1 MiB (17%) 
Language : English 
Default : No 
Forced : No 

Subtitle 
ID : 3 
Format : UTF-8 
Codec ID : S_TEXT/UTF8 
Codec ID/Info : UTF-8 Plain Text 
Duration : 22 min 39 s 
Bit rate : 59 b/s 
Count of elements : 436 
Stream size : 9.93 KiB (0%) 
Language : English 
Default : No 
Forced : No

Screens

Download

Season 1: Google Drive

Season 2: Google Drive

Season 3: Google Drive

6 thoughts on “Avatar The Last Airbender (2005) Season 1-3 (1080p AMZN WEB-DL x265 HEVC 10bit EAC3 2.0 RCVR)

  1. I Cant download They Said

    “Sorry, you can’t view or download this file at this time.
    Too many users have viewed or downloaded this file recently. Please try accessing the file again later. If the file you are trying to access is particularly large or is shared with many people, it may take up to 24 hours to be able to view or download the file. If you still can’t access a file after 24 hours, contact your domain administrator.”

    Please Fix it

  2. hey i’m not able to acess any of your contnt it tells me quota exeeded after downloading just 1 2160p movie wich was like 4 rar files

  3. I Cant download They Said

    “Sorry, you can’t view or download this file at this time.
    Too many users have viewed or downloaded this file recently. Please try accessing the file again later. If the file you are trying to access is particularly large or is shared with many people, it may take up to 24 hours to be able to view or download the file. If you still can’t access a file after 24 hours, contact your domain administrator.”

    Please Fix it

Leave a Reply