Zindagi Na Milegi Dobara (2011) (1080p BluRay x265 HEVC 10bit AAC 5.1 Hindi Natty)

Info

Plot: Three friends decide to turn their fantasy vacation into reality after one of their number becomes engaged.

Encode

Zindagi Na Milegi Dobara 2011 in 1080p, encoded with x265 (HEVC) and AAC 5.1 Hindi Audio with multiple subtitles!
Encoded using the time consuming Slow Preset with 2 pass, 10 bit color at 3002 kbps, from Untouched Bluray Source, for the highest quality possible.

Source:

Untouched Bluray by Hon3yHD

Mediainfo

General 
Complete name : Zindagi Na Milegi Dobara 2011 1080p Bluray 10bit x265 5.1 AAC HEVC Natty.mkv 
Format : Matroska 
Format version : Version 4 / Version 2 
File size : 3.78 GiB 
Duration : 2 h 34 min 
Overall bit rate : 3 501 kb/s 
Movie name : Zindagi Na Milegi Dobara 
Encoded date : UTC 2017-10-23 22:31:14 
Writing application : mkvmerge v17.0.0 ('Be Ur Friend') 64-bit 
Writing library : libebml v1.3.5 + libmatroska v1.4.8 
Cover : Yes 
Attachments : cover.jpg 
Writing frontend : Natty 

Video 
ID : 1 
Format : HEVC 
Format/Info : High Efficiency Video Coding 
Format profile : Main [email protected]@Main 
Codec ID : V_MPEGH/ISO/HEVC 
Duration : 2 h 34 min 
Bit rate : 3 002 kb/s 
Width : 1 920 pixels 
Height : 824 pixels 
Display aspect ratio : 2.35:1 
Frame rate mode : Constant 
Frame rate : 24.000 FPS 
Color space : YUV 
Chroma subsampling : 4:2:0 
Bit depth : 10 bits 
Bits/(Pixel*Frame) : 0.079 
Stream size : 3.24 GiB (86%) 
Writing library : x265 2.5+27-0e168bdeb48b:[Windows][MSVC 1911][64 bit] 10bit 
Encoding settings : cpuid=1173503 / frame-threads=2 / numa-pools=4 / wpp / no-pmode / no-pme / no-psnr / no-ssim / log-level=2 / csvfn=D:\Encoding\ZNMD.2011\Zindagi_Na_Milegi_Dobara_t00_new.csv / csv-log-level=0 / input-csp=1 / input-res=1920x824 / interlace=0 / total-frames=222324 / level-idc=0 / high-tier=1 / uhd-bd=0 / ref=6 / no-allow-non-conformance / no-repeat-headers / annexb / no-aud / no-hrd / info / hash=0 / no-temporal-layers / open-gop / min-keyint=24 / keyint=400 / bframes=8 / b-adapt=2 / b-pyramid / bframe-bias=0 / rc-lookahead=100 / lookahead-slices=5 / scenecut=40 / no-intra-refresh / ctu=32 / min-cu-size=8 / no-rect / no-amp / max-tu-size=16 / tu-inter-depth=1 / tu-intra-depth=1 / limit-tu=0 / rdoq-level=2 / dynamic-rd=0.00 / no-ssim-rd / signhide / no-tskip / nr-intra=0 / nr-inter=0 / no-constrained-intra / no-strong-intra-smoothing / max-merge=2 / limit-refs=3 / limit-modes / me=3 / subme=5 / merange=57 / temporal-mvp / weightp / no-weightb / no-analyze-src-pics / deblock=-3:0 / no-sao / no-sao-non-deblock / rd=4 / no-early-skip / rskip / no-fast-intra / no-tskip-fast / no-cu-lossless / no-b-intra / no-splitrd-skip / rdpenalty=0 / psy-rd=2.00 / psy-rdoq=6.00 / no-rd-refine / analysis-reuse-mode=0 / no-lossless / cbqpoffs=0 / crqpoffs=0 / rc=abr / bitrate=3001 / qcomp=0.90 / qpstep=4 / stats-write=0 / stats-read=2 / cplxblur=20.0 / qblur=0.5 / ipratio=1.40 / pbratio=1.30 / aq-mode=3 / aq-strength=0.90 / cutree / zone-count=0 / no-strict-cbr / qg-size=16 / no-rc-grain / qpmax=69 / qpmin=0 / no-const-vbv / sar=0 / overscan=0 / videoformat=5 / range=1 / colorprim=1 / transfer=1 / colormatrix=1 / chromaloc=0 / display-window=0 / max-cll=0,0 / min-luma=0 / max-luma=1023 / log2-max-poc-lsb=8 / vui-timing-info / vui-hrd-info / slices=1 / opt-qp-pps / opt-ref-list-length-pps / multi-pass-opt-rps / scenecut-bias=0.05 / no-opt-cu-delta-qp / aq-motion / no-hdr / no-hdr-opt / no-dhdr10-opt / analysis-reuse-level=9 / scale-factor=0 / refine-intra=0 / refine-inter=0 / refine-mv=0 / no-limit-sao / ctu-info=0 
Default : Yes 
Forced : No 
Color range : Full 
Color primaries : BT.709 
Transfer characteristics : BT.709 
Matrix coefficients : BT.709 

Audio 
ID : 2 
Format : AAC 
Format/Info : Advanced Audio Codec 
Format profile : LC 
Codec ID : A_AAC 
Duration : 2 h 34 min 
Bit rate : 486 kb/s 
Channel(s) : 6 channels 
Channel positions : Front: L C R, Side: L R, LFE 
Sampling rate : 48.0 kHz 
Frame rate : 46.875 FPS (1024 SPF) 
Compression mode : Lossy 
Delay relative to video : 20 ms 
Stream size : 536 MiB (14%) 
Language : Hindi 
Default : No 
Forced : No 

Text 
ID : 3 
Format : PGS 
Muxing mode : zlib 
Codec ID : S_HDMV/PGS 
Codec ID/Info : Picture based subtitle format used on BDs/HD-DVDs 
Duration : 2 h 27 min 
Bit rate : 30.6 kb/s 
Count of elements : 3893 
Stream size : 32.3 MiB (1%) 
Language : English 
Default : No 
Forced : No

Download

File: Zindagi Na Milegi Dobara 2011 1080p Bluray 10bit x265 5.1 AAC HEVC Natty.mkv (3.8 GB)

Movie: Google Drive

5 thoughts on “Zindagi Na Milegi Dobara (2011) (1080p BluRay x265 HEVC 10bit AAC 5.1 Hindi Natty)

Leave a Reply