Transformers 5-Movie Collection (1080p BluRay x265 HEVC 10bit AAC 7.1 Q22 Joy)

Plot Summary:
A long time ago, far away on the planet of Cybertron, a war is being waged between the noble Autobots (led by the wise Optimus Prime) and the devious Decepticons (commanded by the dreaded Megatron) for control over the Allspark, a mystical talisman that would grant unlimited power to whoever possesses it. The Autobots managed to smuggle the Allspark off the planet, but Megatron blasts off in search of it. He eventually tracks it to the planet of Earth (circa 1850), but his reckless desire for power sends him right into the Arctic Ocean, and the sheer cold forces him into a paralyzed state. His body is later found by Captain Archibald Witwicky, but before going into a comatose state Megatron uses the last of his energy to engrave into the Captain’s glasses a map showing the location of the Allspark, and to send a transmission to Cybertron. Megatron is then carried away aboard the Captain’s ship. A century later, Captain Witwicky’s grandson Sam Witwicky (nicknamed Spike by his friends)

Movie

Transformers (2007) (1080p BluRay x265 HEVC 10bit AAC 7.1 Q22 Joy)

Encode

Source:

Release: Transformers.2007.2160p.UHD.BluRay.X265-IAMABLE.mkv (48.62 GBs)

Mediainfo

General
Format : Matroska
Format version : Version 4 / Version 2
File size : 5.20 GiB
Duration : 2 h 23 min
Overall bit rate : 5 191 kb/s
Movie name : Transformers 2007 (1080p x265 q22 FS72 Joy) [UTR]
Encoded date : UTC 2019-10-04 06:53:45
Writing application : mkvmerge v32.0.0 ('Astral Progressions') 64-bit
Writing library : libebml v1.3.7 + libmatroska v1.5.0
Cover : Yes
Attachments : cover.jpg
Writing frontend : StaxRip v2.0.2.0, Encoded by JoyBell

Video
ID : 1
Format : HEVC
Format/Info : High Efficiency Video Coding
Format profile : Main [email protected]@Main
Codec ID : V_MPEGH/ISO/HEVC
Duration : 2 h 23 min
Bit rate : 4 654 kb/s
Width : 1 920 pixels
Height : 800 pixels
Display aspect ratio : 2.40:1
Frame rate mode : Constant
Frame rate : 23.976 (24000/1001) FPS
Color space : YUV
Chroma subsampling : 4:2:0
Bit depth : 10 bits
Bits/(Pixel*Frame) : 0.126
Stream size : 4.66 GiB (90%)
Writing library : x265 3.0_Au+24-4217e691387c:[Windows][GCC 9.1.1][64 bit] 10bit
Encoding settings : rc=crf / crf=21.5000 / qcomp=0.60 / qpstep=4 / stats-write=0 / stats-read=0 / qpmax=69 / qpmin=0 / no-lossless / no-cu-lossless / no-hevc-aq / no-aq-motion / aq-mode=3 / aq-strength=1.00 / cbqpoffs=0 / crqpoffs=0 / ipratio=1.40 / pbratio=1.30 / psy-rd=0.00 / psy-rdoq=1.00 / deblock=-2:-2 / ref=4 / limit-refs=3 / limit-modes / bframes=8 / b-adapt=2 / bframe-bias=20 / b-pyramid / no-b-intra / weightp / no-weightb / keyint=250 / min-keyint=23 / rc-lookahead=80 / gop-lookahead=0 / scenecut=40 / scenecut-bias=0.05 / ctu=64 / min-cu-size=8 / me=3 / subme=5 / merange=57 / rd=4 / no-rd-refine / ssim-rd / dynamic-rd=0.00 / rdoq-level=2 / rdpenalty=0 / cutree / sao / no-limit-sao / sao-non-deblock / rect / no-amp / open-gop / max-tu-size=32 / tu-inter-depth=1 / tu-intra-depth=1 / limit-tu=0 / qg-size=32 / wpp / no-pmode / no-pme / no-psnr / ssim / no-tskip / constrained-intra / strong-intra-smoothing / max-merge=5 / nr-intra=0 / nr-inter=0 / input-csp=1 / input-res=1920x800 / interlace=0 / total-frames=206370 / level-idc=0 / high-tier=1cpuid=1111039 / frame-threads=3 / numa-pools=12 / log-level=2 / uhd-bd=0 / lookahead-slices=4 / radl=0 / no-splice / no-intra-refresh / signhide / temporal-mvp / no-analyze-src-pics / early-skip / rskip / no-fast-intra / no-tskip-fast / no-splitrd-skip / zone-count=0 / no-strict-cbr / no-rc-grain / no-const-vbv / no-allow-non-conformance / no-repeat-headers / annexb / no-aud / no-hrd / info / hash=0 / no-temporal-layers / sar=0 / overscan=0 / videoformat=5 / range=0 / colorprim=2 / transfer=2 / colormatrix=2 / chromaloc=0 / display-window=0 / max-cll=0,0 / min-luma=0 / max-luma=1023 / log2-max-poc-lsb=8 / vui-timing-info / vui-hrd-info / slices=1 / no-opt-qp-pps / no-opt-ref-list-length-pps / no-multi-pass-opt-rps / no-opt-cu-delta-qp / no-hdr / no-hdr-opt / no-dhdr10-opt / no-idr-recovery-sei / analysis-reuse-level=5 / scale-factor=0 / refine-intra=0 / refine-inter=0 / refine-mv=0 / refine-ctu-distortion=0 / ctu-info=0 / no-lowpass-dct / refine-analysis-type=0 / copy-pic=1 / max-ausize-factor=1.0 / no-dynamic-refine / no-single-sei / no-svt / qp-adaptation-range=1.00
Default : Yes
Forced : No

Audio #1
ID : 2
Format : AAC
Format/Info : Advanced Audio Codec
Format profile : LC
Codec ID : A_AAC
Duration : 2 h 23 min
Bit rate : 450 kb/s
Channel(s) : 8 channels
Channel positions : Front: L C R, Side: L R, Back: L R, LFE
Sampling rate : 48.0 kHz
Frame rate : 46.875 FPS (1024 spf)
Compression mode : Lossy
Delay relative to video : 9 ms
Stream size : 462 MiB (9%)
Language : English
Default : No
Forced : No

Audio #2
ID : 3
Format : AAC
Format/Info : Advanced Audio Codec
Format profile : HE-AAC / LC
Codec ID : A_AAC
Duration : 2 h 23 min
Bit rate : 48.0 kb/s
Channel(s) : 2 channels
Channel positions : Front: L R
Sampling rate : 48.0 kHz / 24.0 kHz
Frame rate : 23.438 FPS (1024 spf)
Compression mode : Lossy
Delay relative to video : 31 ms
Stream size : 49.4 MiB (1%)
Title : Commentary
Language : English
Default : No
Forced : No

Subtitle #1
ID : 4
Format : UTF-8
Codec ID : S_TEXT/UTF8
Codec ID/Info : UTF-8 Plain Text
Duration : 2 h 15 min
Bit rate : 71 b/s
Count of elements : 1855
Stream size : 70.5 KiB (0%)
Language : English
Default : No
Forced : No

Subtitle #2
ID : 5
Format : UTF-8
Codec ID : S_TEXT/UTF8
Codec ID/Info : UTF-8 Plain Text
Duration : 2 h 15 min
Bit rate : 71 b/s
Count of elements : 1833
Stream size : 70.5 KiB (0%)
Language : English
Default : No
Forced : No

Subtitle #3
ID : 6
Format : VobSub
Muxing mode : zlib
Codec ID : S_VOBSUB
Codec ID/Info : Picture based subtitle format used on DVDs
Duration : 2 h 15 min
Bit rate : 12.1 kb/s
Count of elements : 1833
Stream size : 11.7 MiB (0%)
Language : English
Default : No
Forced : No

Subtitle #4
ID : 7
Format : UTF-8
Codec ID : S_TEXT/UTF8
Codec ID/Info : UTF-8 Plain Text
Duration : 2 h 21 min
Bit rate : 72 b/s
Count of elements : 2031
Stream size : 75.1 KiB (0%)
Language : English
Default : No
Forced : No

Subtitle #5
ID : 8
Format : VobSub
Muxing mode : zlib
Codec ID : S_VOBSUB
Codec ID/Info : Picture based subtitle format used on DVDs
Duration : 2 h 21 min
Bit rate : 12.6 kb/s
Count of elements : 2031
Stream size : 12.8 MiB (0%)
Language : English
Default : No
Forced : No

Subtitle #6
ID : 9
Format : VobSub
Muxing mode : zlib
Codec ID : S_VOBSUB
Codec ID/Info : Picture based subtitle format used on DVDs
Duration : 2 h 15 min
Bit rate : 11.1 kb/s
Count of elements : 1872
Stream size : 10.8 MiB (0%)
Language : French
Default : No
Forced : No

Subtitle #7
ID : 10
Format : VobSub
Muxing mode : zlib
Codec ID : S_VOBSUB
Codec ID/Info : Picture based subtitle format used on DVDs
Duration : 2 h 15 min
Bit rate : 9 150 b/s
Count of elements : 1702
Stream size : 8.84 MiB (0%)
Language : Spanish
Default : No
Forced : No

Subtitle #8
ID : 11
Format : VobSub
Muxing mode : zlib
Codec ID : S_VOBSUB
Codec ID/Info : Picture based subtitle format used on DVDs
Duration : 2 h 15 min
Bit rate : 9 063 b/s
Count of elements : 1712
Stream size : 8.76 MiB (0%)
Language : Portuguese
Default : No
Forced : No

Subtitle #9
ID : 12
Format : UTF-8
Codec ID : S_TEXT/UTF8
Codec ID/Info : UTF-8 Plain Text
Duration : 2 h 15 min
Bit rate : 92 b/s
Count of elements : 1818
Stream size : 91.3 KiB (0%)
Language : Arabic
Default : No
Forced : No

Subtitle #10
ID : 13
Format : UTF-8
Codec ID : S_TEXT/UTF8
Codec ID/Info : UTF-8 Plain Text
Duration : 2 h 15 min
Bit rate : 46 b/s
Count of elements : 1144
Stream size : 46.2 KiB (0%)
Language : Danish
Default : No
Forced : No

Subtitle #11
ID : 14
Format : UTF-8
Codec ID : S_TEXT/UTF8
Codec ID/Info : UTF-8 Plain Text
Duration : 2 h 22 min
Bit rate : 38 b/s
Count of elements : 1470
Stream size : 40.2 KiB (0%)
Language : Dutch
Default : No
Forced : No

Subtitle #12
ID : 15
Format : UTF-8
Codec ID : S_TEXT/UTF8
Codec ID/Info : UTF-8 Plain Text
Duration : 2 h 14 min
Bit rate : 97 b/s
Count of elements : 1787
Stream size : 96.6 KiB (0%)
Language : Persian
Default : No
Forced : No

Subtitle #13
ID : 16
Format : UTF-8
Codec ID : S_TEXT/UTF8
Codec ID/Info : UTF-8 Plain Text
Duration : 2 h 15 min
Bit rate : 44 b/s
Count of elements : 1630
Stream size : 43.7 KiB (0%)
Language : Finnish
Default : No
Forced : No

Subtitle #14
ID : 17
Format : UTF-8
Codec ID : S_TEXT/UTF8
Codec ID/Info : UTF-8 Plain Text
Duration : 2 h 15 min
Bit rate : 76 b/s
Count of elements : 1873
Stream size : 75.8 KiB (0%)
Language : German
Default : No
Forced : No

Subtitle #15
ID : 18
Format : UTF-8
Codec ID : S_TEXT/UTF8
Codec ID/Info : UTF-8 Plain Text
Duration : 2 h 22 min
Bit rate : 74 b/s
Count of elements : 1550
Stream size : 77.4 KiB (0%)
Language : Greek
Default : No
Forced : No

Subtitle #16
ID : 19
Format : UTF-8
Codec ID : S_TEXT/UTF8
Codec ID/Info : UTF-8 Plain Text
Duration : 2 h 15 min
Bit rate : 82 b/s
Count of elements : 1588
Stream size : 82.5 KiB (0%)
Language : Hebrew
Default : No
Forced : No

Subtitle #17
ID : 20
Format : UTF-8
Codec ID : S_TEXT/UTF8
Codec ID/Info : UTF-8 Plain Text
Duration : 2 h 15 min
Bit rate : 60 b/s
Count of elements : 1752
Stream size : 59.6 KiB (0%)
Language : Indonesian
Default : No
Forced : No

Subtitle #18
ID : 21
Format : UTF-8
Codec ID : S_TEXT/UTF8
Codec ID/Info : UTF-8 Plain Text
Duration : 2 h 15 min
Bit rate : 62 b/s
Count of elements : 1875
Stream size : 62.2 KiB (0%)
Language : Italian
Default : No
Forced : No

Subtitle #19
ID : 22
Format : UTF-8
Codec ID : S_TEXT/UTF8
Codec ID/Info : UTF-8 Plain Text
Duration : 1 h 0 min
Bit rate : 47 b/s
Count of elements : 518
Stream size : 21.1 KiB (0%)
Language : Japanese
Default : No
Forced : No

Subtitle #20
ID : 23
Format : UTF-8
Codec ID : S_TEXT/UTF8
Codec ID/Info : UTF-8 Plain Text
Duration : 2 h 15 min
Bit rate : 45 b/s
Count of elements : 1680
Stream size : 44.6 KiB (0%)
Language : Norwegian
Default : No
Forced : No

Subtitle #21
ID : 24
Format : UTF-8
Codec ID : S_TEXT/UTF8
Codec ID/Info : UTF-8 Plain Text
Duration : 2 h 17 min
Bit rate : 113 b/s
Count of elements : 1859
Stream size : 115 KiB (0%)
Language : Russian
Default : No
Forced : No

Subtitle #22
ID : 25
Format : UTF-8
Codec ID : S_TEXT/UTF8
Codec ID/Info : UTF-8 Plain Text
Duration : 2 h 15 min
Bit rate : 49 b/s
Count of elements : 1653
Stream size : 49.0 KiB (0%)
Language : Swedish
Default : No
Forced : No

Subtitle #23
ID : 26
Format : UTF-8
Codec ID : S_TEXT/UTF8
Codec ID/Info : UTF-8 Plain Text
Duration : 2 h 16 min
Bit rate : 123 b/s
Count of elements : 1725
Stream size : 123 KiB (0%)
Language : Thai
Default : No
Forced : No

Subtitle #24
ID : 27
Format : UTF-8
Codec ID : S_TEXT/UTF8
Codec ID/Info : UTF-8 Plain Text
Duration : 2 h 15 min
Bit rate : 87 b/s
Count of elements : 1805
Stream size : 86.6 KiB (0%)
Language : Vietnamese
Default : No
Forced : No

Menu
00:00:00.000 : en:00:00:00.000
00:02:04.207 : en:00:02:04.207
00:08:54.033 : en:00:08:54.033
00:15:33.141 : en:00:15:33.141
00:22:20.881 : en:00:22:20.881
00:27:42.160 : en:00:27:42.160
00:33:24.878 : en:00:33:24.878
00:38:57.502 : en:00:38:57.502
00:45:13.419 : en:00:45:13.419
00:51:45.936 : en:00:51:45.936
00:58:44.187 : en:00:58:44.187
01:06:47.921 : en:01:06:47.921
01:11:53.059 : en:01:11:53.059
01:16:55.945 : en:01:16:55.945
01:23:36.845 : en:01:23:36.845
01:29:03.672 : en:01:29:03.672
01:36:28.241 : en:01:36:28.241
01:43:57.606 : en:01:43:57.606
01:49:45.245 : en:01:49:45.245
01:56:53.506 : en:01:56:53.506
02:03:09.382 : en:02:03:09.382
02:10:43.419 : en:02:10:43.419
02:15:01.802 : en:02:15:01.802

Download

File: Transformers 2007 (1080p x265 q22 FS72 Joy).mkv (5.2 GB)

Movie: Google Drive

Movie

Transformers Revenge of the Fallen (2009) 1080p BluRay x265 HEVC 10bit AAC 7.1 Q22 Joy)

Encode

Source:

Release: Transformers.Revenge.of.the.Fallen.2009.2160p.UHD.BluRay.x265-TERMiNAL.mkv (45.87 GBs)

Mediainfo

General
Format : Matroska
Format version : Version 4 / Version 2
File size : 5.69 GiB
Duration : 2 h 29 min
Overall bit rate : 5 433 kb/s
Movie name : Transformers Revenge of the Fallen 2009 (1080p x265 q22 FS76 Joy) [UTR]
Encoded date : UTC 2019-10-04 07:59:14
Writing application : mkvmerge v32.0.0 ('Astral Progressions') 64-bit
Writing library : libebml v1.3.7 + libmatroska v1.5.0
Cover : Yes
Attachments : cover.jpg
Writing frontend : StaxRip v2.0.2.0, Encoded by JoyBell

Video
ID : 1
Format : HEVC
Format/Info : High Efficiency Video Coding
Format profile : Main [email protected]@Main
Codec ID : V_MPEGH/ISO/HEVC
Duration : 2 h 29 min
Bit rate : 4 904 kb/s
Width : 1 920 pixels
Height : 800 pixels
Display aspect ratio : 2.40:1
Frame rate mode : Constant
Frame rate : 23.976 (24000/1001) FPS
Color space : YUV
Chroma subsampling : 4:2:0
Bit depth : 10 bits
Bits/(Pixel*Frame) : 0.133
Stream size : 5.13 GiB (90%)
Writing library : x265 3.0_Au+24-4217e691387c:[Windows][GCC 9.1.1][64 bit] 10bit
Encoding settings : rc=crf / crf=21.5000 / qcomp=0.60 / qpstep=4 / stats-write=0 / stats-read=0 / qpmax=69 / qpmin=0 / no-lossless / no-cu-lossless / no-hevc-aq / no-aq-motion / aq-mode=3 / aq-strength=1.00 / cbqpoffs=0 / crqpoffs=0 / ipratio=1.40 / pbratio=1.30 / psy-rd=0.00 / psy-rdoq=1.00 / deblock=-2:-2 / ref=4 / limit-refs=3 / limit-modes / bframes=8 / b-adapt=2 / bframe-bias=20 / b-pyramid / no-b-intra / weightp / no-weightb / keyint=250 / min-keyint=23 / rc-lookahead=80 / gop-lookahead=0 / scenecut=40 / scenecut-bias=0.05 / ctu=64 / min-cu-size=8 / me=3 / subme=5 / merange=57 / rd=4 / no-rd-refine / ssim-rd / dynamic-rd=0.00 / rdoq-level=2 / rdpenalty=0 / cutree / sao / no-limit-sao / sao-non-deblock / rect / no-amp / open-gop / max-tu-size=32 / tu-inter-depth=1 / tu-intra-depth=1 / limit-tu=0 / qg-size=32 / wpp / no-pmode / no-pme / no-psnr / ssim / no-tskip / constrained-intra / strong-intra-smoothing / max-merge=5 / nr-intra=0 / nr-inter=0 / input-csp=1 / input-res=1920x800 / interlace=0 / total-frames=215617 / level-idc=0 / high-tier=1cpuid=1111039 / frame-threads=3 / numa-pools=12 / log-level=2 / uhd-bd=0 / lookahead-slices=4 / radl=0 / no-splice / no-intra-refresh / signhide / temporal-mvp / no-analyze-src-pics / early-skip / rskip / no-fast-intra / no-tskip-fast / no-splitrd-skip / zone-count=0 / no-strict-cbr / no-rc-grain / no-const-vbv / no-allow-non-conformance / no-repeat-headers / annexb / no-aud / no-hrd / info / hash=0 / no-temporal-layers / sar=0 / overscan=0 / videoformat=5 / range=0 / colorprim=2 / transfer=2 / colormatrix=2 / chromaloc=0 / display-window=0 / max-cll=0,0 / min-luma=0 / max-luma=1023 / log2-max-poc-lsb=8 / vui-timing-info / vui-hrd-info / slices=1 / no-opt-qp-pps / no-opt-ref-list-length-pps / no-multi-pass-opt-rps / no-opt-cu-delta-qp / no-hdr / no-hdr-opt / no-dhdr10-opt / no-idr-recovery-sei / analysis-reuse-level=5 / scale-factor=0 / refine-intra=0 / refine-inter=0 / refine-mv=0 / refine-ctu-distortion=0 / ctu-info=0 / no-lowpass-dct / refine-analysis-type=0 / copy-pic=1 / max-ausize-factor=1.0 / no-dynamic-refine / no-single-sei / no-svt / qp-adaptation-range=1.00
Default : Yes
Forced : No

Audio #1
ID : 2
Format : AAC
Format/Info : Advanced Audio Codec
Format profile : LC
Codec ID : A_AAC
Duration : 2 h 29 min
Bit rate : 439 kb/s
Channel(s) : 8 channels
Channel positions : Front: L C R, Side: L R, Back: L R, LFE
Sampling rate : 48.0 kHz
Frame rate : 46.875 FPS (1024 spf)
Compression mode : Lossy
Delay relative to video : 9 ms
Stream size : 471 MiB (8%)
Language : English
Default : No
Forced : No

Audio #2
ID : 3
Format : AAC
Format/Info : Advanced Audio Codec
Format profile : HE-AAC / LC
Codec ID : A_AAC
Duration : 2 h 29 min
Bit rate : 48.0 kb/s
Channel(s) : 2 channels
Channel positions : Front: L R
Sampling rate : 48.0 kHz / 24.0 kHz
Frame rate : 23.438 FPS (1024 spf)
Compression mode : Lossy
Delay relative to video : 31 ms
Stream size : 50.1 MiB (1%)
Title : Commentary
Language : English
Default : No
Forced : No

Subtitle #1
ID : 4
Format : PGS
Muxing mode : zlib
Codec ID : S_HDMV/PGS
Codec ID/Info : Picture based subtitle format used on BDs/HD-DVDs
Duration : 2 h 21 min
Bit rate : 41.9 kb/s
Count of elements : 3692
Stream size : 42.5 MiB (1%)
Language : English
Default : No
Forced : No

Subtitle #2
ID : 5
Format : VobSub
Muxing mode : zlib
Codec ID : S_VOBSUB
Codec ID/Info : Picture based subtitle format used on DVDs
Duration : 2 h 21 min
Bit rate : 13.0 kb/s
Count of elements : 1977
Stream size : 13.2 MiB (0%)
Language : English
Default : No
Forced : No

Subtitle #3
ID : 6
Format : VobSub
Muxing mode : zlib
Codec ID : S_VOBSUB
Codec ID/Info : Picture based subtitle format used on DVDs
Duration : 2 h 21 min
Bit rate : 11.3 kb/s
Count of elements : 1868
Stream size : 11.4 MiB (0%)
Language : French
Default : No
Forced : No

Subtitle #4
ID : 7
Format : VobSub
Muxing mode : zlib
Codec ID : S_VOBSUB
Codec ID/Info : Picture based subtitle format used on DVDs
Duration : 2 h 22 min
Bit rate : 9 617 b/s
Count of elements : 1813
Stream size : 9.81 MiB (0%)
Language : Spanish
Default : No
Forced : No

Subtitle #5
ID : 8
Format : VobSub
Muxing mode : zlib
Codec ID : S_VOBSUB
Codec ID/Info : Picture based subtitle format used on DVDs
Duration : 2 h 21 min
Bit rate : 9 717 b/s
Count of elements : 1832
Stream size : 9.86 MiB (0%)
Language : Portuguese
Default : No
Forced : No

Subtitle #6
ID : 9
Format : UTF-8
Codec ID : S_TEXT/UTF8
Codec ID/Info : UTF-8 Plain Text
Duration : 2 h 21 min
Bit rate : 95 b/s
Count of elements : 2066
Stream size : 99.6 KiB (0%)
Language : Arabic
Default : No
Forced : No

Subtitle #7
ID : 10
Format : UTF-8
Codec ID : S_TEXT/UTF8
Codec ID/Info : UTF-8 Plain Text
Duration : 2 h 26 min
Bit rate : 57 b/s
Count of elements : 2399
Stream size : 61.3 KiB (0%)
Language : Chinese
Default : No
Forced : No

Subtitle #8
ID : 11
Format : UTF-8
Codec ID : S_TEXT/UTF8
Codec ID/Info : UTF-8 Plain Text
Duration : 2 h 28 min
Bit rate : 52 b/s
Count of elements : 1757
Stream size : 57.2 KiB (0%)
Language : Czech
Default : No
Forced : No

Subtitle #9
ID : 12
Format : UTF-8
Codec ID : S_TEXT/UTF8
Codec ID/Info : UTF-8 Plain Text
Duration : 2 h 21 min
Bit rate : 73 b/s
Count of elements : 2081
Stream size : 75.7 KiB (0%)
Language : Danish
Default : No
Forced : No

Subtitle #10
ID : 13
Format : UTF-8
Codec ID : S_TEXT/UTF8
Codec ID/Info : UTF-8 Plain Text
Duration : 2 h 21 min
Bit rate : 43 b/s
Count of elements : 1478
Stream size : 45.5 KiB (0%)
Language : Dutch
Default : No
Forced : No

Subtitle #11
ID : 14
Format : UTF-8
Codec ID : S_TEXT/UTF8
Codec ID/Info : UTF-8 Plain Text
Duration : 2 h 21 min
Bit rate : 90 b/s
Count of elements : 2100
Stream size : 94.3 KiB (0%)
Language : Persian
Default : No
Forced : No

Subtitle #12
ID : 15
Format : UTF-8
Codec ID : S_TEXT/UTF8
Codec ID/Info : UTF-8 Plain Text
Duration : 2 h 21 min
Bit rate : 49 b/s
Count of elements : 1694
Stream size : 51.0 KiB (0%)
Language : Finnish
Default : No
Forced : No

Subtitle #13
ID : 16
Format : UTF-8
Codec ID : S_TEXT/UTF8
Codec ID/Info : UTF-8 Plain Text
Duration : 2 h 24 min
Bit rate : 124 b/s
Count of elements : 1700
Stream size : 132 KiB (0%)
Language : Greek
Default : No
Forced : No

Subtitle #14
ID : 17
Format : UTF-8
Codec ID : S_TEXT/UTF8
Codec ID/Info : UTF-8 Plain Text
Duration : 2 h 21 min
Bit rate : 95 b/s
Count of elements : 1995
Stream size : 98.7 KiB (0%)
Language : Hebrew
Default : No
Forced : No

Subtitle #15
ID : 18
Format : UTF-8
Codec ID : S_TEXT/UTF8
Codec ID/Info : UTF-8 Plain Text
Duration : 2 h 21 min
Bit rate : 73 b/s
Count of elements : 2061
Stream size : 75.6 KiB (0%)
Language : Japanese
Default : No
Forced : No

Subtitle #16
ID : 19
Format : UTF-8
Codec ID : S_TEXT/UTF8
Codec ID/Info : UTF-8 Plain Text
Duration : 2 h 23 min
Bit rate : 67 b/s
Count of elements : 2100
Stream size : 71.0 KiB (0%)
Language : Indonesian
Default : No
Forced : No

Subtitle #17
ID : 20
Format : UTF-8
Codec ID : S_TEXT/UTF8
Codec ID/Info : UTF-8 Plain Text
Duration : 2 h 21 min
Bit rate : 67 b/s
Count of elements : 1866
Stream size : 70.6 KiB (0%)
Language : Italian
Default : No
Forced : No

Subtitle #18
ID : 21
Format : UTF-8
Codec ID : S_TEXT/UTF8
Codec ID/Info : UTF-8 Plain Text
Duration : 2 h 21 min
Bit rate : 48 b/s
Count of elements : 1762
Stream size : 50.8 KiB (0%)
Language : Norwegian
Default : No
Forced : No

Subtitle #19
ID : 22
Format : UTF-8
Codec ID : S_TEXT/UTF8
Codec ID/Info : UTF-8 Plain Text
Duration : 2 h 21 min
Bit rate : 59 b/s
Count of elements : 1551
Stream size : 61.9 KiB (0%)
Language : Swedish
Default : No
Forced : No

Subtitle #20
ID : 23
Format : UTF-8
Codec ID : S_TEXT/UTF8
Codec ID/Info : UTF-8 Plain Text
Duration : 2 h 28 min
Bit rate : 127 b/s
Count of elements : 1814
Stream size : 139 KiB (0%)
Language : Thai
Default : No
Forced : No

Subtitle #21
ID : 24
Format : UTF-8
Codec ID : S_TEXT/UTF8
Codec ID/Info : UTF-8 Plain Text
Duration : 2 h 22 min
Bit rate : 88 b/s
Count of elements : 1839
Stream size : 92.0 KiB (0%)
Language : Vietnamese
Default : No
Forced : No

Menu
00:00:00.000 : en:00:00:00.000
00:08:49.279 : en:00:08:49.279
00:14:52.642 : en:00:14:52.642
00:18:18.014 : en:00:18:18.014
00:25:07.631 : en:00:25:07.631
00:33:00.520 : en:00:33:00.520
00:37:07.767 : en:00:37:07.767
00:43:33.653 : en:00:43:33.653
00:54:56.543 : en:00:54:56.543
01:03:23.883 : en:01:03:23.883
01:12:26.008 : en:01:12:26.008
01:20:12.182 : en:01:20:12.182
01:26:35.065 : en:01:26:35.065
01:35:41.152 : en:01:35:41.152
01:44:54.079 : en:01:44:54.079
01:50:34.711 : en:01:50:34.711
01:59:01.801 : en:01:59:01.801
02:07:13.709 : en:02:07:13.709
02:15:05.306 : en:02:15:05.306
02:22:14.818 : en:02:22:14.818

Download

File: Transformers Revenge of the Fallen 2009 (1080p x265 q22 FS76 Joy).mkv (5.7 GB)

Movie: Google Drive

Movie

Transformers Dark of the Moon (2011) (1080p BluRay x265 HEVC 10bit AAC 7.1 Q22 Joy)

Encode

Source:

Release: Transformers.Dark.of.the.Moon.2011.2160p.UHD.BluRay.X265-IAMABLE.mkv (46.72 GBs)

Mediainfo

General
Format : Matroska
Format version : Version 4 / Version 2
File size : 5.86 GiB
Duration : 2 h 34 min
Overall bit rate : 5 431 kb/s
Movie name : Transformers Dark of the Moon 2011 (1080p x265 q22 FS 78 Joy) [UTR]
Encoded date : UTC 2019-10-04 08:21:20
Writing application : mkvmerge v32.0.0 ('Astral Progressions') 64-bit
Writing library : libebml v1.3.7 + libmatroska v1.5.0
Cover : Yes
Attachments : cover.jpg
Writing frontend : StaxRip v2.0.2.0, Encoded by JoyBell

Video
ID : 1
Format : HEVC
Format/Info : High Efficiency Video Coding
Format profile : Main [email protected]@Main
Codec ID : V_MPEGH/ISO/HEVC
Duration : 2 h 34 min
Bit rate : 4 825 kb/s
Width : 1 920 pixels
Height : 800 pixels
Display aspect ratio : 2.40:1
Frame rate mode : Constant
Frame rate : 23.976 (24000/1001) FPS
Color space : YUV
Chroma subsampling : 4:2:0
Bit depth : 10 bits
Bits/(Pixel*Frame) : 0.131
Stream size : 5.20 GiB (89%)
Writing library : x265 3.0_Au+24-4217e691387c:[Windows][GCC 9.1.1][64 bit] 10bit
Encoding settings : rc=crf / crf=21.5000 / qcomp=0.60 / qpstep=4 / stats-write=0 / stats-read=0 / qpmax=69 / qpmin=0 / no-lossless / no-cu-lossless / no-hevc-aq / no-aq-motion / aq-mode=3 / aq-strength=1.00 / cbqpoffs=0 / crqpoffs=0 / ipratio=1.40 / pbratio=1.30 / psy-rd=0.00 / psy-rdoq=1.00 / deblock=-2:-2 / ref=4 / limit-refs=3 / limit-modes / bframes=8 / b-adapt=2 / bframe-bias=20 / b-pyramid / no-b-intra / weightp / no-weightb / keyint=250 / min-keyint=23 / rc-lookahead=80 / gop-lookahead=0 / scenecut=40 / scenecut-bias=0.05 / ctu=64 / min-cu-size=8 / me=3 / subme=5 / merange=57 / rd=4 / no-rd-refine / ssim-rd / dynamic-rd=0.00 / rdoq-level=2 / rdpenalty=0 / cutree / sao / no-limit-sao / sao-non-deblock / rect / no-amp / open-gop / max-tu-size=32 / tu-inter-depth=1 / tu-intra-depth=1 / limit-tu=0 / qg-size=32 / wpp / no-pmode / no-pme / no-psnr / ssim / no-tskip / constrained-intra / strong-intra-smoothing / max-merge=5 / nr-intra=0 / nr-inter=0 / input-csp=1 / input-res=1920x800 / interlace=0 / total-frames=222097 / level-idc=0 / high-tier=1cpuid=1111039 / frame-threads=3 / numa-pools=12 / log-level=2 / uhd-bd=0 / lookahead-slices=4 / radl=0 / no-splice / no-intra-refresh / signhide / temporal-mvp / no-analyze-src-pics / early-skip / rskip / no-fast-intra / no-tskip-fast / no-splitrd-skip / zone-count=0 / no-strict-cbr / no-rc-grain / no-const-vbv / no-allow-non-conformance / no-repeat-headers / annexb / no-aud / no-hrd / info / hash=0 / no-temporal-layers / sar=0 / overscan=0 / videoformat=5 / range=0 / colorprim=2 / transfer=2 / colormatrix=2 / chromaloc=0 / display-window=0 / max-cll=0,0 / min-luma=0 / max-luma=1023 / log2-max-poc-lsb=8 / vui-timing-info / vui-hrd-info / slices=1 / no-opt-qp-pps / no-opt-ref-list-length-pps / no-multi-pass-opt-rps / no-opt-cu-delta-qp / no-hdr / no-hdr-opt / no-dhdr10-opt / no-idr-recovery-sei / analysis-reuse-level=5 / scale-factor=0 / refine-intra=0 / refine-inter=0 / refine-mv=0 / refine-ctu-distortion=0 / ctu-info=0 / no-lowpass-dct / refine-analysis-type=0 / copy-pic=1 / max-ausize-factor=1.0 / no-dynamic-refine / no-single-sei / no-svt / qp-adaptation-range=1.00
Default : Yes
Forced : No

Audio
ID : 2
Format : AAC
Format/Info : Advanced Audio Codec
Format profile : LC
Codec ID : A_AAC
Duration : 2 h 34 min
Bit rate : 449 kb/s
Channel(s) : 8 channels
Channel positions : Front: L C R, Side: L R, Back: L R, LFE
Sampling rate : 48.0 kHz
Frame rate : 46.875 FPS (1024 spf)
Compression mode : Lossy
Delay relative to video : 9 ms
Stream size : 496 MiB (8%)
Language : English
Default : No
Forced : No

Subtitle #1
ID : 3
Format : UTF-8
Codec ID : S_TEXT/UTF8
Codec ID/Info : UTF-8 Plain Text
Duration : 2 h 25 min
Bit rate : 68 b/s
Count of elements : 2104
Stream size : 73.5 KiB (0%)
Language : English
Default : No
Forced : No

Subtitle #2
ID : 4
Format : UTF-8
Codec ID : S_TEXT/UTF8
Codec ID/Info : UTF-8 Plain Text
Duration : 2 h 25 min
Bit rate : 68 b/s
Count of elements : 2067
Stream size : 73.1 KiB (0%)
Language : English
Default : No
Forced : No

Subtitle #3
ID : 5
Format : VobSub
Muxing mode : zlib
Codec ID : S_VOBSUB
Codec ID/Info : Picture based subtitle format used on DVDs
Duration : 2 h 25 min
Bit rate : 11.8 kb/s
Count of elements : 2068
Stream size : 12.3 MiB (0%)
Language : English
Default : No
Forced : No

Subtitle #4
ID : 6
Format : UTF-8
Codec ID : S_TEXT/UTF8
Codec ID/Info : UTF-8 Plain Text
Duration : 2 h 29 min
Bit rate : 71 b/s
Count of elements : 2328
Stream size : 78.8 KiB (0%)
Language : English
Default : No
Forced : No

Subtitle #5
ID : 7
Format : VobSub
Muxing mode : zlib
Codec ID : S_VOBSUB
Codec ID/Info : Picture based subtitle format used on DVDs
Duration : 2 h 29 min
Bit rate : 12.7 kb/s
Count of elements : 2329
Stream size : 13.6 MiB (0%)
Language : English
Default : No
Forced : No

Subtitle #6
ID : 8
Format : VobSub
Muxing mode : zlib
Codec ID : S_VOBSUB
Codec ID/Info : Picture based subtitle format used on DVDs
Duration : 2 h 33 min
Bit rate : 8 538 b/s
Count of elements : 1877
Stream size : 9.38 MiB (0%)
Language : French
Default : No
Forced : No

Subtitle #7
ID : 9
Format : VobSub
Muxing mode : zlib
Codec ID : S_VOBSUB
Codec ID/Info : Picture based subtitle format used on DVDs
Duration : 2 h 33 min
Bit rate : 10.1 kb/s
Count of elements : 1904
Stream size : 11.1 MiB (0%)
Language : Spanish
Default : No
Forced : No

Subtitle #8
ID : 10
Format : VobSub
Muxing mode : zlib
Codec ID : S_VOBSUB
Codec ID/Info : Picture based subtitle format used on DVDs
Duration : 2 h 33 min
Bit rate : 9 702 b/s
Count of elements : 1852
Stream size : 10.7 MiB (0%)
Language : Portuguese
Default : No
Forced : No

Subtitle #9
ID : 11
Format : VobSub
Muxing mode : zlib
Codec ID : S_VOBSUB
Codec ID/Info : Picture based subtitle format used on DVDs
Duration : 2 h 33 min
Bit rate : 9 437 b/s
Count of elements : 1896
Stream size : 10.4 MiB (0%)
Language : Italian
Default : No
Forced : No

Subtitle #10
ID : 12
Format : VobSub
Muxing mode : zlib
Codec ID : S_VOBSUB
Codec ID/Info : Picture based subtitle format used on DVDs
Duration : 2 h 33 min
Bit rate : 11.6 kb/s
Count of elements : 2081
Stream size : 12.7 MiB (0%)
Language : German
Default : No
Forced : No

Subtitle #11
ID : 13
Format : VobSub
Muxing mode : zlib
Codec ID : S_VOBSUB
Codec ID/Info : Picture based subtitle format used on DVDs
Duration : 2 h 33 min
Bit rate : 8 943 b/s
Count of elements : 1611
Stream size : 9.83 MiB (0%)
Language : Dutch
Default : No
Forced : No

Subtitle #12
ID : 14
Format : VobSub
Muxing mode : zlib
Codec ID : S_VOBSUB
Codec ID/Info : Picture based subtitle format used on DVDs
Duration : 2 h 33 min
Bit rate : 9 226 b/s
Count of elements : 1859
Stream size : 10.1 MiB (0%)
Language : Swedish
Default : No
Forced : No

Subtitle #13
ID : 15
Format : VobSub
Muxing mode : zlib
Codec ID : S_VOBSUB
Codec ID/Info : Picture based subtitle format used on DVDs
Duration : 2 h 33 min
Bit rate : 8 678 b/s
Count of elements : 1856
Stream size : 9.53 MiB (0%)
Language : Norwegian Bokmal
Default : No
Forced : No

Subtitle #14
ID : 16
Format : VobSub
Muxing mode : zlib
Codec ID : S_VOBSUB
Codec ID/Info : Picture based subtitle format used on DVDs
Duration : 2 h 33 min
Bit rate : 8 739 b/s
Count of elements : 1851
Stream size : 9.60 MiB (0%)
Language : Danish
Default : No
Forced : No

Subtitle #15
ID : 17
Format : VobSub
Muxing mode : zlib
Codec ID : S_VOBSUB
Codec ID/Info : Picture based subtitle format used on DVDs
Duration : 2 h 33 min
Bit rate : 10.3 kb/s
Count of elements : 2081
Stream size : 11.3 MiB (0%)
Language : Finnish
Default : No
Forced : No

Subtitle #16
ID : 18
Format : VobSub
Muxing mode : zlib
Codec ID : S_VOBSUB
Codec ID/Info : Picture based subtitle format used on DVDs
Duration : 2 h 33 min
Bit rate : 8 939 b/s
Count of elements : 1842
Stream size : 9.82 MiB (0%)
Language : Icelandic
Default : No
Forced : No

Subtitle #17
ID : 19
Format : VobSub
Muxing mode : zlib
Codec ID : S_VOBSUB
Codec ID/Info : Picture based subtitle format used on DVDs
Duration : 2 h 33 min
Bit rate : 11.2 kb/s
Count of elements : 2082
Stream size : 12.3 MiB (0%)
Language : Ukrainian
Default : No
Forced : No

Subtitle #18
ID : 20
Format : VobSub
Muxing mode : zlib
Codec ID : S_VOBSUB
Codec ID/Info : Picture based subtitle format used on DVDs
Duration : 2 h 33 min
Bit rate : 9 052 b/s
Count of elements : 1613
Stream size : 9.95 MiB (0%)
Language : Czech
Default : No
Forced : No

Subtitle #19
ID : 21
Format : VobSub
Muxing mode : zlib
Codec ID : S_VOBSUB
Codec ID/Info : Picture based subtitle format used on DVDs
Duration : 2 h 33 min
Bit rate : 9 041 b/s
Count of elements : 1867
Stream size : 9.93 MiB (0%)
Language : German
Default : No
Forced : No

Subtitle #20
ID : 22
Format : VobSub
Muxing mode : zlib
Codec ID : S_VOBSUB
Codec ID/Info : Picture based subtitle format used on DVDs
Duration : 2 h 33 min
Bit rate : 10.2 kb/s
Count of elements : 2081
Stream size : 11.2 MiB (0%)
Language : Slovak
Default : No
Forced : No

Subtitle #21
ID : 23
Format : VobSub
Muxing mode : zlib
Codec ID : S_VOBSUB
Codec ID/Info : Picture based subtitle format used on DVDs
Duration : 2 h 33 min
Bit rate : 9 882 b/s
Count of elements : 1890
Stream size : 10.9 MiB (0%)
Language : Greek
Default : No
Forced : No

Subtitle #22
ID : 24
Format : VobSub
Muxing mode : zlib
Codec ID : S_VOBSUB
Codec ID/Info : Picture based subtitle format used on DVDs
Duration : 2 h 33 min
Bit rate : 9 561 b/s
Count of elements : 1858
Stream size : 10.5 MiB (0%)
Language : Turkish
Default : No
Forced : No

Subtitle #23
ID : 25
Format : VobSub
Muxing mode : zlib
Codec ID : S_VOBSUB
Codec ID/Info : Picture based subtitle format used on DVDs
Duration : 2 h 33 min
Bit rate : 5 178 b/s
Count of elements : 1845
Stream size : 5.69 MiB (0%)
Language : Arabic
Default : No
Forced : No

Subtitle #24
ID : 26
Format : VobSub
Muxing mode : zlib
Codec ID : S_VOBSUB
Codec ID/Info : Picture based subtitle format used on DVDs
Duration : 2 h 25 min
Bit rate : 7 403 b/s
Count of elements : 1979
Stream size : 7.73 MiB (0%)
Language : Japanese
Default : No
Forced : No

Subtitle #25
ID : 27
Format : VobSub
Muxing mode : zlib
Codec ID : S_VOBSUB
Codec ID/Info : Picture based subtitle format used on DVDs
Duration : 2 h 33 min
Bit rate : 7 140 b/s
Count of elements : 1846
Stream size : 7.84 MiB (0%)
Language : Chinese
Default : No
Forced : No

Subtitle #26
ID : 28
Format : VobSub
Muxing mode : zlib
Codec ID : S_VOBSUB
Codec ID/Info : Picture based subtitle format used on DVDs
Duration : 2 h 33 min
Bit rate : 6 928 b/s
Count of elements : 2138
Stream size : 7.61 MiB (0%)
Language : Chinese
Default : No
Forced : No

Subtitle #27
ID : 29
Format : VobSub
Muxing mode : zlib
Codec ID : S_VOBSUB
Codec ID/Info : Picture based subtitle format used on DVDs
Duration : 2 h 33 min
Bit rate : 6 132 b/s
Count of elements : 1844
Stream size : 6.74 MiB (0%)
Language : Korean
Default : No
Forced : No

Subtitle #28
ID : 30
Format : VobSub
Muxing mode : zlib
Codec ID : S_VOBSUB
Codec ID/Info : Picture based subtitle format used on DVDs
Duration : 2 h 33 min
Bit rate : 7 190 b/s
Count of elements : 1846
Stream size : 7.90 MiB (0%)
Language : Thai
Default : No
Forced : No

Subtitle #29
ID : 31
Format : VobSub
Muxing mode : zlib
Codec ID : S_VOBSUB
Codec ID/Info : Picture based subtitle format used on DVDs
Duration : 2 h 33 min
Bit rate : 9 317 b/s
Count of elements : 2100
Stream size : 10.2 MiB (0%)
Language : Hindi
Default : No
Forced : No

Subtitle #30
ID : 32
Format : UTF-8
Codec ID : S_TEXT/UTF8
Codec ID/Info : UTF-8 Plain Text
Duration : 2 h 33 min
Bit rate : 50 b/s
Count of elements : 1611
Stream size : 57.1 KiB (0%)
Language : Dutch
Default : No
Forced : No

Subtitle #31
ID : 33
Format : UTF-8
Codec ID : S_TEXT/UTF8
Codec ID/Info : UTF-8 Plain Text
Duration : 2 h 26 min
Bit rate : 102 b/s
Count of elements : 2266
Stream size : 110 KiB (0%)
Language : Persian
Default : No
Forced : No

Subtitle #32
ID : 34
Format : UTF-8
Codec ID : S_TEXT/UTF8
Codec ID/Info : UTF-8 Plain Text
Duration : 2 h 26 min
Bit rate : 69 b/s
Count of elements : 2074
Stream size : 74.6 KiB (0%)
Language : Indonesian
Default : No
Forced : No

Subtitle #33
ID : 35
Format : UTF-8
Codec ID : S_TEXT/UTF8
Codec ID/Info : UTF-8 Plain Text
Duration : 2 h 26 min
Bit rate : 88 b/s
Count of elements : 2100
Stream size : 95.3 KiB (0%)
Language : Vietnamese
Default : No
Forced : No

Menu
00:00:00.000 : en:00:00:00.000
00:08:52.574 : en:00:08:52.574
00:14:26.616 : en:00:14:26.616
00:20:20.928 : en:00:20:20.928
00:28:48.143 : en:00:28:48.143
00:36:18.635 : en:00:36:18.635
00:45:18.549 : en:00:45:18.549
00:51:53.027 : en:00:51:53.027
00:56:34.224 : en:00:56:34.224
01:04:13.308 : en:01:04:13.308
01:12:56.706 : en:01:12:56.706
01:19:09.078 : en:01:19:09.078
01:23:41.391 : en:01:23:41.391
01:28:44.819 : en:01:28:44.819
01:35:13.082 : en:01:35:13.082
01:42:44.158 : en:01:42:44.158
01:49:12.337 : en:01:49:12.337
01:56:42.913 : en:01:56:42.913
02:04:59.117 : en:02:04:59.117
02:11:29.590 : en:02:11:29.590
02:19:10.884 : en:02:19:10.884
02:25:37.520 : en:02:25:37.520

Download

File: Transformers Dark of the Moon 2011 (1080p x265 q22 FS78 Joy).mkv (5.9 GB)

Movie: Google Drive

Movie

Transformers Age of Extinction (2014) (1080p BluRay x265 HEVC 10bit AAC 7.1 Q22 Joy)

Encode

Source:

Transformers.Age.of.Extinction.2014.2160p.UHD.BluRay.X265-IAMABLE.mkv (36.66 GBs)

Mediainfo

General
Format : Matroska
Format version : Version 4 / Version 2
File size : 7.01 GiB
Duration : 2 h 45 min
Overall bit rate : 6 080 kb/s
Movie name : Transformers Age of Extinction 2014 (1080p x265 q22 FS80 Joy) [UTR]
Encoded date : UTC 2019-10-04 19:03:36
Writing application : mkvmerge v32.0.0 ('Astral Progressions') 64-bit
Writing library : libebml v1.3.7 + libmatroska v1.5.0
Cover : Yes
Attachments : cover.jpg
Writing frontend : StaxRip v2.0.2.0, Encoded by JoyBell

Video
ID : 1
Format : HEVC
Format/Info : High Efficiency Video Coding
Format profile : Main [email protected]@Main
Codec ID : V_MPEGH/ISO/HEVC
Duration : 2 h 45 min
Bit rate : 5 490 kb/s
Width : 1 920 pixels
Height : 800 pixels
Display aspect ratio : 2.40:1
Frame rate mode : Constant
Frame rate : 23.976 (24000/1001) FPS
Color space : YUV
Chroma subsampling : 4:2:0
Bit depth : 10 bits
Bits/(Pixel*Frame) : 0.149
Stream size : 6.33 GiB (90%)
Writing library : x265 3.0_Au+24-4217e691387c:[Windows][GCC 9.1.1][64 bit] 10bit
Encoding settings : rc=crf / crf=21.5000 / qcomp=0.60 / qpstep=4 / stats-write=0 / stats-read=0 / qpmax=69 / qpmin=0 / no-lossless / no-cu-lossless / no-hevc-aq / no-aq-motion / aq-mode=3 / aq-strength=1.00 / cbqpoffs=0 / crqpoffs=0 / ipratio=1.40 / pbratio=1.30 / psy-rd=0.00 / psy-rdoq=1.00 / deblock=-2:-2 / ref=4 / limit-refs=3 / limit-modes / bframes=8 / b-adapt=2 / bframe-bias=20 / b-pyramid / no-b-intra / weightp / no-weightb / keyint=250 / min-keyint=23 / rc-lookahead=80 / gop-lookahead=0 / scenecut=40 / scenecut-bias=0.05 / ctu=64 / min-cu-size=8 / me=3 / subme=5 / merange=57 / rd=4 / no-rd-refine / ssim-rd / dynamic-rd=0.00 / rdoq-level=2 / rdpenalty=0 / cutree / sao / no-limit-sao / sao-non-deblock / rect / no-amp / open-gop / max-tu-size=32 / tu-inter-depth=1 / tu-intra-depth=1 / limit-tu=0 / qg-size=32 / wpp / no-pmode / no-pme / no-psnr / ssim / no-tskip / constrained-intra / strong-intra-smoothing / max-merge=5 / nr-intra=0 / nr-inter=0 / input-csp=1 / input-res=1920x800 / interlace=0 / total-frames=237537 / level-idc=0 / high-tier=1cpuid=1111039 / frame-threads=3 / numa-pools=12 / log-level=2 / uhd-bd=0 / lookahead-slices=4 / radl=0 / no-splice / no-intra-refresh / signhide / temporal-mvp / no-analyze-src-pics / early-skip / rskip / no-fast-intra / no-tskip-fast / no-splitrd-skip / zone-count=0 / no-strict-cbr / no-rc-grain / no-const-vbv / no-allow-non-conformance / no-repeat-headers / annexb / no-aud / no-hrd / info / hash=0 / no-temporal-layers / sar=0 / overscan=0 / videoformat=5 / range=0 / colorprim=2 / transfer=2 / colormatrix=2 / chromaloc=0 / display-window=0 / max-cll=0,0 / min-luma=0 / max-luma=1023 / log2-max-poc-lsb=8 / vui-timing-info / vui-hrd-info / slices=1 / no-opt-qp-pps / no-opt-ref-list-length-pps / no-multi-pass-opt-rps / no-opt-cu-delta-qp / no-hdr / no-hdr-opt / no-dhdr10-opt / no-idr-recovery-sei / analysis-reuse-level=5 / scale-factor=0 / refine-intra=0 / refine-inter=0 / refine-mv=0 / refine-ctu-distortion=0 / ctu-info=0 / no-lowpass-dct / refine-analysis-type=0 / copy-pic=1 / max-ausize-factor=1.0 / no-dynamic-refine / no-single-sei / no-svt / qp-adaptation-range=1.00
Default : Yes
Forced : No

Audio
ID : 2
Format : AAC
Format/Info : Advanced Audio Codec
Format profile : LC
Codec ID : A_AAC
Duration : 2 h 45 min
Bit rate : 457 kb/s
Channel(s) : 8 channels
Channel positions : Front: L C R, Side: L R, Back: L R, LFE
Sampling rate : 48.0 kHz
Frame rate : 46.875 FPS (1024 spf)
Compression mode : Lossy
Delay relative to video : 9 ms
Stream size : 539 MiB (8%)
Language : English
Default : No
Forced : No

Subtitle #1
ID : 3
Format : UTF-8
Codec ID : S_TEXT/UTF8
Codec ID/Info : UTF-8 Plain Text
Duration : 1 h 17 min
Bit rate : 0 b/s
Count of elements : 9
Stream size : 365 Bytes (0%)
Language : English
Default : No
Forced : Yes

Subtitle #2
ID : 4
Format : VobSub
Muxing mode : zlib
Codec ID : S_VOBSUB
Codec ID/Info : Picture based subtitle format used on DVDs
Duration : 1 h 17 min
Bit rate : 40 b/s
Count of elements : 9
Stream size : 22.9 KiB (0%)
Language : English
Default : No
Forced : No

Subtitle #3
ID : 5
Format : UTF-8
Codec ID : S_TEXT/UTF8
Codec ID/Info : UTF-8 Plain Text
Duration : 2 h 34 min
Bit rate : 62 b/s
Count of elements : 2206
Stream size : 70.8 KiB (0%)
Language : English
Default : No
Forced : No

Subtitle #4
ID : 6
Format : UTF-8
Codec ID : S_TEXT/UTF8
Codec ID/Info : UTF-8 Plain Text
Duration : 2 h 34 min
Bit rate : 61 b/s
Count of elements : 2153
Stream size : 69.9 KiB (0%)
Language : English
Default : No
Forced : No

Subtitle #5
ID : 7
Format : VobSub
Muxing mode : zlib
Codec ID : S_VOBSUB
Codec ID/Info : Picture based subtitle format used on DVDs
Duration : 2 h 34 min
Bit rate : 10.7 kb/s
Count of elements : 2154
Stream size : 11.8 MiB (0%)
Language : English
Default : No
Forced : No

Subtitle #6
ID : 8
Format : UTF-8
Codec ID : S_TEXT/UTF8
Codec ID/Info : UTF-8 Plain Text
Duration : 2 h 35 min
Bit rate : 68 b/s
Count of elements : 2509
Stream size : 78.7 KiB (0%)
Language : English
Default : No
Forced : No

Subtitle #7
ID : 9
Format : VobSub
Muxing mode : zlib
Codec ID : S_VOBSUB
Codec ID/Info : Picture based subtitle format used on DVDs
Duration : 2 h 35 min
Bit rate : 12.3 kb/s
Count of elements : 2509
Stream size : 13.7 MiB (0%)
Language : English
Default : No
Forced : No

Subtitle #8
ID : 10
Format : VobSub
Muxing mode : zlib
Codec ID : S_VOBSUB
Codec ID/Info : Picture based subtitle format used on DVDs
Duration : 2 h 43 min
Bit rate : 7 931 b/s
Count of elements : 2044
Stream size : 9.30 MiB (0%)
Language : French
Default : No
Forced : No

Subtitle #9
ID : 11
Format : VobSub
Muxing mode : zlib
Codec ID : S_VOBSUB
Codec ID/Info : Picture based subtitle format used on DVDs
Duration : 2 h 43 min
Bit rate : 9 182 b/s
Count of elements : 1950
Stream size : 10.8 MiB (0%)
Language : Spanish
Default : No
Forced : No

Subtitle #10
ID : 12
Format : VobSub
Muxing mode : zlib
Codec ID : S_VOBSUB
Codec ID/Info : Picture based subtitle format used on DVDs
Duration : 2 h 43 min
Bit rate : 9 225 b/s
Count of elements : 1933
Stream size : 10.8 MiB (0%)
Language : Portuguese
Default : No
Forced : No

Subtitle #11
ID : 13
Format : VobSub
Muxing mode : zlib
Codec ID : S_VOBSUB
Codec ID/Info : Picture based subtitle format used on DVDs
Duration : 2 h 44 min
Bit rate : 8 655 b/s
Count of elements : 1844
Stream size : 10.2 MiB (0%)
Language : Italian
Default : No
Forced : No

Subtitle #12
ID : 14
Format : VobSub
Muxing mode : zlib
Codec ID : S_VOBSUB
Codec ID/Info : Picture based subtitle format used on DVDs
Duration : 2 h 43 min
Bit rate : 9 917 b/s
Count of elements : 2180
Stream size : 11.6 MiB (0%)
Language : German
Default : No
Forced : No

Subtitle #13
ID : 15
Format : VobSub
Muxing mode : zlib
Codec ID : S_VOBSUB
Codec ID/Info : Picture based subtitle format used on DVDs
Duration : 2 h 42 min
Bit rate : 7 960 b/s
Count of elements : 1728
Stream size : 9.25 MiB (0%)
Language : Dutch
Default : No
Forced : No

Subtitle #14
ID : 16
Format : VobSub
Muxing mode : zlib
Codec ID : S_VOBSUB
Codec ID/Info : Picture based subtitle format used on DVDs
Duration : 2 h 42 min
Bit rate : 8 628 b/s
Count of elements : 1872
Stream size : 10.0 MiB (0%)
Language : Swedish
Default : No
Forced : No

Subtitle #15
ID : 17
Format : VobSub
Muxing mode : zlib
Codec ID : S_VOBSUB
Codec ID/Info : Picture based subtitle format used on DVDs
Duration : 2 h 42 min
Bit rate : 8 441 b/s
Count of elements : 1880
Stream size : 9.81 MiB (0%)
Language : Norwegian Bokmal
Default : No
Forced : No

Subtitle #16
ID : 18
Format : VobSub
Muxing mode : zlib
Codec ID : S_VOBSUB
Codec ID/Info : Picture based subtitle format used on DVDs
Duration : 2 h 42 min
Bit rate : 8 274 b/s
Count of elements : 1611
Stream size : 9.62 MiB (0%)
Language : Danish
Default : No
Forced : No

Subtitle #17
ID : 19
Format : VobSub
Muxing mode : zlib
Codec ID : S_VOBSUB
Codec ID/Info : Picture based subtitle format used on DVDs
Duration : 2 h 42 min
Bit rate : 8 822 b/s
Count of elements : 2182
Stream size : 10.3 MiB (0%)
Language : Finnish
Default : No
Forced : No

Subtitle #18
ID : 20
Format : VobSub
Muxing mode : zlib
Codec ID : S_VOBSUB
Codec ID/Info : Picture based subtitle format used on DVDs
Duration : 2 h 42 min
Bit rate : 8 560 b/s
Count of elements : 1877
Stream size : 9.95 MiB (0%)
Language : Icelandic
Default : No
Forced : No

Subtitle #19
ID : 21
Format : VobSub
Muxing mode : zlib
Codec ID : S_VOBSUB
Codec ID/Info : Picture based subtitle format used on DVDs
Duration : 2 h 42 min
Bit rate : 10.1 kb/s
Count of elements : 2194
Stream size : 11.7 MiB (0%)
Language : Ukrainian
Default : No
Forced : No

Subtitle #20
ID : 22
Format : VobSub
Muxing mode : zlib
Codec ID : S_VOBSUB
Codec ID/Info : Picture based subtitle format used on DVDs
Duration : 2 h 43 min
Bit rate : 7 378 b/s
Count of elements : 1879
Stream size : 8.65 MiB (0%)
Language : Czech
Default : No
Forced : No

Subtitle #21
ID : 23
Format : VobSub
Muxing mode : zlib
Codec ID : S_VOBSUB
Codec ID/Info : Picture based subtitle format used on DVDs
Duration : 2 h 43 min
Bit rate : 7 904 b/s
Count of elements : 1878
Stream size : 9.27 MiB (0%)
Language : Romanian
Default : No
Forced : No

Subtitle #22
ID : 24
Format : VobSub
Muxing mode : zlib
Codec ID : S_VOBSUB
Codec ID/Info : Picture based subtitle format used on DVDs
Duration : 2 h 43 min
Bit rate : 7 937 b/s
Count of elements : 1880
Stream size : 9.31 MiB (0%)
Language : Slovak
Default : No
Forced : No

Subtitle #23
ID : 25
Format : VobSub
Muxing mode : zlib
Codec ID : S_VOBSUB
Codec ID/Info : Picture based subtitle format used on DVDs
Duration : 2 h 44 min
Bit rate : 9 294 b/s
Count of elements : 1883
Stream size : 10.9 MiB (0%)
Language : Greek
Default : No
Forced : No

Subtitle #24
ID : 26
Format : VobSub
Muxing mode : zlib
Codec ID : S_VOBSUB
Codec ID/Info : Picture based subtitle format used on DVDs
Duration : 2 h 43 min
Bit rate : 8 906 b/s
Count of elements : 1884
Stream size : 10.4 MiB (0%)
Language : Turkish
Default : No
Forced : No

Subtitle #25
ID : 27
Format : VobSub
Muxing mode : zlib
Codec ID : S_VOBSUB
Codec ID/Info : Picture based subtitle format used on DVDs
Duration : 2 h 42 min
Bit rate : 4 655 b/s
Count of elements : 1884
Stream size : 5.41 MiB (0%)
Language : Arabic
Default : No
Forced : No

Subtitle #26
ID : 28
Format : VobSub
Muxing mode : zlib
Codec ID : S_VOBSUB
Codec ID/Info : Picture based subtitle format used on DVDs
Duration : 2 h 34 min
Bit rate : 7 252 b/s
Count of elements : 2107
Stream size : 8.02 MiB (0%)
Language : Japanese
Default : No
Forced : No

Subtitle #27
ID : 29
Format : VobSub
Muxing mode : zlib
Codec ID : S_VOBSUB
Codec ID/Info : Picture based subtitle format used on DVDs
Duration : 2 h 44 min
Bit rate : 6 018 b/s
Count of elements : 1879
Stream size : 7.06 MiB (0%)
Language : Korean
Default : No
Forced : No

Subtitle #28
ID : 30
Format : VobSub
Muxing mode : zlib
Codec ID : S_VOBSUB
Codec ID/Info : Picture based subtitle format used on DVDs
Duration : 2 h 44 min
Bit rate : 6 205 b/s
Count of elements : 1884
Stream size : 7.28 MiB (0%)
Language : Thai
Default : No
Forced : No

Subtitle #29
ID : 31
Format : VobSub
Muxing mode : zlib
Codec ID : S_VOBSUB
Codec ID/Info : Picture based subtitle format used on DVDs
Duration : 2 h 42 min
Bit rate : 9 469 b/s
Count of elements : 2405
Stream size : 11.0 MiB (0%)
Language : Hindi
Default : No
Forced : No

Subtitle #30
ID : 32
Format : UTF-8
Codec ID : S_TEXT/UTF8
Codec ID/Info : UTF-8 Plain Text
Duration : 2 h 37 min
Bit rate : 132 b/s
Count of elements : 1835
Stream size : 152 KiB (0%)
Language : Arabic
Default : No
Forced : No

Subtitle #31
ID : 33
Format : UTF-8
Codec ID : S_TEXT/UTF8
Codec ID/Info : UTF-8 Plain Text
Duration : 2 h 36 min
Bit rate : 91 b/s
Count of elements : 2263
Stream size : 105 KiB (0%)
Language : Persian
Default : No
Forced : No

Subtitle #32
ID : 34
Format : UTF-8
Codec ID : S_TEXT/UTF8
Codec ID/Info : UTF-8 Plain Text
Duration : 2 h 37 min
Bit rate : 85 b/s
Count of elements : 2216
Stream size : 99.2 KiB (0%)
Language : Hebrew
Default : No
Forced : No

Subtitle #33
ID : 35
Format : UTF-8
Codec ID : S_TEXT/UTF8
Codec ID/Info : UTF-8 Plain Text
Duration : 2 h 38 min
Bit rate : 53 b/s
Count of elements : 2163
Stream size : 62.5 KiB (0%)
Language : Indonesian
Default : No
Forced : No

Subtitle #34
ID : 36
Format : UTF-8
Codec ID : S_TEXT/UTF8
Codec ID/Info : UTF-8 Plain Text
Duration : 2 h 36 min
Bit rate : 65 b/s
Count of elements : 1889
Stream size : 74.9 KiB (0%)
Language : Turkish
Default : No
Forced : No

Subtitle #35
ID : 37
Format : UTF-8
Codec ID : S_TEXT/UTF8
Codec ID/Info : UTF-8 Plain Text
Duration : 2 h 37 min
Bit rate : 73 b/s
Count of elements : 2134
Stream size : 84.4 KiB (0%)
Language : Vietnamese
Default : No
Forced : No

Menu
00:00:00.000 : en:00:00:00.000
00:06:51.578 : en:00:06:51.578
00:14:33.581 : en:00:14:33.581
00:21:37.463 : en:00:21:37.463
00:30:13.395 : en:00:30:13.395
00:38:45.990 : en:00:38:45.990
00:46:08.057 : en:00:46:08.057
00:51:39.513 : en:00:51:39.513
00:59:09.337 : en:00:59:09.337
01:07:48.648 : en:01:07:48.648
01:15:14.552 : en:01:15:14.552
01:23:25.292 : en:01:23:25.292
01:29:14.724 : en:01:29:14.724
01:37:16.956 : en:01:37:16.956
01:44:35.436 : en:01:44:35.436
01:51:25.053 : en:01:51:25.053
01:57:47.936 : en:01:57:47.936
02:04:48.481 : en:02:04:48.481
02:12:35.865 : en:02:12:35.865
02:21:04.206 : en:02:21:04.206
02:28:48.670 : en:02:28:48.670
02:37:09.629 : en:02:37:09.629

Download

File: Transformers Age of Extinction 2014 (1080p x265 q22 FS80 Joy).mkv (7.0 GB)

Movie: Google Drive

Movie

Transformers The Last Knight (2017) (1080p BluRay x265 HEVC 10bit AAC 7.1 Q22 Joy)

Encode

Source:

Transformers.The.Last.Knight.2017.1080p.BluRay.x264.TrueHD.7.1.Atmos-HDC (21.9 GB)

Mediainfo

General
Format : Matroska
Format version : Version 4 / Version 2
File size : 6.12 GiB
Duration : 2 h 34 min
Overall bit rate : 5 662 kb/s
Movie name : Transformers The Last Knight 2017 (1080p x265 q22 S92 Joy)[UTR]
Encoded date : UTC 2017-09-22 23:06:10
Writing application : mkvmerge v14.0.0 ('Flow') 64bit
Writing library : libebml v1.3.4 + libmatroska v1.4.5
Cover : Yes
Attachments : cover.jpg
Writing frontend : StaxRip v1.6.0.1

Video
ID : 1
Format : HEVC
Format/Info : High Efficiency Video Coding
Format profile : Main [email protected]@Main
Codec ID : V_MPEGH/ISO/HEVC
Duration : 2 h 34 min
Bit rate : 5 256 kb/s
Width : 1 920 pixels
Height : 1 008 pixels
Display aspect ratio : 1.905
Frame rate mode : Constant
Frame rate : 23.976 (24000/1001) FPS
Color space : YUV
Chroma subsampling : 4:2:0
Bit depth : 10 bits
Bits/(Pixel*Frame) : 0.113
Stream size : 5.68 GiB (93%)
Writing library : x265 2.5+6-d11482e5fedb:[Windows][GCC 7.1.0][64 bit] 10bit
Encoding settings : cpuid=1173503 / frame-threads=3 / numa-pools=8 / wpp / no-pmode / no-pme / no-psnr / ssim / log-level=2 / input-csp=1 / input-res=1920x1008 / interlace=0 / total-frames=222468 / level-idc=0 / high-tier=1 / uhd-bd=0 / ref=4 / no-allow-non-conformance / no-repeat-headers / annexb / no-aud / no-hrd / info / hash=0 / no-temporal-layers / open-gop / min-keyint=23 / keyint=250 / bframes=4 / b-adapt=2 / b-pyramid / bframe-bias=0 / rc-lookahead=25 / lookahead-slices=4 / scenecut=40 / no-intra-refresh / ctu=64 / min-cu-size=8 / rect / no-amp / max-tu-size=32 / tu-inter-depth=1 / tu-intra-depth=1 / limit-tu=0 / rdoq-level=2 / dynamic-rd=0.00 / ssim-rd / signhide / no-tskip / nr-intra=0 / nr-inter=0 / no-constrained-intra / strong-intra-smoothing / max-merge=3 / limit-refs=3 / limit-modes / me=3 / subme=3 / merange=57 / temporal-mvp / weightp / no-weightb / no-analyze-src-pics / deblock=0:0 / sao / no-sao-non-deblock / rd=6 / no-early-skip / rskip / no-fast-intra / no-tskip-fast / no-cu-lossless / no-b-intra / rdpenalty=0 / psy-rd=0.80 / psy-rdoq=1.10 / no-rd-refine / analysis-reuse-mode=0 / no-lossless / cbqpoffs=0 / crqpoffs=0 / rc=crf / crf=22.0 / qcomp=0.60 / qpstep=4 / stats-write=0 / stats-read=0 / ipratio=1.40 / pbratio=1.30 / aq-mode=3 / aq-strength=1.00 / cutree / zone-count=0 / no-strict-cbr / qg-size=32 / no-rc-grain / qpmax=69 / qpmin=0 / no-const-vbv / sar=0 / overscan=0 / videoformat=5 / range=0 / colorprim=2 / transfer=2 / colormatrix=2 / chromaloc=0 / display-window=0 / max-cll=0,0 / min-luma=0 / max-luma=1023 / log2-max-poc-lsb=8 / vui-timing-info / vui-hrd-info / slices=1 / opt-qp-pps / opt-ref-list-length-pps / no-multi-pass-opt-rps / scenecut-bias=0.05 / no-opt-cu-delta-qp / no-aq-motion / no-hdr / no-hdr-opt / no-dhdr10-opt / analysis-reuse-level=5 / scale-factor=0 / refine-intra=0 / refine-inter=0 / refine-mv=0 / no-limit-sao / ctu-info=0
Default : Yes
Forced : No

Audio
ID : 2
Format : AAC
Format/Info : Advanced Audio Codec
Format profile : LC
Codec ID : A_AAC
Duration : 2 h 34 min
Bit rate : 384 kb/s
Channel(s) : 8 channels
Channel positions : Front: L C R, Side: 4, LFE
Sampling rate : 48.0 kHz
Frame rate : 46.875 FPS (1024 spf)
Compression mode : Lossy
Delay relative to video : 20 ms
Stream size : 422 MiB (7%)
Title : Transformers.The.Last.Knight.2017.1080p.BluRay.x264.TrueHD.7.1.Atmos-HDC
Language : English
Default : Yes
Forced : No

Subtitle #1
ID : 3
Format : PGS
Muxing mode : zlib
Codec ID : S_HDMV/PGS
Codec ID/Info : Picture based subtitle format used on BDs/HD-DVDs
Duration : 2 h 24 min
Bit rate : 41.6 kb/s
Count of elements : 4552
Stream size : 43.1 MiB (1%)
Language : English
Default : No
Forced : No

Subtitle #2
ID : 4
Format : VobSub
Muxing mode : zlib
Codec ID : S_VOBSUB
Codec ID/Info : Picture based subtitle format used on DVDs
Duration : 2 h 25 min
Bit rate : 13.4 kb/s
Count of elements : 2620
Stream size : 14.0 MiB (0%)
Language : English
Default : No
Forced : No

Subtitle #3
ID : 5
Format : UTF-8
Codec ID : S_TEXT/UTF8
Codec ID/Info : UTF-8 Plain Text
Duration : 2 h 26 min
Bit rate : 93 b/s
Count of elements : 2315
Stream size : 101 KiB (0%)
Language : Arabic
Default : No
Forced : No

Subtitle #4
ID : 6
Format : UTF-8
Codec ID : S_TEXT/UTF8
Codec ID/Info : UTF-8 Plain Text
Duration : 2 h 25 min
Bit rate : 58 b/s
Count of elements : 2341
Stream size : 62.8 KiB (0%)
Language : Chinese
Default : No
Forced : No

Subtitle #5
ID : 7
Format : UTF-8
Codec ID : S_TEXT/UTF8
Codec ID/Info : UTF-8 Plain Text
Duration : 2 h 26 min
Bit rate : 57 b/s
Count of elements : 1587
Stream size : 61.4 KiB (0%)
Language : Danish
Default : No
Forced : No

Subtitle #6
ID : 8
Format : UTF-8
Codec ID : S_TEXT/UTF8
Codec ID/Info : UTF-8 Plain Text
Duration : 2 h 25 min
Bit rate : 62 b/s
Count of elements : 1606
Stream size : 66.7 KiB (0%)
Language : Dutch
Default : No
Forced : No

Subtitle #7
ID : 9
Format : UTF-8
Codec ID : S_TEXT/UTF8
Codec ID/Info : UTF-8 Plain Text
Duration : 2 h 26 min
Bit rate : 108 b/s
Count of elements : 2317
Stream size : 116 KiB (0%)
Language : Persian
Default : No
Forced : No

Subtitle #8
ID : 10
Format : UTF-8
Codec ID : S_TEXT/UTF8
Codec ID/Info : UTF-8 Plain Text
Duration : 2 h 25 min
Bit rate : 67 b/s
Count of elements : 2306
Stream size : 71.8 KiB (0%)
Language : French
Default : No
Forced : No

Subtitle #9
ID : 11
Format : UTF-8
Codec ID : S_TEXT/UTF8
Codec ID/Info : UTF-8 Plain Text
Duration : 2 h 30 min
Bit rate : 63 b/s
Count of elements : 1537
Stream size : 69.6 KiB (0%)
Language : Hebrew
Default : No
Forced : No

Subtitle #10
ID : 12
Format : UTF-8
Codec ID : S_TEXT/UTF8
Codec ID/Info : UTF-8 Plain Text
Duration : 2 h 26 min
Bit rate : 124 b/s
Count of elements : 2212
Stream size : 134 KiB (0%)
Language : Indonesian
Default : No
Forced : No

Subtitle #11
ID : 13
Format : UTF-8
Codec ID : S_TEXT/UTF8
Codec ID/Info : UTF-8 Plain Text
Duration : 2 h 27 min
Bit rate : 67 b/s
Count of elements : 2378
Stream size : 72.5 KiB (0%)
Language : Malay
Default : No
Forced : No

Subtitle #12
ID : 14
Format : UTF-8
Codec ID : S_TEXT/UTF8
Codec ID/Info : UTF-8 Plain Text
Duration : 2 h 26 min
Bit rate : 71 b/s
Count of elements : 1618
Stream size : 77.2 KiB (0%)
Language : Norwegian
Default : No
Forced : No

Subtitle #13
ID : 15
Format : UTF-8
Codec ID : S_TEXT/UTF8
Codec ID/Info : UTF-8 Plain Text
Duration : 2 h 25 min
Bit rate : 56 b/s
Count of elements : 2306
Stream size : 60.1 KiB (0%)
Language : Portuguese
Default : No
Forced : No

Subtitle #14
ID : 16
Format : UTF-8
Codec ID : S_TEXT/UTF8
Codec ID/Info : UTF-8 Plain Text
Duration : 2 h 25 min
Bit rate : 62 b/s
Count of elements : 2286
Stream size : 66.5 KiB (0%)
Language : Spanish
Default : No
Forced : No

Subtitle #15
ID : 17
Format : UTF-8
Codec ID : S_TEXT/UTF8
Codec ID/Info : UTF-8 Plain Text
Duration : 2 h 24 min
Bit rate : 116 b/s
Count of elements : 2336
Stream size : 123 KiB (0%)
Language : Urdu
Default : No
Forced : No

Subtitle #16
ID : 18
Format : UTF-8
Codec ID : S_TEXT/UTF8
Codec ID/Info : UTF-8 Plain Text
Duration : 2 h 24 min
Bit rate : 89 b/s
Count of elements : 2333
Stream size : 94.6 KiB (0%)
Language : Vietnamese
Default : No
Forced : No

Menu
00:00:00.000 : en:00:00:00.000
00:06:36.104 : en:00:06:36.104
00:14:03.468 : en:00:14:03.468
00:21:45.763 : en:00:21:45.763
00:27:53.255 : en:00:27:53.255
00:33:53.907 : en:00:33:53.907
00:40:08.906 : en:00:40:08.906
00:46:58.941 : en:00:46:58.941
00:53:25.786 : en:00:53:25.786
01:02:02.928 : en:01:02:02.928
01:08:47.081 : en:01:08:47.081
01:14:37.223 : en:01:14:37.223
01:20:10.180 : en:01:20:10.180
01:29:13.390 : en:01:29:13.390
01:37:59.499 : en:01:37:59.499
01:44:57.583 : en:01:44:57.583
01:51:15.502 : en:01:51:15.502
01:57:59.447 : en:01:57:59.447
02:06:09.729 : en:02:06:09.729
02:10:54.096 : en:02:10:54.096
02:16:01.153 : en:02:16:01.153
02:21:42.619 : en:02:21:42.619
02:25:17.292 : en:02:25:17.292

Download

File: Transformers The Last Knight 2017 (1080p x265 q22 S92 Joy).mkv (6.1 GB)

Movie: Google Drive

3 thoughts on “Transformers 5-Movie Collection (1080p BluRay x265 HEVC 10bit AAC 7.1 Q22 Joy)

Leave a Reply