Transformers: The Last Knight 2017 (1080p Bluray x265 HEVC 10bit AAC 7.1 Tigole)

Info

Plot: Autobots and Decepticons are at war, with humans on the sidelines. Optimus Prime is gone. The key to saving our future lies buried in the secrets of the past, in the hidden history of Transformers on Earth.

Encode

Transformers: The Last Knight 2017 in 1080p, encoded with x265 in HEVC and AAC 7.1 English, with subtitles!
Encoded using the time consuming 2 pass, 10 bit color at 5000 kbps, from a Blu-ray source, for the highest quality possible.

Source:

Release : Transformers.The.Last.Knight.2017.1080p.Blu-ray.AVC.Atmos.TrueHD7.1-HDChina 
Complete name : Transformers_The_Last_Knight_t01.mkv 
File size : 38.4 GiB 
Duration : 2 h 34 min 
Overall bit rate mode : Variable 
Overall bit rate : 35.6 Mb/s

Mediainfo

General 
Format : Matroska 
Format version : Version 4 / Version 2 
File size : 6.05 GiB 
Duration : 2 h 34 min 
Overall bit rate : 5 598 kb/s 
Movie name : Transformers: The Last Knight 
Encoded date : UTC 2017-09-20 18:00:22 
Writing application : mkvmerge v14.0.0 ('Flow') 64bit 
Writing library : libebml v1.3.4 + libmatroska v1.4.5 

Video 
ID : 1 
Format : HEVC 
Format/Info : High Efficiency Video Coding 
Format profile : Main [email protected]@Main 
Codec ID : V_MPEGH/ISO/HEVC 
Duration : 2 h 34 min 
Bit rate : 4 998 kb/s 
Width : 1 920 pixels 
Height : 1 008 pixels 
Display aspect ratio : 1.905 
Frame rate mode : Constant 
Frame rate : 23.976 (24000/1001) FPS 
Color space : YUV 
Chroma subsampling : 4:2:0 
Bit depth : 10 bits 
Bits/(Pixel*Frame) : 0.108 
Stream size : 5.40 GiB (89%) 
Writing library : x265 2.5+14-2718cb5dd67f:[Windows][GCC 7.1.0][64 bit] 10bit 
Encoding settings : cpuid=1173503 / frame-threads=3 / numa-pools=8 / wpp / no-pmode / no-pme / no-psnr / no-ssim / log-level=2 / input-csp=1 / input-res=1920x1008 / interlace=0 / total-frames=222468 / level-idc=0 / high-tier=1 / uhd-bd=0 / ref=4 / no-allow-non-conformance / no-repeat-headers / annexb / no-aud / no-hrd / info / hash=0 / no-temporal-layers / open-gop / min-keyint=23 / keyint=250 / bframes=4 / b-adapt=2 / b-pyramid / bframe-bias=0 / rc-lookahead=25 / lookahead-slices=4 / scenecut=40 / no-intra-refresh / ctu=64 / min-cu-size=8 / rect / no-amp / max-tu-size=32 / tu-inter-depth=1 / tu-intra-depth=1 / limit-tu=0 / rdoq-level=2 / dynamic-rd=0.00 / no-ssim-rd / signhide / no-tskip / nr-intra=0 / nr-inter=0 / no-constrained-intra / strong-intra-smoothing / max-merge=3 / limit-refs=3 / limit-modes / me=3 / subme=3 / merange=57 / temporal-mvp / weightp / no-weightb / no-analyze-src-pics / deblock=0:0 / sao / no-sao-non-deblock / rd=4 / no-early-skip / rskip / no-fast-intra / no-tskip-fast / no-cu-lossless / no-b-intra / no-splitrd-skip / rdpenalty=0 / psy-rd=2.00 / psy-rdoq=1.00 / no-rd-refine / analysis-reuse-mode=0 / no-lossless / cbqpoffs=0 / crqpoffs=0 / rc=abr / bitrate=5000 / qcomp=0.60 / qpstep=4 / stats-write=0 / stats-read=2 / cplxblur=20.0 / qblur=0.5 / ipratio=1.40 / pbratio=1.30 / aq-mode=2 / aq-strength=1.00 / cutree / zone-count=0 / no-strict-cbr / qg-size=32 / no-rc-grain / qpmax=69 / qpmin=0 / no-const-vbv / sar=0 / overscan=0 / videoformat=5 / range=0 / colorprim=2 / transfer=2 / colormatrix=2 / chromaloc=0 / display-window=0 / max-cll=0,0 / min-luma=0 / max-luma=1023 / log2-max-poc-lsb=8 / vui-timing-info / vui-hrd-info / slices=1 / opt-qp-pps / opt-ref-list-length-pps / no-multi-pass-opt-rps / scenecut-bias=0.05 / no-opt-cu-delta-qp / no-aq-motion / no-hdr / no-hdr-opt / no-dhdr10-opt / analysis-reuse-level=5 / scale-factor=0 / refine-intra=0 / refine-inter=0 / refine-mv=0 / no-limit-sao / ctu-info=0 
Default : Yes 
Forced : No 

Audio 
ID : 2 
Format : AAC 
Format/Info : Advanced Audio Codec 
Format profile : LC 
Codec ID : A_AAC 
Duration : 2 h 34 min 
Bit rate : 576 kb/s 
Channel(s) : 8 channels 
Channel positions : Front: L C R, Side: 4, LFE 
Sampling rate : 48.0 kHz 
Frame rate : 46.875 FPS (1024 spf) 
Compression mode : Lossy 
Delay relative to video : 20 ms 
Stream size : 631 MiB (10%) 
Language : English 
Default : Yes 
Forced : No 

Text #1 
ID : 3 
Format : VobSub 
Muxing mode : zlib 
Codec ID : S_VOBSUB 
Codec ID/Info : Picture based subtitle format used on DVDs 
Duration : 2 h 25 min 
Bit rate : 13.4 kb/s 
Count of elements : 2620 
Stream size : 14.0 MiB (0%) 
Language : English 
Default : No 
Forced : No 

Text #2 
ID : 4 
Format : VobSub 
Muxing mode : zlib 
Codec ID : S_VOBSUB 
Codec ID/Info : Picture based subtitle format used on DVDs 
Duration : 2 h 25 min 
Bit rate : 10.8 kb/s 
Count of elements : 2307 
Stream size : 11.3 MiB (0%) 
Language : French 
Default : No 
Forced : No 

Text #3 
ID : 5 
Format : VobSub 
Muxing mode : zlib 
Codec ID : S_VOBSUB 
Codec ID/Info : Picture based subtitle format used on DVDs 
Duration : 2 h 25 min 
Bit rate : 9 459 b/s 
Count of elements : 2307 
Stream size : 9.86 MiB (0%) 
Language : Portuguese 
Default : No 
Forced : No 

Text #4 
ID : 6 
Format : VobSub 
Muxing mode : zlib 
Codec ID : S_VOBSUB 
Codec ID/Info : Picture based subtitle format used on DVDs 
Duration : 2 h 25 min 
Bit rate : 10.3 kb/s 
Count of elements : 2288 
Stream size : 10.7 MiB (0%) 
Language : Spanish 
Default : No 
Forced : No 

Menu 
00:00:00.000 : en:Chapter 01 
00:06:36.104 : en:Chapter 02 
00:14:03.467 : en:Chapter 03 
00:21:45.762 : en:Chapter 04 
00:27:53.254 : en:Chapter 05 
00:33:53.906 : en:Chapter 06 
00:40:08.906 : en:Chapter 07 
00:46:58.941 : en:Chapter 08 
00:53:25.785 : en:Chapter 09 
01:02:02.927 : en:Chapter 10 
01:08:47.081 : en:Chapter 11 
01:14:37.222 : en:Chapter 12 
01:20:10.180 : en:Chapter 13 
01:29:13.389 : en:Chapter 14 
01:37:59.498 : en:Chapter 15 
01:44:57.582 : en:Chapter 16 
01:51:15.502 : en:Chapter 17 
01:57:59.447 : en:Chapter 18 
02:06:09.728 : en:Chapter 19 
02:10:54.096 : en:Chapter 20 
02:16:01.153 : en:Chapter 21 
02:21:42.619 : en:Chapter 22 
02:25:17.291 : en:Chapter 23

Screencaps

Download

File: Transformers – The Last Knight 2017 (1080p x265 10bit Tigole).mkv (6.0 GB)

Movie: Google Drive

Leave a Reply